#TITLE:Disconnected;
#SUBTITLE:(AS-13 Remix);
#ARTIST:AS-13;
#TITLETRANSLIT:;
#SUBTITLETRANSLIT:;
#ARTISTTRANSLIT:;
#CREDIT:;
#BANNER:disconnectedas13remixbanner.bmp;
#BACKGROUND:disconnectedas13remixbg.bmp;
#LYRICSPATH:;
#CDTITLE:;
#MUSIC:Disconnected (AS-13 Remix).mp3;
#OFFSET:-0.060;
#SAMPLESTART:64.008;
#SAMPLELENGTH:12.000;
#SELECTABLE:YES;
#BPMS:0.000=210.000;
#STOPS:288.000=2.005
;
#BGCHANGES:;

//---------------dance-single - Blank----------------
#NOTES:
     dance-single:
     Blank:
     Hard:
     9:
     0.747,0.848,0.279,0.221,0.000: // measure 1
0000
0000
0000
0000
,  // measure 2
0000
0000
0000
0000
,  // measure 3
0000
0000
0000
0000
,  // measure 4
0000
0000
0000
0000
,  // measure 5
0001
0000
0100
0000
0001
1000
0000
0100
,  // measure 6
0000
1000
0001
0000
0100
0001
0100
0010
,  // measure 7
1000
0000
0001
0010
0100
0000
1000
0100
,  // measure 8
0010
0100
0010
0100
1000
0001
1000
0001
,  // measure 9
0100
0010
0000
0010
0100
0000
0001
0000
,  // measure 10
0100
0010
1000
0000
0010
0100
0001
0000
,  // measure 11
0010
0100
0000
0100
1000
0000
0010
0000
,  // measure 12
0100
0001
1000
0000
0001
1000
0010
0000
,  // measure 13
1000
0001
0000
0001
0010
0000
0100
0000
,  // measure 14
1000
0100
0010
0000
0100
1000
0001
0000
,  // measure 15
0100
0001
0000
0001
1000
0000
0100
0000
,  // measure 16
1000
0001
1000
0000
0100
1000
0100
0000
,  // measure 17
0010
0100
0000
0010
0100
0000
1000
0000
,  // measure 18
0100
0010
0001
0000
1000
0001
0010
0000
,  // measure 19
1000
0010
0000
0001
0010
0000
0100
0000
,  // measure 20
0010
0001
1000
0000
0100
1000
0001
0000
,  // measure 21
0100
0001
0000
0010
0001
0000
0100
0000
,  // measure 22
0010
1000
0010
0000
0100
0010
0100
0000
,  // measure 23
0001
1000
0000
0001
0100
0000
1000
0000
,  // measure 24
0100
0001
1000
0000
0100
1000
0010
0000
,  // measure 25
1001
0000
0000
0100
0000
0000
0010
0000
,  // measure 26
0000
1000
0000
0000
0001
0000
0010
0100
,  // measure 27
1000
0000
0000
0100
0000
0000
0010
0000
,  // measure 28
0000
0001
0000
0000
0100
0010
0100
0010
,  // measure 29
1000
0000
0000
0010
0000
0000
0100
0000
,  // measure 30
0000
0001
0000
0000
0010
0100
1000
0100
,  // measure 31
0010
0000
0010
0001
0000
0001
1000
0000
,  // measure 32
0010
1000
0001
0100
,  // measure 33
0010
0100
0000
0001
1000
0000
0100
0000
,  // measure 34
0010
0001
1000
0010
0100
0001
1000
0000
,  // measure 35
0100
1000
0000
0010
0100
0000
0001
0000
,  // measure 36
0010
0001
0010
0100
1000
0100
0010
0000
,  // measure 37
0001
1000
0000
0010
1000
0000
0001
0000
,  // measure 38
0100
0001
1000
0100
1000
0001
0100
0000
,  // measure 39
0001
0010
0000
0100
1000
0000
0100
0000
,  // measure 40
0001
0100
1000
0001
0010
1000
0010
0000
,  // measure 41
0001
1000
0000
0100
0010
0000
0100
0000
,  // measure 42
0001
0100
1000
0001
0100
0010
0100
0000
,  // measure 43
0001
1000
0000
0010
1000
0000
0001
0000
,  // measure 44
1000
0010
0100
0001
1000
0100
1000
0000
,  // measure 45
0001
0100
0000
0001
1000
0000
0001
0000
,  // measure 46
0100
0001
1000
0010
1000
0001
1000
0000
,  // measure 47
0100
0010
0000
0100
1000
0000
0001
0000
,  // measure 48
0100
0001
0010
0100
0010
0001
0010
0000
,  // measure 49
0100
1000
0100
1000
0200
0000
0300
0000
,  // measure 50
2200
0000
3300
2002
0000
3003
0202
0000
0000
0303
0000
0000
,  // measure 51
0010
0000
1000
0010
0100
0001
0000
0000
,  // measure 52
0202
0000
0000
0000
0303
0000
0220
0000
0000
0000
0330
0000
2020
0000
0000
0000
0000
0000
3030
0000
0000
1000
0000
0000
,  // measure 53
0010
1000
0001
1000
0100
0000
0000
0000
,  // measure 54
0220
0000
0000
0000
0330
0000
0022
0000
0000
0000
0033
0000
0101
0000
0000
0100
0000
0000
0010
0000
0000
0100
0000
0000
,  // measure 55
0001
0000
1000
0100
0010
0100
0000
0000
,  // measure 56
0220
0000
0000
0000
0330
0000
0022
0000
0000
0000
0033
0000
2002
0000
0000
0000
3003
0000
0000
0000
0000
0010
0000
0000
,  // measure 57
1010
1000
0001
1000
0100
1000
0100
0010
,  // measure 58
0100
0010
0001
0010
0100
0010
0100
0000
,  // measure 59
1000
0100
1000
0010
1000
0001
0010
0001
,  // measure 60
1000
0001
1000
0100
0000
1000
0001
0000
,  // measure 61
0100
0001
1000
0001
0100
0001
1000
0010
,  // measure 62
1000
0001
1000
0100
1000
0100
0010
0000
,  // measure 63
0100
1000
0010
1000
0001
0010
0100
0010
,  // measure 64
0001
0101
0110
1010
,  // measure 65
1001
1000
0001
0100
0010
0100
0001
0100
,  // measure 66
0001
1000
0010
1000
0001
1000
0001
0000
,  // measure 67
0010
0001
1000
0100
1000
0001
1000
0100
,  // measure 68
1000
0010
1000
0010
0000
0100
0001
0000
,  // measure 69
1000
0001
0010
0001
1000
0100
1000
0100
,  // measure 70
0010
0100
0010
0001
1000
0001
0010
0000
,  // measure 71
0100
1000
0001
0100
0010
1000
0100
0010
,  // measure 72
0001
0000
0110
1000
0001
0110
0000
0000
,  // measure 73
1001
0000
0100
0010
0000
1000
0001
0000
,  // measure 74
0010
0000
0100
1000
0010
0100
0001
1000
,  // measure 75
0100
0000
1000
0001
0000
0100
0010
0000
,  // measure 76
1000
0000
0010
0100
0001
0010
0100
1000
,  // measure 77
0100
0000
0010
0001
0000
0100
1000
0000
,  // measure 78
0100
0000
0001
1000
0100
1000
0001
0100
,  // measure 79
0010
0000
0100
0010
0000
1000
0010
0000
,  // measure 80
1000
0000
0001
0100
0010
1000
0100
0010
,  // measure 81
0001
0000
0011
0000
0010
0100
0000
0000
,  // measure 82
1100
0000
1000
0001
0100
0010
0100
0000
,  // measure 83
0001
0010
1001
0000
1000
0010
0100
0000
,  // measure 84
0101
0000
0001
1000
0001
0100
0010
1000
,  // measure 85
0100
0000
0110
0000
0001
0010
0001
1000
,  // measure 86
0010
0000
1010
0000
0101
0000
0100
0010
,  // measure 87
1000
0001
1000
0010
0100
0001
1000
0001
,  // measure 88
0100
0010
1000
0100
1000
0001
0010
0100
,  // measure 89
0010
0001
1001
0000
0000
0000
0000
0000
;

//---------------dance-single - Blank----------------
#NOTES:
     dance-single:
     Blank:
     Medium:
     6:
     0.501,0.636,0.259,0.125,0.000:
0000
0000
0000
0000
,
0000
0000
0000
0000
,
0000
0000
0000
0000
,
0000
0000
0000
0000
,
1000
0100
0001
0100
,
1000
0010
0001
0010
,
1000
0100
0001
0010
,
1000
0010
0001
0100
,
1100
1000
0001
0100
,
0010
1000
0001
1000
,
0010
0001
0010
1000
,
0001
0010
0100
1000
,
0010
0100
0001
0100
,
0010
1000
0001
1000
,
0010
0100
0001
0010
,
0100
1000
1010
0101
,
0010
1000
0001
0010
,
1000
0001
0100
1000
,
0010
0100
1000
0100
,
0001
1000
0100
0010
,
0011
0100
1100
1010
,
1001
0101
1010
1000
,
0001
0000
0010
0000
0100
0000
1000
0001
,
1000
0101
2002
3003
,
0010
0000
0000
1000
0000
0000
0100
0000
,
0000
1000
0000
0000
0001
0000
0100
0010
,
0100
0000
0000
0001
0000
0000
0010
0000
,
0000
0100
0000
0000
0010
0001
0010
0001
,
1000
0000
0000
0010
0000
0000
0001
0000
,
0000
0010
0000
0000
1000
0001
1000
0001
,
0100
0000
0000
0001
0000
0000
0010
0000
,
0000
0100
0000
0000
1000
0100
1000
0100
,
0010
0001
1000
0010
,
0001
0010
1000
0100
,
0001
0100
0010
1000
,
0100
0001
1000
0010
,
0001
1000
0010
0100
,
1000
0100
0010
0001
,
0100
0010
1000
0100
,
0010
0100
1000
0010
,
0001
0010
0100
1000
,
0100
0001
1000
0001
,
0100
0001
1000
0100
,
0010
0001
1000
0001
,
0010
0100
1000
0010
,
0100
0001
1000
0001
,
0100
1000
0100
0010
,
0001
0010
1000
0001
,
0010
0000
0100
0010
0100
0000
0000
0000
,
2000
0000
3200
0000
0320
0000
0030
0001
,
1000
0000
0010
0000
1000
0100
0000
0000
,
0020
0000
0032
0000
0203
0000
0300
0010
,
1000
0000
0100
1000
0010
0000
0000
0000
,
0002
0000
0023
0000
1030
0001
1000
0001
,
1000
0000
0100
0000
1000
0010
0000
0000
,
0200
0320
2030
3000
,
1001
0010
0001
1000
,
0010
0001
0010
0100
,
1000
0001
0100
1000
,
0010
0100
0001
0010
,
0100
1000
0001
0100
,
0010
1000
0001
1000
,
0010
0001
0010
1000
,
0100
0000
0010
0000
1000
0001
0010
0001
,
0100
0010
1000
0100
,
0010
0001
0100
0010
,
1000
0001
0010
0100
,
1000
0001
1000
0010
,
0001
0010
0100
0010
,
1000
0001
0010
0100
,
1000
0010
0100
0001
,
0010
0001
0010
0100
1000
0100
0010
0100
,
1001
0010
0001
1000
,
0010
0100
0001
0100
,
0010
1000
0001
1000
,
0010
0001
0010
1000
,
0100
0010
0001
1000
,
0010
0100
0001
0010
,
0001
1000
0010
0100
,
0001
0010
0100
1000
,
0001
0101
0000
0000
,
1001
0000
0000
0000
,
0000
0000
1010
0000
0000
1100
0000
0000
,
0011
0000
0000
0000
,
0000
1001
0000
0000
,
0110
0000
0000
0000
0000
0000
0000
1010
,
0000
0000
1001
0000
0000
0101
0000
0000
,
0110
0000
0000
1001
,
0110
1001
0000
0000
;

//---------------dance-single - Blank----------------
#NOTES:
     dance-single:
     Blank:
     Easy:
     4:
     0.334,0.424,0.019,0.038,0.000:
0000
0000
0000
0000
,
0000
0000
0000
0000
,
0000
0000
0000
0000
,
0000
0000
0000
0000
,
0001
0000
0001
0000
,
1000
0000
1000
0000
,
0001
0000
0001
0000
,
1000
0000
1000
0000
,
0010
0000
1000
1000
,
0001
0001
0100
0000
,
0001
0000
0010
0010
,
0100
0100
0010
0000
,
0001
0000
0010
0010
,
0001
0001
0100
0000
,
0010
0000
1000
1000
,
0001
0001
0010
0000
,
0100
0000
1000
0100
,
0010
0100
1000
0000
,
0001
0000
0100
0010
,
1000
0010
0100
0000
,
0001
0000
1000
0100
,
0010
0001
1000
0000
,
0010
0000
1000
0001
,
0010
0001
0100
0000
,
0010
0000
0000
0010
,
0000
0000
0000
0000
,
1000
0000
0000
1000
0000
0000
1000
0000
,
0000
0000
0000
0000
,
0001
0000
0000
0001
,
0000
0000
0000
0000
0000
0010
0000
0000
,
0010
0000
0000
0010
0000
0000
0010
0000
,
0000
0000
0000
0000
,
0100
0000
1000
0010
,
0100
0001
1000
0000
,
0100
0000
1000
0001
,
0100
0001
0010
0000
,
0100
0000
0010
0001
,
1000
0001
1000
0000
,
0100
0000
0010
0100
,
0010
0100
1000
0000
,
0001
0000
0100
0010
,
1000
0010
0100
0000
,
0001
0000
0010
0001
,
1000
0100
1000
0000
,
0001
0000
0100
0010
,
1000
0001
1000
0000
,
0010
0000
1000
0100
,
1000
0001
0100
0000
,
0010
0000
0010
0000
,
1000
1000
2000
3000
,
0001
0000
0001
0000
,
0100
0100
0200
0300
,
0001
0000
0001
0000
,
0010
0010
0020
0030
,
0100
0000
0100
0000
,
1000
1000
2000
3000
,
0001
0001
1000
1000
,
0100
0010
0100
0010
,
0001
0001
0010
0010
,
0100
1000
0100
1000
,
0010
0010
1000
1000
,
0001
0100
0001
0100
,
0001
0001
1000
1000
,
0100
1000
0100
1000
,
0010
0010
0100
0100
,
0001
0010
0100
1000
,
0010
0010
1000
1000
,
0100
0001
0100
1000
,
0001
0001
0100
0100
,
0010
1000
0100
1000
,
0010
0010
0100
0100
,
0001
1000
0100
0010
,
1001
0000
0000
0100
,
1000
0001
0100
0010
,
0000
1000
0000
0001
,
0010
0100
1000
0001
,
0000
0100
0000
0001
,
1000
0100
1000
0010
,
0000
0001
0000
0010
,
1000
0100
1000
0001
,
0000
0010
0000
0000
,
0010
0000
0000
0000
,
0000
0000
0001
0000
0000
0001
0000
0000
,
0001
0000
0000
0000
,
0000
1000
0000
0000
,
1000
0000
0000
0000
0000
0000
0000
0100
,
0000
0000
0100
0000
0000
0100
0000
0000
,
0100
0000
0000
0010
,
0100
1001
0000
0000
;
