#TITLE:Digital Constellations;
#SUBTITLE:;
#ARTIST:AS-13;
#TITLETRANSLIT:;
#SUBTITLETRANSLIT:;
#ARTISTTRANSLIT:;
#GENRE:;
#CREDIT:;
#BANNER:digitalconstellations-bn.png;
#BACKGROUND:digitalconstellations-bg.png;
#LYRICSPATH:;
#CDTITLE:;
#MUSIC:Digital Constellations.mp3;
#OFFSET:-0.080000;
#SAMPLESTART:27.025600;
#SAMPLELENGTH:12.000000;
#SELECTABLE:YES;
#BPMS:0.000000=160.000000
;
#STOPS:
;
#BGCHANGES:;
#KEYSOUNDS:;
#ATTACKS:;

//---------------dance-single - ----------------
#NOTES:
     dance-single:
     :
     Hard:
     7:
     0.394407,0.419860,0.264618,0.255797,0.008821,254.000000,30.000000,29.000000,0.000000,0.000000,0.000000,0.394407,0.419860,0.264618,0.255797,0.008821,254.000000,30.000000,29.000000,0.000000,0.000000,0.000000:
0000
0000
0000
0000
,
0000
0000
0000
0000
,
0000
0000
0000
0000
,
0000
0000
0000
0000
,
0000
0000
0000
0000
,
0000
0000
0000
0000
,
0000
0000
0000
0000
,
0000
0000
0000
0000
0000
0000
0000
0000
0000
0000
0000
0000
0001
0100
0000
0100
,
0002
0003
0001
0100
,
0010
0020
0030
0100
,
0002
0003
0100
0100
,
0020
0000
1030
0010
,
2000
3000
1000
0100
,
0010
0200
0000
1300
,
0020
0000
0000
0000
1030
0000
0001
0020
,
0000
0032
0000
1003
0020
0000
1030
0000
,
0101
0000
0000
0000
,
0100
0100
0100
0100
0002
0203
0302
0203
,
0310
0000
0100
0001
0010
0000
0001
0100
,
1000
0100
0002
0000
0003
0000
1100
0000
,
0010
0001
0010
0000
0001
0000
0101
0000
,
0100
0001
0010
0000
0010
0001
0100
0000
,
0202
0000
0303
0000
0010
1000
0010
0100
,
0001
0100
0001
0000
1000
0100
0010
0000
,
0100
0000
1000
0001
0010
0000
1100
0000
,
0001
0010
0000
0001
0200
0000
0310
0000
,
1000
0100
0010
0000
0001
0100
0010
1000
,
0010
0000
0202
0000
0303
0100
0010
0000
,
1000
0010
1000
0000
0010
0000
0100
0001
,
0010
0001
0100
0000
0001
0100
1001
0000
,
1000
0100
1000
0100
1000
0000
0001
0100
,
0010
0101
0100
0010
,
1001
0000
1000
0100
1000
0010
0100
0000
,
0001
0100
0001
0000
1000
0000
0101
0000
,
1000
0000
0100
0010
0000
0001
0000
0010
,
0000
1000
0010
0001
0000
0100
0000
1000
,
0100
0001
0100
0001
0000
1000
0000
0100
,
0000
0001
0100
1000
0000
0010
0000
0101
,
0000
0100
0010
0100
0000
0001
0000
1100
,
0000
0001
0000
0110
0000
1000
0000
0101
,
0001
0100
0010
1000
0000
0010
0000
1001
,
0000
0100
0000
1001
0000
0010
0100
0001
,
2200
0000
0000
0000
,
3300
0000
0000
0000
,
0000
0000
0000
0000
,
0000
0000
0000
0000
,
0000
0000
0000
0000
,
0000
0000
0000
0000
,
0000
0000
0000
0000
,
0000
0000
1010
0101
,
1001
0000
1000
0100
1000
0000
0001
0100
,
0000
0100
0010
0000
1000
0010
1000
0000
,
1001
0000
0010
0000
1000
0010
0100
0000
,
0001
0100
0001
0000
1000
0000
0100
0000
,
0101
0000
0010
1000
0100
0000
0010
0001
,
0200
0000
0310
0000
0010
1000
0010
0000
,
1001
0000
0100
0000
0001
1000
0100
0000
,
1000
0001
0100
0000
0101
0000
1100
0000
,
0101
0000
0010
0000
1000
0000
0001
0100
,
1000
0100
0020
0000
0030
0000
1001
0000
,
0100
0001
0100
0000
0010
0000
0101
0000
,
0100
0010
1000
0000
0010
0100
0001
0000
,
1000
0000
0001
0100
0001
0000
1000
0100
,
0000
0020
0000
0000
0031
0010
0002
0000
,
0103
0000
0001
0100
0001
0100
0002
0000
,
1003
0100
0010
0000
0001
0100
0110
0000
,
2002
0000
0000
0000
,
0000
0000
0000
0000
,
3003
0000
0000
0000
;

//---------------dance-single - ----------------
#NOTES:
     dance-single:
     :
     Medium:
     6:
     0.303681,0.320188,0.141130,0.141130,0.000000,209.000000,16.000000,16.000000,0.000000,0.000000,0.000000,0.303681,0.320188,0.141130,0.141130,0.000000,209.000000,16.000000,16.000000,0.000000,0.000000,0.000000:
0000
0000
0000
0000
,
0000
0000
0000
0000
,
0000
0000
0000
0000
,
0000
0000
0000
0000
,
0000
0000
0000
0000
,
0000
0000
0000
0000
,
0000
0000
0000
0000
,
0000
0000
0000
0000
0000
0000
0001
0100
,
0020
0000
1030
0100
,
1000
0020
0000
0130
,
0002
0000
0013
0001
,
1000
0100
1000
0001
,
0200
0000
0301
0100
,
0001
0020
0000
0130
,
2000
0000
3010
1000
,
0010
0000
0100
0000
0001
0000
0100
0010
,
0110
0000
0000
0000
,
1000
0010
1000
0010
1000
0010
1000
0010
,
1000
0000
0100
0000
1000
0000
0010
1000
,
0000
0001
0020
0000
0000
0000
0130
0000
,
2000
0000
3100
0000
1000
0000
0001
0100
,
0000
0001
0000
0000
1000
0000
0001
0000
,
1100
0000
0010
0000
0001
0000
0010
0001
,
0000
1000
0020
0000
0000
0000
1030
0000
,
0001
0000
0100
0000
0001
0000
1000
0100
,
0000
1000
0000
0001
1000
0000
0100
0000
,
0010
0000
1001
0000
0001
0000
0010
0001
,
0000
1000
0020
0000
0000
0000
1030
0000
,
0001
0000
0001
0000
0010
0000
0001
1000
,
0000
0200
0000
0000
1300
0100
1000
0000
,
0001
0000
0100
0000
0101
0000
1000
0001
,
0000
0020
0000
0000
0000
0000
0031
0000
,
1000
0100
0001
0100
,
1000
0001
1001
0110
,
0000
1000
0000
0010
0000
0100
0000
0010
,
0000
1000
0000
0100
0000
0010
0000
0100
,
0000
1000
0000
0001
0000
0100
0000
0001
,
0000
1000
0000
0001
0000
0010
0000
0001
,
0000
0100
0000
0010
0000
1000
0000
0010
,
0000
0100
0000
0010
0000
0001
0000
0010
,
0000
1000
0000
0100
0000
0010
0000
0100
,
0000
1000
0000
0010
0000
0100
0101
0000
,
0101
0000
0000
0000
,
0000
0000
0000
0000
,
0000
0000
0000
0000
,
0000
0000
0000
0000
,
0000
0000
0000
0000
,
0000
0000
0000
0000
,
0000
0000
0000
0000
,
0000
0000
1010
0101
,
1001
0000
0010
0000
1000
0000
0001
0100
,
0000
0001
0200
0000
0010
0000
0310
0000
,
1001
0000
1000
0000
0010
0000
1000
0001
,
0000
0010
0000
0000
0001
0000
0100
0001
,
0100
0000
0001
0000
1000
0000
0001
1000
,
0000
0100
2000
0000
0001
0000
3001
0000
,
0010
0001
1000
0001
,
1000
1010
0001
0101
,
1000
0000
0100
0000
0010
0000
0100
1000
,
0000
0001
0200
0000
0001
0000
0301
0000
,
1000
0000
0001
0000
1000
0000
0100
1000
,
0000
0001
0000
0000
0100
0000
0001
0000
,
1000
0000
0001
0000
0100
0000
0010
1000
,
0000
0001
0200
0000
0010
0000
0310
0000
,
1000
1010
0010
0100
,
0001
0000
1000
0000
0010
1000
0001
0000
,
1100
0000
0000
0000
;

//---------------dance-single - ----------------
#NOTES:
     dance-single:
     :
     Easy:
     3:
     0.176412,0.174648,0.061744,0.017641,0.000000,131.000000,7.000000,2.000000,0.000000,0.000000,0.000000,0.176412,0.174648,0.061744,0.017641,0.000000,131.000000,7.000000,2.000000,0.000000,0.000000,0.000000:
// measure 0
0000
0000
0000
0000
,  // measure 1
0000
0000
0000
0000
,  // measure 2
0000
0000
0000
0000
,  // measure 3
0000
0000
0000
0000
,  // measure 4
0000
0000
0000
0000
,  // measure 5
0000
0000
0000
0000
,  // measure 6
0000
0000
0000
0000
,  // measure 7
0000
0000
0000
0010
,  // measure 8
1000
0000
1000
0000
,  // measure 9
0010
0020
0000
0030
,  // measure 10
0001
0000
0100
0000
,  // measure 11
0010
0000
0100
1000
,  // measure 12
0100
0000
0010
0000
,  // measure 13
0001
0002
0000
0003
,  // measure 14
0010
0000
0100
0000
,  // measure 15
0010
0000
0001
1000
,  // measure 16
1001
0000
0000
0000
,  // measure 17
0000
0000
0010
0100
,  // measure 18
1001
0000
0100
0000
,  // measure 19
0001
0100
0000
0100
,  // measure 20
0010
0000
0100
0000
,  // measure 21
0001
0000
0010
0001
,  // measure 22
0100
0000
0010
0000
,  // measure 23
1000
0100
0000
0100
,  // measure 24
0010
0000
0100
0000
,  // measure 25
1000
0010
0100
0001
,  // measure 26
0010
0000
0001
0000
,  // measure 27
1000
0100
0000
0100
,  // measure 28
1000
0000
0001
0000
,  // measure 29
0100
0000
0010
1000
,  // measure 30
0001
0000
0100
0000
,  // measure 31
0001
0010
0000
0010
,  // measure 32
0100
0000
0010
0000
,  // measure 33
0001
1000
0010
1000
,  // measure 34
0001
0100
0000
0100
,  // measure 35
0000
0010
0000
0100
,  // measure 36
0001
0010
0000
0010
,  // measure 37
0000
0100
0000
0010
,  // measure 38
0001
0010
0000
0010
,  // measure 39
0000
0100
0000
1000
,  // measure 40
0001
0010
0000
0001
,  // measure 41
0000
1000
0001
0100
,  // measure 42
1001
0000
0000
0000
,  // measure 43
0000
0000
0000
0000
,  // measure 44
0000
0000
0000
0000
,  // measure 45
0000
0000
0000
0000
,  // measure 46
0000
0000
0000
0000
,  // measure 47
0000
0000
0000
0000
,  // measure 48
0000
0000
0000
0000
,  // measure 49
0000
0000
1001
1001
,  // measure 50
1001
0000
0100
0000
,  // measure 51
0001
1000
0000
1000
,  // measure 52
0010
0000
1000
0000
,  // measure 53
0001
0000
0010
0001
,  // measure 54
0010
0000
0100
0000
,  // measure 55
1000
0100
0000
0100
,  // measure 56
0010
0000
0100
0000
,  // measure 57
1000
0010
1000
0010
,  // measure 58
1000
0000
0001
0000
,  // measure 59
0010
0001
0000
0001
,  // measure 60
0100
0000
0001
0000
,  // measure 61
1000
0001
1000
0000
,  // measure 62
0010
0000
1000
0000
,  // measure 63
0001
0100
0000
0100
,  // measure 64
0010
0000
0100
0000
,  // measure 65
0001
0010
0001
0010
,  // measure 66
1001
0000
0000
0000
;
