#TITLE:Destination\: Somewhere;
#SUBTITLE:;
#ARTIST:AS-13 with IA;
#TITLETRANSLIT:;
#SUBTITLETRANSLIT:;
#ARTISTTRANSLIT:;
#GENRE:;
#CREDIT:;
#BANNER:destinationsomewhere-bn.png;
#BACKGROUND:destinationsomewhere-bg.png;
#LYRICSPATH:;
#CDTITLE:;
#MUSIC:Destination_Somewhere.mp3;
#OFFSET:-0.050000;
#SAMPLESTART:73.426788;
#SAMPLELENGTH:17.000004;
#SELECTABLE:YES;
#BPMS:0.000000=170.000000
;
#STOPS:
;
#BGCHANGES:;
#KEYSOUNDS:;
#ATTACKS:;

//---------------dance-single - ----------------
#NOTES:
     dance-single:
     :
     Medium:
     5:
     0.352784,0.372531,0.235992,0.109568,0.000000,293.000000,265.000000,28.000000,13.000000,0.000000,0.000000,0.352784,0.372531,0.235992,0.109568,0.000000,293.000000,265.000000,28.000000,13.000000,0.000000,0.000000:
0000
0000
0000
0000
,
0000
0000
0000
0000
,
0000
0000
0000
0000
,
0000
0000
0000
0000
,
0001
0010
1000
0010
,
0001
0100
1000
0010
,
0001
0100
1000
0100
,
0001
0010
0100
1000
,
0010
0100
1000
0100
,
0001
0010
1000
0100
,
0001
0100
0010
1000
,
0100
0001
0010
0100
,
1001
0000
1000
0000
0001
0000
0100
0001
,
0100
0001
1000
0100
,
1001
0000
1100
0000
0100
0000
1000
0001
,
1000
0010
1000
0001
,
1001
0011
0010
0001
,
1000
0000
0001
0000
0100
0001
0100
0000
,
0010
0000
0101
0000
0100
0000
0000
2002
,
0000
0000
0000
3003
,
0010
0000
1000
0000
0001
0000
1000
0001
,
0000
0100
0000
0000
0010
0000
0010
0000
,
1001
0000
0100
0000
0001
0000
1000
0100
,
0000
1100
0001
0100
,
1010
0000
0010
0000
1000
0000
0100
1000
,
0000
0001
0000
1000
0000
1000
0010
0000
,
1001
0000
0011
0000
0100
0000
0010
0002
,
0000
0100
2003
3100
,
1001
0000
0100
0000
0010
0000
0001
1000
,
0000
1001
0000
0000
0010
0000
0100
0000
,
0001
0000
0101
0000
1000
0000
0001
0020
,
0000
0001
0001
0031
,
1000
0000
0001
0000
0100
0000
0001
1000
,
0000
0001
0000
0010
0000
0010
0000
0000
,
1100
0000
0101
0000
0010
0000
0100
0002
,
0000
0100
0100
0103
,
0010
0110
1000
0001
,
0100
0000
0001
0100
0001
0100
0001
0000
,
1001
0000
1000
0000
0100
0000
1000
0100
,
2000
0010
0100
3010
,
0100
0000
0101
0000
0001
0000
1000
0001
,
0100
0001
1000
1001
,
0010
0000
1000
0000
0001
0000
1000
0020
,
0000
2030
0010
3001
,
1000
0000
0001
0000
0100
0000
0001
0100
,
0001
0101
0000
1001
,
0100
0000
1000
0000
0001
0000
0100
0001
,
1000
0000
0010
0010
,
1001
0010
0001
1000
,
0010
0000
0001
0000
0010
0000
1000
0001
,
1000
0000
0100
0000
0001
0000
0000
0220
,
0000
0000
0000
0330
,
0001
0000
0010
0000
0100
0000
0010
0001
,
0000
1000
0000
0000
0100
0000
0100
0000
,
1000
0000
0001
0000
0100
0000
0001
1000
,
0000
1000
0001
0010
,
1001
0000
0110
0000
0001
0000
0010
0100
,
0000
1000
0000
1000
0000
0100
0000
0010
,
0001
0000
0001
0000
0010
0000
0100
0010
,
0000
0000
0001
0001
0000
1000
1000
0000
,
0001
0000
0100
0000
1000
0000
0100
0001
,
0000
0100
0000
0000
0010
0000
0100
0000
,
0001
0000
1001
0000
0100
0000
0010
2000
,
0000
0010
3002
0010
,
1003
1000
0001
0001
,
0100
0000
0010
1000
0000
0001
0000
0100
,
0010
0000
1000
0000
0100
0000
0010
0100
,
1000
0000
0001
1000
0100
0010
0001
1000
,
0100
0000
0000
0000
;

//---------------dance-single - ----------------
#NOTES:
     dance-single:
     :
     Hard:
     8:
     0.484025,0.494319,0.328703,0.227564,0.000000,402.000000,363.000000,39.000000,27.000000,0.000000,0.000000,0.484025,0.494319,0.328703,0.227564,0.000000,402.000000,363.000000,39.000000,27.000000,0.000000,0.000000:
0000
0000
0000
0000
,
0000
0000
0000
0000
,
0000
0000
0000
0000
,
0000
0000
0000
0000
,
0001
0000
0010
0000
1000
0010
0001
0000
,
1000
0000
0010
0000
0001
0010
1000
0010
,
0001
0000
0100
0000
1000
0100
0001
0000
,
0100
1000
0100
0000
0010
1000
0010
0001
,
1000
0000
0010
0000
0001
0010
1000
0000
,
0001
0010
1000
0000
0010
0001
1000
0001
,
0100
0000
1000
0100
1000
0000
0100
0001
,
0010
0000
0001
0010
0001
0010
1000
0010
,
0001
0000
1001
0000
1000
0000
0001
0100
,
0000
1100
0000
1000
0001
0100
0010
1000
,
0001
0000
1100
0000
0001
0010
0001
0010
,
0000
1001
1000
0010
1000
0000
0001
0010
,
0100
0000
1001
0000
1000
0000
0101
0001
,
0000
1001
0000
1100
0000
1000
0001
0100
,
0010
0000
1001
0000
1010
0000
0002
0010
,
0000
0100
0000
0100
0000
0100
0000
0103
,
1001
0000
1100
0000
0100
0000
1000
0001
,
0000
0200
0000
0001
0000
1000
0000
0301
,
1000
0000
0200
0000
0001
0000
1300
0002
,
0000
0100
0000
0100
0000
1000
0003
0001
,
0100
0000
0001
1000
0100
0000
0200
0010
,
0000
0001
0000
0310
0000
0001
0010
0001
,
1000
0000
1001
0002
0100
0000
2003
0100
,
0000
0001
0000
0001
0000
3100
1000
0100
,
0010
0000
1001
0000
0001
0000
2000
0010
,
0000
3001
0000
0000
1001
0000
0101
0001
,
1000
0000
2100
0000
3001
0100
0002
0100
,
0000
2003
0000
0010
0000
0001
0000
3001
,
0010
0000
0001
1000
0010
0000
1000
0001
,
0000
1001
0000
1000
0100
1000
0001
1000
,
0100
0000
1000
0002
0100
0000
1003
0020
,
0000
1030
0010
1000
0001
0100
0010
1000
,
0001
0000
1001
1000
0100
0000
1000
0001
,
0000
0101
0000
0100
0001
1000
0100
1000
,
0100
0000
1001
0001
0010
0000
0001
0011
,
0000
0010
0001
0010
0100
0000
1000
0001
,
0100
0000
1001
0000
0100
1000
0010
1000
,
0000
0100
1000
0100
0000
0100
1000
0001
,
0100
0000
0110
0000
1000
0010
1000
0002
,
0000
0100
0000
0103
0001
0100
0010
0100
,
0001
0000
0101
0000
1010
0000
1000
0100
,
0000
1001
0000
0001
1000
0010
0100
0001
,
1000
0000
0011
0000
0010
0100
1000
0010
,
0000
0010
1000
0010
1000
0001
0100
0000
,
1001
0000
0110
0000
1000
0010
1000
0002
,
0000
0100
0000
1003
0100
1000
0001
0000
,
1010
0000
1100
0000
0001
0100
0002
0010
,
0003
0002
0010
0000
0010
0000
0013
0000
,
1100
0100
0010
0000
0001
0100
0001
0100
,
0000
1000
0100
0000
0000
0001
0100
0010
,
1000
0000
1001
1000
0010
0000
1000
0001
,
0000
0110
0000
1001
1000
0001
0100
0001
,
1000
0000
0100
1000
0001
0000
1000
0100
,
0000
0101
0000
1100
0000
0001
0010
0001
,
1000
0010
1000
0000
0001
0100
0001
0000
,
0010
0010
0001
2000
0000
3001
0020
0000
,
0031
0100
0001
0000
1000
0010
1000
0001
,
0000
0100
0002
0000
0203
0000
0302
0000
,
1003
0100
0010
0100
1000
0000
0010
0010
,
0000
1001
0000
0001
0010
0001
0010
0001
,
2000
0010
3002
0010
,
2003
0000
0100
0000
3002
0000
0013
0001
,
0100
0001
0100
0001
1000
0010
1000
0010
,
0100
0001
1000
0010
1000
0001
0010
0100
,
2000
0000
0000
0000
,
3000
0000
0000
0000
;

//---------------dance-single - ----------------
#NOTES:
     dance-single:
     :
     Easy:
     4:
     0.258869,0.343874,0.075855,0.084283,0.000000,215.000000,206.000000,9.000000,10.000000,0.000000,0.000000,0.258869,0.343874,0.075855,0.084283,0.000000,215.000000,206.000000,9.000000,10.000000,0.000000,0.000000:
// measure 0
0000
0000
0000
0000
,  // measure 1
0000
0000
0000
0000
,  // measure 2
0000
0000
0000
0000
,  // measure 3
0000
0000
0000
0000
,  // measure 4
0010
1000
0000
1000
,  // measure 5
0100
0010
0000
0001
,  // measure 6
0100
0000
0001
0010
,  // measure 7
1000
0000
0000
0010
,  // measure 8
0001
0000
0001
0100
,  // measure 9
0010
0100
0000
0001
,  // measure 10
0100
0000
0100
0010
,  // measure 11
1000
0000
0010
0100
,  // measure 12
0001
1000
0100
0000
,  // measure 13
1000
0100
0010
0000
,  // measure 14
0001
0010
0100
0010
,  // measure 15
0001
1000
0100
0000
,  // measure 16
1000
1000
0010
0100
,  // measure 17
0001
0001
0000
0100
,  // measure 18
0010
0100
0001
1000
,  // measure 19
0020
0000
0000
0030
,  // measure 20
1001
0000
1000
0000
0001
0000
0000
0100
,  // measure 21
0000
0100
0000
0000
0000
0000
0000
0000
,  // measure 22
0001
0000
0100
0000
0010
0000
0000
0010
,  // measure 23
0000
0000
0000
0000
,  // measure 24
1000
0010
1000
0001
,  // measure 25
1000
0100
0010
0000
,  // measure 26
0001
0010
1000
0010
,  // measure 27
0002
0000
0003
0000
,  // measure 28
1000
0000
0010
0000
1000
0000
0000
0010
,  // measure 29
0000
0100
0000
0000
0000
0000
0001
0000
,  // measure 30
1000
0000
0001
0000
0100
0000
0000
0010
,  // measure 31
0000
0010
0100
0010
,  // measure 32
1000
0010
0100
0001
,  // measure 33
0100
0010
1000
0001
,  // measure 34
0010
0010
0100
0100
,  // measure 35
0020
0000
0000
0030
,  // measure 36
1001
0000
0001
1000
,  // measure 37
0001
0100
0000
0010
,  // measure 38
1000
0000
0010
0100
,  // measure 39
0001
1000
0001
0100
,  // measure 40
1001
0000
1000
0100
,  // measure 41
1000
0001
0010
0000
,  // measure 42
0100
0010
0001
0100
,  // measure 43
0010
1000
0010
1000
,  // measure 44
1001
0000
0001
1000
,  // measure 45
0010
1000
0000
1000
,  // measure 46
0100
0000
0100
1000
,  // measure 47
0010
0000
1000
0010
,  // measure 48
0001
0010
1000
0000
,  // measure 49
0001
0100
0010
1000
,  // measure 50
0100
0000
0010
0000
,  // measure 51
2002
0000
0000
3003
,  // measure 52
0001
0000
0100
0000
0001
0000
0000
1000
,  // measure 53
0000
0001
0000
0000
0100
0000
0100
0000
,  // measure 54
0001
0000
1000
0000
0010
0000
1000
1000
,  // measure 55
0000
0001
0001
0001
,  // measure 56
1000
0001
0010
0001
,  // measure 57
1000
0000
0000
0010
0000
0010
0000
0000
,  // measure 58
1000
0000
0010
0000
0100
0000
0001
0001
,  // measure 59
0000
0010
0010
0010
,  // measure 60
1001
0000
1001
0000
0100
0000
0000
1000
,  // measure 61
0000
0200
0320
0230
,  // measure 62
1300
0000
0001
0000
1000
0000
0000
0010
,  // measure 63
0000
0010
2000
3020
,  // measure 64
0130
0001
0010
0100
,  // measure 65
1000
0100
0010
0001
,  // measure 66
0100
0010
1000
0001
,  // measure 67
0010
0000
0110
0000
0001
1000
0010
0000
,  // measure 68
1001
0000
0000
0000
;
