#TITLE:Dashing Through the Stars;
#SUBTITLE:;
#ARTIST:AS-13;
#TITLETRANSLIT:;
#SUBTITLETRANSLIT:;
#ARTISTTRANSLIT:;
#GENRE:;
#CREDIT:;
#BANNER:dashing-bn.png;
#BACKGROUND:dashing-bg.png;
#LYRICSPATH:;
#CDTITLE:;
#MUSIC:Dashing Through the Stars.mp3;
#OFFSET:-0.040000;
#SAMPLESTART:44.820000;
#SAMPLELENGTH:12.000000;
#SELECTABLE:YES;
#BPMS:0.000000=170.000000
;
#STOPS:
;
#BGCHANGES:;
#KEYSOUNDS:;
#ATTACKS:;

//---------------dance-single - Blank----------------
#NOTES:
     dance-single:
     Blank:
     Hard:
     9:
     0.508028,0.553544,0.160914,0.241371,0.000000,392.000000,20.000000,30.000000,0.000000,0.000000,0.000000,0.508028,0.553544,0.160914,0.241371,0.000000,392.000000,20.000000,30.000000,0.000000,0.000000,0.000000:
0000
0000
0000
0000
,
0000
0000
0000
0000
,
0000
0000
0000
0000
,
0000
0000
0000
0000
,
0000
0000
0000
0000
,
0000
0000
0000
0000
,
0000
0000
0000
0000
,
0000
0000
0000
0000
,
0002
0000
1000
0000
,
2003
0000
0000
0001
0000
0000
3002
0000
,
0023
0000
0001
0000
,
0032
0000
0000
0023
0000
0000
0001
0000
,
0230
0000
0010
0000
,
1000
0000
0000
2300
0000
0000
0010
0000
,
3020
0000
0230
0000
,
0302
0000
0000
0100
0000
0000
1003
0101
,
2002
0000
0000
0000
,
3003
0000
0000
0000
,
0020
0000
1000
0000
,
0230
0000
0001
0000
,
0310
0000
1000
0000
0002
0000
0000
0100
,
0000
0203
0010
0310
,
2000
0010
3002
0010
,
1003
0001
0100
0000
0001
1000
0100
1001
,
0000
0100
0010
0000
0010
0100
0000
1000
,
0000
0100
0000
0100
1000
0000
1100
0000
,
0000
0001
0100
0000
0010
1000
0000
0010
,
0000
0100
0000
0100
0001
0000
0101
0000
,
0010
1000
0100
0001
,
0100
1000
0010
0001
,
0010
1000
0100
0001
,
0101
1100
1010
0011
,
1000
0100
0001
0100
1000
0100
0010
0100
,
1000
0010
0100
0001
0000
0001
0100
0000
,
0010
1000
0010
0100
0001
0100
0010
0100
,
0001
0010
0100
1000
0000
1000
0100
0000
,
0010
0001
0100
0000
0010
1000
0100
0010
,
0000
0100
1000
0010
0100
0001
0010
0000
,
0100
1000
0100
1000
0010
1000
0010
1000
,
0001
0010
0001
0100
0010
1000
0001
0100
,
0000
0100
0010
0000
1000
0010
0100
0001
,
0100
0010
1000
0010
0100
0001
0100
0000
,
0010
1000
0100
0000
0001
0100
1000
0010
,
0000
0010
0100
0001
0100
0010
1000
0000
,
0001
0100
0010
0000
1000
0010
0100
0001
,
0000
0001
0100
0010
1000
0001
0100
0000
,
1000
0100
1000
0100
0001
0100
0001
0100
,
0010
1000
0100
0010
0001
0100
0010
1000
,
0100
0000
1001
0000
0010
0000
0010
0001
,
0000
0001
0100
0000
0101
0000
1001
0100
,
0010
0000
1010
0000
0100
0010
1000
0001
,
0000
0100
0001
0100
0001
0100
0001
0000
,
1000
1100
0100
1001
,
0100
0001
0010
0000
0001
1000
0100
0000
,
0001
0100
0001
0100
1000
0000
1100
0000
,
1001
0000
0010
1000
0001
0100
0010
0100
,
0000
0100
0001
0000
0100
0000
0100
0010
,
0000
0010
1000
0010
0100
0000
0001
0100
,
0000
0100
0010
1000
0001
0000
0001
0100
,
0000
0100
0010
1000
0010
0100
0001
0000
,
1000
0100
0010
0000
0001
0100
0010
0000
,
1000
0010
0100
0001
0100
0010
1000
0000
,
0100
1000
0000
1100
0000
0100
0010
0000
,
1001
0000
0100
0001
0000
0001
0100
0000
,
0010
1000
0100
0000
1000
0100
0010
0000
,
0100
0010
0001
0000
0010
0001
0100
0000
,
0001
0100
1000
0000
0100
0010
1000
0000
,
0010
1000
0100
0000
0010
0001
1000
0000
,
0100
1000
0010
0000
0100
0001
1000
0000
,
0001
1000
0100
0000
1000
0010
0100
0000
,
0010
0100
0001
0000
1000
0001
0010
0000
,
0100
1000
0010
0000
0100
0001
1000
0000
,
0010
1000
0010
0000
0100
0001
0100
0000
,
0010
1000
0100
0000
1000
0001
0100
0000
,
0010
1000
0001
0000
0100
0001
0100
0000
,
0001
1000
0010
0000
1000
0100
0010
0000
,
0100
0001
0100
0000
1000
0100
1000
0000
,
0010
0100
0001
0000
0100
0001
0100
0000
,
0010
1000
0010
0100
0001
0100
0010
0100
,
0001
1000
0100
0010
0001
0010
0100
1000
,
2200
0000
0000
0300
,
3020
0000
0000
0230
0000
0000
0320
0000
,
2000
0000
0000
0030
,
3200
0000
0000
2300
0000
0000
3002
0000
,
0203
0000
0000
0000
,
0020
0000
0300
0000
,
0130
0000
0000
0000
;

//---------------dance-single - ----------------
#NOTES:
     dance-single:
     :
     Medium:
     7:
     0.403434,0.449755,0.104594,0.209188,0.000000,312.000000,13.000000,26.000000,0.000000,0.000000,0.000000,0.403434,0.449755,0.104594,0.209188,0.000000,312.000000,13.000000,26.000000,0.000000,0.000000,0.000000:
0000
0000
0000
0000
,
0000
0000
0000
0000
,
0000
0000
0000
0000
,
0000
0000
0000
0000
,
0000
0000
0000
0000
,
0000
0000
0000
0000
,
0000
0000
0000
0000
,
0000
0000
0000
0000
,
0002
0000
0000
0000
,
0000
0000
0000
0023
0000
0000
0230
0000
,
2300
0000
0000
0000
,
0000
0000
0000
3002
0000
0000
0203
0000
,
0320
0000
0000
0000
,
0000
0000
0000
2030
0000
0000
3020
0000
,
0230
0000
0302
0000
,
0023
0000
0000
0032
0000
0000
0103
0000
,
0101
0000
0000
0000
,
0000
0000
0000
0000
,
0010
0000
1000
0000
1000
0000
0000
0001
,
0000
1000
0001
0001
,
0100
0000
0001
0000
0001
0000
0000
0010
,
0000
0001
1000
1000
,
0010
1000
0100
1000
,
0010
0100
1010
0101
,
1001
0000
0010
0000
0010
0000
0000
1000
,
0000
0010
0010
0100
,
0001
0000
0010
0000
0010
0000
0000
0001
,
0000
0100
0100
0001
,
1000
0000
0100
0000
0010
0000
0000
0010
,
0000
0100
1000
0100
,
0010
0001
1000
0001
,
0100
0001
1010
0101
,
1000
0000
0100
0000
1000
0010
0000
1000
,
0000
0100
0000
0010
0001
0000
0100
0000
,
0010
0000
0100
0000
0001
0010
0000
0001
,
0000
0100
0000
1000
0100
0000
0001
0000
,
1000
0100
1000
0000
0001
0010
0000
0001
,
0000
1000
0000
0010
1000
0000
0001
0000
,
0010
0001
0010
0000
0001
0100
0001
0000
,
1000
0100
1000
0000
0010
1000
0010
0000
,
1000
0000
0100
0000
0010
0001
0000
1000
,
0000
0010
0000
1000
0001
0000
0010
0000
,
0001
0100
0001
0000
1000
0001
0000
0100
,
0000
0001
0000
0010
0100
0000
0001
0000
,
0100
1000
0100
0000
0010
0100
0000
1000
,
0000
0010
0000
0001
0010
0000
1000
0000
,
0001
0010
0001
0000
1000
0010
1000
0000
,
0001
0100
0010
0000
1000
0000
0100
0000
,
1100
0000
0010
0000
0001
0000
0100
0001
,
0100
0000
0010
0000
0100
0001
0100
0020
,
0000
0000
0130
0000
0001
0000
0100
0020
,
0000
0000
1030
0000
0100
0000
1000
0100
,
0010
0000
0001
0000
0100
0010
0100
0000
,
0001
0000
0100
0000
0010
1000
0010
0000
,
0100
0101
0001
1100
,
0010
0001
0100
0000
0001
0000
0010
0000
,
1100
0000
0100
0000
1000
0000
0010
1000
,
0010
0100
0001
0020
,
0030
0001
0100
0010
,
1000
0010
1000
0000
0010
0000
0100
0000
,
0001
0101
0100
0001
,
1000
1100
0100
1000
,
0010
0010
0100
0100
,
0001
0100
0010
0000
1000
0010
1000
0000
,
0001
0100
0010
0000
0100
0000
0001
0000
,
0010
0100
1000
0000
0100
0000
0010
0000
,
0001
0010
0100
0000
1000
0000
0001
0000
,
0100
0001
1000
0000
0010
0000
0100
0000
,
1000
0100
0001
0000
1000
0000
0010
0000
,
0001
0010
1000
0000
0001
0000
0010
0000
,
1000
0010
0001
0000
1000
0000
0100
0000
,
0001
0100
0001
0000
0100
1000
0100
0000
,
1000
0010
0100
0010
,
1000
0010
0100
0000
0001
0000
0010
0000
,
0100
1000
0010
0000
1000
0000
0100
0000
,
0010
0100
0010
0000
0001
0010
0001
0000
,
1000
0001
0100
0000
0001
0000
0100
0001
,
0000
1000
0001
0000
0010
0000
0001
1000
,
0010
0000
1000
0000
0001
0000
0100
0001
,
0000
0010
0100
0000
1000
0100
1000
0000
,
0201
0000
0000
0000
,
0320
0000
0000
2030
0000
0000
3200
0000
,
0320
0000
0000
0000
,
0032
0000
0000
0023
0000
0000
0230
0000
,
2300
0000
0000
0000
,
3002
0000
0000
0000
,
0103
0000
0000
0000
;

//---------------dance-single - ----------------
#NOTES:
     dance-single:
     :
     Easy:
     5:
     0.366654,0.415158,0.249417,0.177005,0.000000,266.000000,31.000000,22.000000,0.000000,0.000000,0.000000,0.366654,0.415158,0.249417,0.177005,0.000000,266.000000,31.000000,22.000000,0.000000,0.000000,0.000000:
// measure 0
0000
0000
0000
0000
,  // measure 1
0000
0000
0000
0000
,  // measure 2
0000
0000
0000
0000
,  // measure 3
0000
0000
0000
0000
,  // measure 4
0000
0000
0000
0000
,  // measure 5
0000
0000
0000
0000
,  // measure 6
0000
0000
0000
0000
,  // measure 7
0000
0000
0000
0000
,  // measure 8
0002
0000
0000
0000
,  // measure 9
0000
0000
0203
0000
,  // measure 10
0320
0000
0000
0000
,  // measure 11
0000
0000
0230
0000
,  // measure 12
0302
0000
0000
0000
,  // measure 13
0000
0000
0023
0000
,  // measure 14
0230
0000
2300
0000
,  // measure 15
3002
0000
0000
0023
0000
0000
0130
0000
,  // measure 16
1001
0000
0000
0000
,  // measure 17
0000
0000
0000
0000
,  // measure 18
0010
0000
1000
0000
1000
0000
0000
1000
,  // measure 19
0000
1000
1000
1000
,  // measure 20
0010
0000
0001
0000
0001
0000
0000
0001
,  // measure 21
0000
0001
0001
0001
,  // measure 22
0010
1000
0010
1000
,  // measure 23
0001
0100
0010
0100
,  // measure 24
1001
0000
0010
0000
0010
0000
0000
0010
,  // measure 25
0000
0010
0010
0000
,  // measure 26
0100
0000
0100
0000
0100
0000
0000
0100
,  // measure 27
0000
0100
0100
0000
,  // measure 28
0001
0000
0100
0000
0010
0000
0000
0010
,  // measure 29
0000
0100
0001
1000
,  // measure 30
0100
0100
0010
0010
,  // measure 31
0110
0110
1001
1001
,  // measure 32
1000
0010
0100
0001
,  // measure 33
1000
0000
0001
0000
1000
0100
1000
0000
,  // measure 34
0010
1000
0001
0010
,  // measure 35
0001
0000
0100
0000
0001
0100
0001
0000
,  // measure 36
1000
0001
0100
0001
,  // measure 37
0010
0000
0001
0000
1000
0010
1000
0000
,  // measure 38
0001
0101
0100
0101
,  // measure 39
1000
1100
0100
1100
,  // measure 40
0010
0001
0100
0001
,  // measure 41
1000
0000
0010
0000
1000
0100
1000
0000
,  // measure 42
0010
0100
0001
0100
,  // measure 43
0010
0000
1000
0000
0001
0010
0001
0000
,  // measure 44
1000
0001
0010
0001
,  // measure 45
0100
0001
0100
0000
0001
0100
0001
0000
,  // measure 46
1000
1010
0010
1010
,  // measure 47
0100
0101
0001
0101
,  // measure 48
1001
0000
0010
0000
1000
0000
0100
1000
,  // measure 49
0000
0000
0100
0000
0010
0000
0001
0010
,  // measure 50
0000
0000
0001
0000
0100
0000
0010
0100
,  // measure 51
0000
0001
0100
0010
,  // measure 52
1000
1000
0100
0010
,  // measure 53
0001
0001
0010
0100
,  // measure 54
1000
0001
2200
0000
,  // measure 55
3300
0010
0001
0101
,  // measure 56
0100
0000
0010
0000
0100
0000
0001
0100
,  // measure 57
0000
0000
0010
0000
1000
0000
0001
0010
,  // measure 58
0000
0000
0001
0000
1000
0000
0001
0010
,  // measure 59
0000
0001
1000
0010
,  // measure 60
1000
1000
0010
0010
,  // measure 61
0100
0001
0100
0010
,  // measure 62
1000
1001
0220
0330
,  // measure 63
0001
0010
0001
0100
,  // measure 64
0010
1010
1000
0100
,  // measure 65
1000
0010
1000
0001
,  // measure 66
0100
0101
0001
1000
,  // measure 67
0100
1000
0010
0100
,  // measure 68
0001
0011
0010
0001
,  // measure 69
1000
0010
1000
0001
,  // measure 70
1001
1000
0100
1000
,  // measure 71
1001
0010
0100
0001
,  // measure 72
0101
1000
0001
1000
,  // measure 73
0100
1000
0001
1000
,  // measure 74
0100
1001
0010
0001
,  // measure 75
1000
0010
1000
0001
,  // measure 76
0100
1010
0010
0100
,  // measure 77
0001
0100
0010
1000
,  // measure 78
0001
0101
1000
1100
,  // measure 79
0001
1000
0001
1100
,  // measure 80
1002
0000
0000
0000
,  // measure 81
0023
0000
0230
0000
,  // measure 82
2300
0000
0000
0000
,  // measure 83
3200
0000
0320
0000
,  // measure 84
0032
0000
0000
0000
,  // measure 85
2003
0000
0000
0000
,  // measure 86
3100
0000
0000
0000
;
