#TITLE:Darkmoon Caverns;
#SUBTITLE:(AS-13 Club Mix);
#ARTIST:AS-13;
#TITLETRANSLIT:;
#SUBTITLETRANSLIT:;
#ARTISTTRANSLIT:;
#GENRE:;
#CREDIT:;
#BANNER:darkmoon-bn.png;
#BACKGROUND:Darkmoon Caverns (AS-13 Club Remix)-bg.png;
#LYRICSPATH:;
#CDTITLE:;
#MUSIC:Darkmoon Caverns (AS-13 Club Remix).mp3;
#OFFSET:-0.060000;
#SAMPLESTART:76.840080;
#SAMPLELENGTH:12.000000;
#SELECTABLE:YES;
#BPMS:0.000000=125.000038
;
#STOPS:
;
#BGCHANGES:;
#KEYSOUNDS:;
#ATTACKS:;

//---------------dance-single - Blank----------------
#NOTES:
     dance-single:
     Blank:
     Easy:
     3:
     0.119661,0.182674,0.044555,0.160396,0.000000,94.000000,89.000000,5.000000,18.000000,0.000000,0.000000,0.119661,0.182674,0.044555,0.160396,0.000000,94.000000,89.000000,5.000000,18.000000,0.000000,0.000000:
0000
0000
0000
0000
,
0000
0000
0000
0000
,
0000
0000
0000
0000
,
0000
0000
0000
0000
,
0001
0000
0000
0000
,
1000
0000
0000
0000
,
0001
0000
0000
0000
,
2000
0000
0000
3000
,
0110
0000
0000
1000
,
0001
0000
0000
0001
,
0100
0000
0001
1000
,
0200
0000
0000
0300
,
1000
0000
0100
0100
,
1000
0000
0010
0000
,
0001
0001
0000
0010
,
2000
0000
0000
3000
,
0100
0000
0100
1000
,
0002
0003
0000
0001
,
0100
0000
0100
0001
,
0020
0000
0030
0010
,
0100
0000
0010
0100
,
2000
3000
0100
0100
,
1000
0100
0001
0100
,
2002
0000
0000
3003
,
0010
0010
0010
1000
,
0100
0100
0100
0000
,
1000
0100
1000
0000
,
0020
0000
2000
3030
,
0100
0000
0100
0000
,
0001
0000
0100
0100
,
0010
0010
0100
0100
,
0220
0330
0220
0330
,
0001
0001
0000
1000
,
1000
1000
0000
0100
,
1000
1000
0100
0100
,
0200
0000
0300
0010
,
0020
0030
0000
0001
,
0001
1000
0000
1000
,
0001
0100
0001
0100
,
0020
0000
0000
0000
,
0200
0000
0000
0330
,
0110
0000
0000
0000
;

//---------------dance-single - Blank----------------
#NOTES:
     dance-single:
     Blank:
     Medium:
     5:
     0.212589,0.283812,0.169307,0.196040,0.004455,167.000000,148.000000,19.000000,22.000000,0.000000,0.000000,0.212589,0.283812,0.169307,0.196040,0.004455,167.000000,148.000000,19.000000,22.000000,0.000000,0.000000:
0000
0000
0000
0000
,
0000
0000
0000
0000
,
0000
0000
0000
0000
,
0000
0000
0000
0000
,
0001
0000
0000
0000
0000
0001
0000
0000
,
1000
0000
0000
0000
0000
1000
0000
0000
,
0001
0000
0000
0000
0000
0001
0000
0000
,
2000
0000
0000
3000
,
1010
0100
0001
0101
,
1001
1000
0100
0001
,
0101
0100
1000
0010
,
2002
0000
0000
3003
,
0010
1000
0001
0010
,
0011
0001
1000
0001
,
0100
0101
0001
0101
,
2002
0000
0000
3003
,
0001
0100
0001
0000
1000
0000
0010
0000
,
1000
0010
1000
0000
0001
0000
0100
0000
,
0010
0100
0010
0000
0100
0000
0001
0000
,
2000
0000
0000
3000
,
0100
1000
0100
0000
1000
0000
0100
0000
,
0010
0100
0010
0000
0001
0000
0010
0000
,
0100
0010
0100
0000
1000
0000
0100
0000
,
0020
0000
0000
0000
0030
0001
0000
0001
,
0200
0001
0000
0310
,
0020
0000
0000
0000
0000
1000
0000
0000
,
0130
0000
0001
0000
0100
0000
0010
1000
,
0002
0000
0000
0000
0003
0100
0000
0100
,
0001
0000
1001
0000
0000
1000
0000
1000
,
0100
1000
0100
1000
,
0001
0100
1000
0100
,
2002
0000
0000
3003
,
0010
1000
0001
0100
,
1000
0100
0001
0010
,
1000
0010
0001
1000
,
0020
0000
2000
3030
,
0100
0001
0100
1000
,
0100
0010
2000
0100
,
3001
0000
0000
0000
0100
0000
0000
0000
0010
0000
0000
0010
0000
0000
0010
0000
,
0200
0000
0020
0330
,
1001
0000
1001
0000
0000
0010
0000
0000
,
0100
0000
1001
0000
0000
0100
0000
0000
,
0010
1000
0001
0010
,
2002
0000
0000
3003
0000
0010
0000
0010
,
0010
0000
0100
0000
0000
0100
0000
0000
,
1000
0000
0010
0000
0000
0001
0000
0000
,
1010
0010
1010
1000
,
2002
0000
0000
3000
,
0200
0000
0000
0303
,
0101
0000
0000
0000
;

//---------------dance-single - Blank----------------
#NOTES:
     dance-single:
     Blank:
     Hard:
     8:
     0.370439,0.414803,0.231684,0.089109,0.089109,291.000000,265.000000,26.000000,10.000000,0.000000,0.000000,0.370439,0.414803,0.231684,0.089109,0.089109,291.000000,265.000000,26.000000,10.000000,0.000000,0.000000:
// measure 0
0000
0000
0000
0000
,  // measure 1
0000
0000
0000
0000
,  // measure 2
0000
0000
0000
0000
,  // measure 3
0000
0000
0000
0000
,  // measure 4
0001
0000
0000
0000
0000
0000
0001
0000
0000
0000
0010
0000
0000
0010
0000
0000
,  // measure 5
1000
0000
0000
0000
0000
0000
1000
0000
0000
0000
0010
0000
0000
0010
0000
0000
,  // measure 6
0001
0000
0000
0000
0000
0000
0100
0000
0000
0000
1000
0000
0000
0010
0000
0000
,  // measure 7
0200
0000
0000
0000
0000
0000
0300
0110
,  // measure 8
1001
0000
0000
0100
0000
0000
0001
0000
0000
0000
0100
0000
0000
0010
0000
0000
,  // measure 9
1000
0000
0000
0010
0000
0000
1000
0000
0000
0000
0001
0000
0000
0100
0000
0000
,  // measure 10
0010
0000
0000
1000
0000
0000
0001
0000
0000
0000
1000
0000
0000
0010
0000
0000
,  // measure 11
0100
0001
0100
0010
0100
0001
0100
0010
,  // measure 12
1000
0000
0000
0010
0000
0000
0100
0000
0000
0000
0001
0000
0000
1000
0000
0000
,  // measure 13
0001
0000
0000
0100
0000
0000
0010
0000
0000
0000
1000
0000
0000
0001
0000
0000
,  // measure 14
0010
0000
0000
0001
0000
0000
1000
0000
0000
0000
0100
0000
0000
1000
0000
0000
,  // measure 15
0010
1000
0001
0100
0010
1000
0001
0000
,  // measure 16
1000
0100
1000
0100
1000
0100
1000
0010
,  // measure 17
0100
0001
0100
0001
0100
0001
0010
0001
,  // measure 18
1000
0010
1000
0001
0100
0001
0100
0001
,  // measure 19
1000
0001
1000
0001
1000
0001
1000
0001
,  // measure 20
1000
0100
1000
0100
1000
0100
0010
0100
,  // measure 21
0010
0001
0010
0001
0010
0001
0010
0100
,  // measure 22
1000
0100
1000
0100
0010
0001
0010
0001
,  // measure 23
1000
0000
0001
0000
0100
0000
0010
0000
0000
0000
1000
0000
0000
0001
0000
0000
,  // measure 24
1100
0000
0000
1100
0000
0000
1100
0000
0000
0000
0001
0000
1000
0000
0000
0000
,  // measure 25
0010
0000
0000
0100
0000
0000
0010
0000
0000
0000
1000
0000
0001
0000
1000
0000
,  // measure 26
0010
1000
0010
0000
0100
0001
0010
0001
,  // measure 27
0200
0000
0300
0000
0101
0010
0100
0000
,  // measure 28
1001
0000
0000
0000
1000
0000
0100
0000
0010
0000
0100
0000
0000
1100
0000
0000
,  // measure 29
1001
0000
0001
0010
1000
0001
0100
0000
,  // measure 30
1000
0100
1000
0000
0001
0100
0010
0100
,  // measure 31
2020
0000
0000
3030
,  // measure 32
0100
0001
1000
0010
0100
0001
1000
0010
,  // measure 33
0100
0010
1000
0001
0200
0000
0300
0000
,  // measure 34
1000
0100
0001
0100
0010
1000
0001
0100
,  // measure 35
0020
0100
2000
3030
,  // measure 36
0100
1000
0100
0010
0100
1000
0001
0010
,  // measure 37
0001
1000
0100
1000
0001
1000
0100
0000
,  // measure 38
0010
0001
1000
0100
1000
0001
0010
0100
,  // measure 39
1100
1010
0101
0011
,  // measure 40
0100
1000
1010
0000
0100
0001
0100
0010
,  // measure 41
1010
0100
0001
0000
0100
0010
0000
1001
,  // measure 42
0010
1000
0001
0100
0001
1000
0010
1000
,  // measure 43
0100
0000
0000
0000
1100
0000
0000
0000
1000
0000
0001
0000
0100
0010
0000
0000
,  // measure 44
1001
0100
0001
0000
1000
0010
1000
0001
,  // measure 45
0101
0000
1001
0010
1000
0001
0100
0010
,  // measure 46
1010
0100
0101
0010
,  // measure 47
2002
3000
0100
0100
,  // measure 48
0200
0000
0000
0000
0000
0000
0303
1001
,  // measure 49
0101
0000
0000
0000
;
