#TITLE:Cyber Surfers;
#SUBTITLE:;
#ARTIST:AS-13;
#TITLETRANSLIT:;
#SUBTITLETRANSLIT:;
#ARTISTTRANSLIT:;
#GENRE:;
#CREDIT:;
#BANNER:cybersurfers-bn.png;
#BACKGROUND:cybersurfers-bg.png;
#LYRICSPATH:;
#CDTITLE:;
#MUSIC:Cyber Surfers.mp3;
#OFFSET:-0.060000;
#SAMPLESTART:26.500000;
#SAMPLELENGTH:12.000000;
#SELECTABLE:YES;
#BPMS:0.000000=145.000000
;
#STOPS:60.000000=1.250000
;
#BGCHANGES:;
#KEYSOUNDS:;
#ATTACKS:;

//---------------dance-single - Blank----------------
#NOTES:
     dance-single:
     Blank:
     Hard:
     8:
     0.530909,0.507796,0.341734,0.106792,0.145949,459.000000,48.000000,15.000000,0.000000,0.000000,0.000000,0.530909,0.507796,0.341734,0.106792,0.145949,459.000000,48.000000,15.000000,0.000000,0.000000,0.000000:
0000
0000
0000
0000
,
0000
0000
0000
0000
,
0000
0000
0000
0000
,
0000
0000
0000
0000
,
0001
0000
0000
0001
0000
0000
0001
0000
0000
0000
0000
0000
0000
0000
0000
0000
,
1000
0000
0000
1000
0000
0000
1000
0000
0000
0000
0000
0000
0001
0000
1000
0000
,
0010
0000
0000
0100
0000
0000
0010
0000
0000
0100
0000
0000
0010
0000
0100
0000
,
0002
0000
0000
0003
,
1001
0000
0000
0110
0000
0000
1001
0000
0000
0000
0100
0000
0001
0000
1000
0000
,
0100
0000
0000
0011
0000
0000
1100
0000
0000
0000
0010
0000
0100
0000
1000
0000
,
0010
0000
0000
1000
0000
0000
1100
0000
0000
0000
0001
0000
0100
0000
0010
0000
,
1010
0000
0000
1001
0000
0000
0100
0000
0010
0000
1000
0000
0000
0000
1010
0000
,
0010
0000
0000
0101
0000
0000
1010
0000
0100
0000
0010
0000
1000
0000
0001
0000
,
1000
0000
0000
1100
0000
0000
1001
0000
0001
0000
0010
0000
0100
0000
1000
0000
,
0010
0000
0000
1001
0000
0000
0100
0000
0000
0000
1001
0000
0000
0000
0010
0000
,
0100
0000
0000
0000
0001
0000
0000
0100
0000
0000
0010
0000
0000
0000
1000
0000
,
0010
0000
0100
0000
0001
0000
0000
1000
0000
0000
0001
0000
0000
0000
0100
0000
,
0001
0000
0010
0000
0100
0000
0000
1000
0000
0000
0100
0000
0000
0000
0010
0000
,
1000
0000
0010
0000
0001
0000
0000
0100
0000
0000
1000
0000
0000
0000
0100
0000
,
0001
0000
1000
0000
0100
0000
0000
1000
0000
0000
1010
0000
0000
0000
0100
0000
,
0010
0000
1000
0000
0100
0000
0000
0010
0000
0000
0011
0000
0000
0000
0001
0000
,
0010
0000
0100
0000
1000
0000
0000
0100
0000
0000
0001
0000
0000
0100
0000
0000
,
1000
0000
0001
0000
0100
0000
0000
0010
0000
0000
1000
0000
0100
0000
0001
0000
,
0100
0000
1000
0000
1010
0000
0000
1001
0000
0000
0101
0000
0000
0000
0010
0000
,
1000
0000
0001
0000
0010
0000
0000
0100
0000
0000
1100
0000
0000
0000
0001
0000
,
1000
0000
0001
0000
0100
0000
0000
0010
0000
0000
1001
0000
0000
0000
0010
0000
,
1000
0000
0001
0000
0100
0000
0000
0101
0000
0000
1001
0000
0000
0000
1000
0000
,
0100
0000
0010
0000
0001
0000
0000
0010
0000
0000
1001
0000
0000
0000
1000
0000
,
0010
0000
0000
0000
0100
0000
0000
0010
0000
0000
1001
0000
0000
0000
1000
0000
,
0100
0000
0000
0000
1001
0000
0000
0101
0000
0000
1001
0000
0000
1100
0000
0000
,
0001
0000
1000
0000
0100
0000
0000
1001
0000
0000
0110
0000
0010
0000
0001
0000
,
1000
0010
0101
0010
1000
0010
0100
0001
,
0100
0010
0100
0001
0100
0001
0100
0010
,
1000
0010
0100
0001
1000
0001
1000
0100
,
1000
0100
1000
0001
0010
0001
1000
0010
,
1000
0001
0010
0100
0010
0100
1000
0100
,
0010
0001
0010
0100
1000
0100
0010
0001
,
1000
0001
0010
0100
1000
0100
0010
0001
,
1000
0010
1000
0001
0100
0010
1000
0100
,
0010
0001
1000
0010
1000
0100
1000
0001
,
0100
0001
1000
0100
1000
0001
0100
0001
,
0100
0001
1000
0010
1000
0001
0100
0001
,
1000
0001
0010
0001
1000
0100
1000
0010
,
0100
0001
1000
0100
1000
0100
1000
0010
,
0100
0010
1000
0010
0100
0001
0100
0010
,
1000
0100
0010
0100
1000
0100
0010
0001
,
1000
0010
0100
0001
0010
0100
1000
0100
,
0010
0000
0001
1000
0100
0000
0000
0100
0000
0000
1100
0000
0000
0000
0000
0000
,
1000
0000
0100
0000
0010
0000
0000
0010
0000
0000
0011
0000
0000
0000
0000
0000
,
0001
0000
1000
0000
0010
0000
0000
0010
0000
0000
0010
0000
0000
0000
1000
0000
,
0001
0000
0001
0000
0100
0000
0000
0100
0000
0000
0100
0000
0000
0000
0001
0000
,
1000
0000
1000
0000
0100
0000
0000
1000
0000
0000
0100
0000
0000
0000
0000
0000
,
0001
0000
0100
0000
1000
0000
0000
0001
0000
0000
1000
0000
0000
0000
0000
0000
,
0010
1000
0002
0000
0000
0000
0010
0000
,
0000
2003
0000
3010
,
1001
0000
0100
0010
1000
0010
1000
0001
,
0100
0000
1000
0100
0001
0100
1000
0100
,
0010
0000
1000
0100
0010
0001
0010
0100
,
1000
0100
0001
0100
0010
0001
1000
0001
,
0100
0000
1000
0100
0001
0010
0000
1000
,
0010
0001
1000
0010
0100
0001
0000
0100
,
1000
0100
0010
1000
0010
0100
0001
0100
,
0010
1000
0100
1000
0100
0000
1000
0100
,
0010
0000
0100
0000
1001
0000
0000
0101
0000
0000
1001
0000
0000
0000
1000
0000
,
0010
0000
0100
0000
0001
0000
0000
0011
0000
0000
1001
0000
0000
0000
0100
0000
,
1000
0010
0100
0001
0100
0001
0100
1000
,
0100
0000
0001
0000
1000
0000
0100
0000
0010
0000
0001
0000
1000
0010
0000
0000
,
0100
0000
0010
0000
1001
0000
0000
0101
0000
0000
1010
0000
0000
0000
0100
0000
,
0010
0000
1000
0000
0100
0000
0000
0011
0000
0000
1100
0000
0000
0000
0001
0000
,
1000
0100
0001
0100
1000
0100
0010
0001
,
1000
0010
0100
0001
0100
0010
1000
0001
,
0100
0010
1020
0000
0000
0230
0000
0000
,
0302
0000
0203
0000
0000
0320
0000
0000
,
0230
0000
2300
0000
0000
3200
0000
0000
,
0302
0000
2003
0000
0000
3200
0000
0000
,
0320
0001
0031
0000
0000
0000
0000
0000
,
0000
0100
0000
0000
,
0000
1000
0100
0001
,
0100
1000
0010
0100
,
0001
1100
0000
0000
;

//---------------dance-single - ----------------
#NOTES:
     dance-single:
     :
     Medium:
     5:
     0.333598,0.394952,0.128150,0.035597,0.000000,305.000000,18.000000,5.000000,0.000000,0.000000,0.000000,0.333598,0.394952,0.128150,0.035597,0.000000,305.000000,18.000000,5.000000,0.000000,0.000000,0.000000:
0000
0000
0000
0000
,
0000
0000
0000
0000
,
0000
0000
0000
0000
,
0000
0000
0000
0000
,
0001
0000
0000
0010
0000
0000
0001
0000
,
1000
0000
0000
0100
0000
0000
1000
0000
,
0010
0010
1000
0001
,
0200
0000
0000
0300
,
0001
0100
1000
0100
,
0001
0100
0010
1000
,
0100
0001
0100
1000
,
0100
0010
0100
1000
,
0010
0001
0010
1000
,
0010
0001
1000
0100
,
0001
0000
0010
0000
0100
1000
0001
1000
,
0100
0010
0001
0100
,
0001
0100
0001
0000
0000
0010
0000
0000
,
0010
0001
0100
0010
,
1000
0000
0001
0000
0100
0000
0001
0010
,
0001
0010
0001
0000
1000
0000
2000
0000
,
3000
0010
1000
0100
,
1000
0010
0001
0010
,
1000
0000
0001
0000
0100
0000
0010
0100
,
0010
0100
0001
0000
1000
0000
0101
0000
,
0000
0010
1000
0100
,
0100
1000
0001
0000
1000
0000
0100
0000
,
1000
0000
0001
0000
0100
0000
0100
0010
,
0100
0000
0110
0000
0000
1001
0000
0000
,
1000
0100
1000
0010
,
0010
1000
0100
0010
,
0001
0010
0001
0000
1000
0000
0100
1000
,
0100
1001
0010
0100
,
1000
0100
0001
1000
,
0010
0001
1000
0010
,
0001
0100
1000
0010
,
0100
0000
0101
0000
0010
0000
0100
0001
,
0100
0000
1001
0000
0010
0000
0100
1000
,
0100
0010
0100
1000
,
0100
1000
0100
0000
1000
1000
0000
0010
,
0010
1001
0100
0001
,
0010
0000
0001
0100
0001
0000
0100
0000
,
0010
0100
0001
1000
,
0100
0000
1000
0001
1000
0000
0010
0000
,
1000
0000
0001
0100
0010
0000
0100
0000
,
0010
0000
0100
0001
0100
0000
0010
0000
,
0100
0001
0010
0100
,
1000
0010
1001
0100
,
1001
0000
0010
0000
0000
1000
0000
0000
,
0001
0000
1000
0000
0000
0100
0000
0000
,
1000
0000
0001
0000
0000
0100
0000
0000
,
0010
0000
0100
0000
0000
0001
0000
0000
,
0010
0000
0100
0000
0000
0100
0000
0000
,
1000
0000
0010
0000
0000
0010
0000
0000
,
1000
0100
0100
0010
,
0010
0020
0000
0000
,
0130
1001
0001
0100
,
0010
0000
1000
0010
0100
0000
0010
0000
,
0100
0001
0010
0100
,
1000
0001
1000
0000
0010
0000
0100
0000
,
0001
1001
1100
2002
,
3003
0001
0001
0100
,
0100
0000
0010
0000
1000
0000
0100
1000
,
0100
1000
0001
0000
0010
0000
0001
1000
,
0001
1001
0100
0001
,
0100
0010
1000
0000
0010
0000
0100
0000
,
0001
0100
0010
0000
0100
0000
0001
0000
,
0010
0100
0100
0010
,
1001
0000
0001
0000
0010
0000
0100
1000
,
0100
0010
0001
0100
,
0101
0010
0100
0010
,
1000
0000
0100
0000
0001
0000
0100
1000
,
0001
1000
0100
0000
0000
0010
0000
0000
,
0001
0000
1000
0000
0000
0010
0000
0000
,
1000
0000
0001
0000
0000
0100
0000
0000
,
0001
0000
1000
0000
0000
0010
0000
0000
,
1000
0101
0000
0000
,
0010
0100
0000
0000
,
0100
0010
1000
0010
,
1000
0001
0100
0001
,
0010
1100
0000
0000
;

//---------------dance-single - ----------------
#NOTES:
     dance-single:
     :
     Easy:
     3:
     0.199345,0.197476,0.042717,0.014239,0.000000,188.000000,6.000000,2.000000,0.000000,0.000000,0.000000,0.199345,0.197476,0.042717,0.014239,0.000000,188.000000,6.000000,2.000000,0.000000,0.000000,0.000000:
// measure 0
0000
0000
0000
0000
,  // measure 1
0000
0000
0000
0000
,  // measure 2
0000
0000
0000
0000
,  // measure 3
0000
0000
0000
0000
,  // measure 4
0001
0000
0000
0010
,  // measure 5
0010
0000
0000
1000
,  // measure 6
1000
0000
0000
0000
,  // measure 7
0100
0000
0000
0000
,  // measure 8
0001
0000
0010
0000
,  // measure 9
1000
0000
0100
0000
,  // measure 10
1000
0000
0010
0000
,  // measure 11
0001
0000
0100
0000
,  // measure 12
0001
0000
0010
0000
,  // measure 13
1000
0000
0100
0000
,  // measure 14
1000
0000
0010
0000
,  // measure 15
0110
0001
0000
0100
,  // measure 16
0000
0001
1000
0100
,  // measure 17
0000
1000
0000
0001
,  // measure 18
0000
0010
0010
0001
,  // measure 19
1000
0010
0000
0100
,  // measure 20
0000
0100
0010
0100
,  // measure 21
0000
0001
0001
1000
,  // measure 22
0001
1000
0000
0100
,  // measure 23
0000
1000
0000
1001
,  // measure 24
0000
0001
1000
0100
,  // measure 25
0000
1000
0000
0010
,  // measure 26
0000
0110
0000
0100
,  // measure 27
0010
0110
0000
1000
,  // measure 28
0000
0001
1000
0001
,  // measure 29
0000
0010
0000
0001
,  // measure 30
0000
0100
0010
0100
,  // measure 31
0010
0100
0000
0001
,  // measure 32
0001
0001
0000
0100
,  // measure 33
0100
0100
0000
0010
,  // measure 34
0010
0010
0000
1000
,  // measure 35
1000
0010
0000
0001
,  // measure 36
0001
0010
0000
1000
,  // measure 37
1000
0001
0000
0001
,  // measure 38
0001
0100
0000
0100
,  // measure 39
0100
0001
0000
0010
,  // measure 40
0000
1000
0000
0010
,  // measure 41
0000
0001
0000
0100
,  // measure 42
0001
0100
0000
0010
,  // measure 43
0100
0010
0000
1000
,  // measure 44
0000
0010
1000
0010
,  // measure 45
0000
0100
0000
0001
,  // measure 46
0000
0010
0001
0010
,  // measure 47
0001
1000
0000
0100
,  // measure 48
0000
0001
0000
0010
,  // measure 49
0000
1000
0000
0010
,  // measure 50
0000
0001
0000
0100
,  // measure 51
0000
1000
0000
0100
,  // measure 52
0000
0001
0000
0010
,  // measure 53
0000
2000
0000
0000
,  // measure 54
0000
0002
0000
0000
,  // measure 55
3003
0010
0000
0001
,  // measure 56
0000
1000
0010
1000
,  // measure 57
0000
0001
0000
0100
,  // measure 58
0000
0010
0100
0010
,  // measure 59
0100
0001
0000
0100
,  // measure 60
0000
0010
1000
0100
,  // measure 61
0000
1000
0000
0010
,  // measure 62
0000
1000
0100
1000
,  // measure 63
0100
0010
0000
0100
,  // measure 64
0000
1000
0010
1000
,  // measure 65
0000
0001
0000
0010
,  // measure 66
0000
0001
0100
0001
,  // measure 67
0100
0010
0000
0100
,  // measure 68
0000
0001
0001
0010
,  // measure 69
0000
1000
0000
0010
,  // measure 70
0000
0001
0100
0100
,  // measure 71
0100
0010
0000
1000
,  // measure 72
0000
0001
0000
0100
,  // measure 73
0000
1000
0000
0100
,  // measure 74
0000
0001
0010
0100
,  // measure 75
1000
1001
0000
0000
,  // measure 76
0000
0010
0000
0000
,  // measure 77
0000
0100
0100
0100
,  // measure 78
0100
0010
0010
0010
,  // measure 79
0010
1001
0000
0000
;
