#TITLE:Cooltastic! 2013;
#SUBTITLE:;
#ARTIST:AS-13;
#TITLETRANSLIT:;
#SUBTITLETRANSLIT:;
#ARTISTTRANSLIT:;
#CREDIT:;
#BANNER:cooltastic2013-bn.png;
#BACKGROUND:cooltastic2013-bg.png;
#LYRICSPATH:;
#CDTITLE:;
#MUSIC:Cooltastic! 2013.mp3;
#OFFSET:-1.000;
#SAMPLESTART:46.200;
#SAMPLELENGTH:12.000;
#SELECTABLE:YES;
#BPMS:0.000=65.000,15.000=130.000;
#STOPS:15.000=1.380
;
#BGCHANGES:;

//---------------dance-single - Blank----------------
#NOTES:
     dance-single:
     Blank:
     Hard:
     8:
     0.470,0.479,0.257,0.080,0.244:
0000
0000
0000
0000
,
0000
0000
0000
0000
0000
0000
0001
0001
,
0100
0100
1000
1000
0100
0100
0001
0010
,
1000
0000
0000
0000
0010
0000
0000
0000
0001
0000
0000
0001
0000
0000
0001
0000
0000
0001
0000
0000
0001
0000
0000
0000
1001
0000
0000
0000
0000
0000
0000
0000
,
0101
0000
0000
1000
0100
0000
0010
0000
0100
0000
1000
0000
0010
0000
0000
0000
,
0101
0000
0000
1001
0000
0000
0010
0000
1000
0000
0002
0003
0100
0000
0000
0000
,
1000
0000
0000
1000
0100
0000
0001
0000
0100
0000
0010
0000
1000
0000
0010
0000
,
0100
0000
0000
0101
0000
0000
0010
0000
0000
1001
0000
0000
0101
0000
0000
0000
,
1000
0000
0000
0100
0001
0000
0100
0000
1000
0000
0010
0000
0100
0000
0000
0000
,
1000
0000
0000
0100
0001
0000
0100
0000
0010
0000
0000
0000
0101
0000
0000
0000
,
1000
0000
0001
0000
0100
0000
0010
0000
1000
0000
0000
1000
0010
0000
0100
0000
,
0001
0000
0000
0101
0000
0000
0100
0000
0000
0110
0000
0000
1001
0000
0000
0000
,
0010
0000
1000
0000
0000
0010
0000
0000
0100
0000
0010
0000
0000
1000
0000
0000
,
0001
0000
0100
0000
0000
0001
0000
0000
1000
0000
0001
0000
0000
0100
0000
0000
,
0010
0000
0100
0000
0000
0010
0000
0000
1000
0000
0010
0000
0000
0100
0000
0000
,
0001
0000
0000
0100
0000
0000
0010
0000
0000
0100
0000
0000
0001
0000
0100
0000
,
0001
0000
0000
1000
0000
0000
0100
0000
0000
0000
1000
0000
0000
0000
0001
0000
,
0100
0000
0001
0000
0000
0100
0000
0000
0010
0000
0000
0000
0100
0000
0000
0000
,
0001
0000
0100
0010
0000
1000
0010
0000
,
1000
0001
0000
1000
0100
0000
0000
1100
,
1001
0000
0001
0000
0100
0000
0010
0000
1000
0000
0000
1000
0000
0000
0010
0000
,
0100
0000
0001
0000
0100
0000
0010
0000
1000
0000
0000
1100
0000
0000
0000
0000
,
0001
0000
0100
0000
0010
0000
1000
0000
0010
0000
0000
0010
0000
0000
0100
0000
,
0001
1000
0001
0010
0100
0000
1100
0000
,
0010
0000
0001
0000
1000
0000
0001
0000
0100
0000
0000
0100
0000
0000
0001
0000
,
1000
0000
0100
0000
1000
0000
0001
0000
0100
0000
0000
0101
0000
0000
0000
0000
,
0010
0000
1000
0000
0010
0000
0100
0000
0001
0000
0000
0001
0000
0000
0100
0000
,
0010
0000
1000
0000
0001
0000
0100
0000
0101
0000
0000
0100
0010
0000
1000
0000
,
0001
0000
0100
0000
0000
0001
0000
0000
1000
0000
0100
0000
0000
1000
0000
0000
,
0001
0000
0010
0000
0000
0100
0000
0000
0010
0000
0001
0000
0000
0100
0000
0000
,
0010
0000
0100
0000
0000
0001
0000
0000
0100
0000
0010
0000
0000
1000
0000
0000
,
0010
0000
0000
0100
0000
0000
1000
0000
0000
0100
0000
0000
0001
0000
0100
0000
,
0010
0000
0000
1000
0000
0000
0010
0000
0000
0000
0100
0000
0010
0000
0000
0000
,
1000
0000
0010
0000
0000
1000
0000
0000
0002
0000
0000
0000
0203
0000
0000
0000
,
0320
0000
0000
2030
0000
0000
3002
0000
,
0000
2003
0000
0000
3100
0000
0000
0000
,
1001
0000
0010
0000
0100
0000
0001
0000
0100
0000
0000
0100
0000
0000
0010
0000
,
1000
0000
0001
0000
1000
0000
0010
0000
0100
0000
0000
0110
0000
0000
0000
0000
,
0010
0000
1000
0000
0100
0000
1000
0000
0010
0000
0000
0010
0000
0000
0100
0000
,
0001
0100
1000
0100
0001
1000
0100
0000
,
1000
0000
0010
0000
1000
0000
0100
0000
0010
0000
0000
0010
0000
0000
0100
0000
,
0001
0000
0100
0000
1000
0000
0100
0000
0010
0000
0000
0011
0000
0000
0000
0000
,
0100
0000
0010
0000
0001
0000
1000
0000
0010
0000
0000
0010
0000
0000
1000
0000
,
0001
0000
0100
0000
0010
0000
1000
0000
1001
0000
0000
0000
0110
0000
0000
0010
,
1000
0100
1000
0100
0001
0100
1000
0100
,
0010
0001
0010
0100
1000
0100
0010
0000
,
0001
0010
1000
0010
0001
1000
0010
1000
,
0001
0100
1000
0100
0001
0000
0101
0000
,
1000
0000
0001
0000
0100
0000
0001
0000
1000
0000
0000
0001
0000
0000
0100
0000
,
0001
1000
0010
0100
1000
0100
0010
0000
,
1000
0000
0010
0000
0100
0000
0001
0000
0100
0000
0001
0100
0000
0001
0100
0000
,
0010
0000
0100
0000
0001
0000
0100
0000
0010
0000
0100
0000
0010
1000
0010
1000
,
0010
0000
0000
0101
0000
0000
0100
0000
0000
1010
0000
0000
1000
0000
0001
0000
,
0110
0000
0000
1001
0000
0000
0220
0000
0000
0000
0000
0000
0330
0000
0000
0000
,
1001
0000
0000
0000
;

//---------------dance-single - ----------------
#NOTES:
     dance-single:
     :
     Medium:
     6:
     0.363,0.383,0.204,0.115,0.164:
0000
0000
0000
0000
,
0000
0000
0000
0001
,
0100
1000
0100
0001
,
0010
0000
0100
0010
0001
1000
0100
0000
,
1001
0000
0100
0001
0100
0000
0010
0000
,
1001
0000
1000
0001
2000
0000
3100
0000
,
0010
0000
0100
0010
0100
0000
1000
0000
,
0010
0000
0000
1000
0000
0000
0010
0000
0000
1000
0000
0000
0100
0000
0000
0000
,
1100
0000
0010
0000
0100
0010
0100
0010
,
0001
0010
0100
1000
,
1100
0000
0001
0000
0100
0000
0010
0100
,
0001
0000
0000
0000
0100
0000
0010
0000
0000
0010
0000
0000
1000
0000
0000
0000
,
0101
0000
0000
0000
0000
0100
0000
0000
0010
0000
0000
0000
0000
1000
0000
0000
,
0010
0000
0000
0000
0000
0100
0000
0000
0001
0000
0000
0000
0000
1000
0000
0000
,
0100
0000
0000
0000
0000
1000
0000
0000
0010
0000
0000
0000
0000
1000
0000
0000
,
0001
0000
0000
1000
0000
0000
0001
0000
0000
0000
1000
0000
0000
0000
0100
0000
,
0100
0000
0000
1000
0000
0000
0001
0000
0000
0000
0100
0000
0010
0000
0000
0000
,
0100
0000
0100
0000
0000
0001
0000
0000
0010
0000
0000
0000
0100
0000
0000
0000
,
2000
0000
0000
3200
0000
0000
2300
0000
,
0000
3002
0000
0000
0103
0000
0000
0000
,
1001
0000
0000
0000
0010
0000
0000
0000
1000
0000
0000
0010
0000
0000
1000
0000
,
0001
0000
0000
0000
0100
0000
0000
0000
0010
0000
0000
1001
0000
0000
0000
0000
,
1000
0000
0000
0000
0010
0000
0000
0000
0100
0000
0000
0010
0000
0000
1000
0000
,
0001
1000
0001
0100
0000
0101
0000
0000
,
0010
0000
0000
0000
1000
0000
0000
0000
0010
0000
0000
0100
0000
0000
0010
0000
,
1000
0000
0000
0000
0001
0000
0100
0000
0001
0000
0000
0100
0000
0000
0000
0000
,
0010
0000
0000
0000
0100
0000
0000
0000
1000
0000
0000
0100
0000
0000
0001
0000
,
0100
0000
0001
0000
0100
0000
0000
0020
0000
0000
0000
0000
0030
0000
0000
0000
,
1001
0000
0000
0000
0000
1000
0000
0000
0100
0000
0000
0000
0000
0010
0000
0000
,
0001
0000
0000
0000
0000
0010
0000
0000
0100
0000
0000
0000
0000
1000
0000
0000
,
0010
0000
0000
0000
0000
0100
0000
0000
0001
0000
0000
0000
0000
0100
0000
0000
,
0010
0000
0000
1000
0000
0000
0001
0000
0000
0000
1000
0000
0000
0000
0001
0000
,
1000
0000
0000
0100
0000
0000
1000
0000
0000
0000
0001
0000
1000
0000
0000
0000
,
0001
0000
0100
0000
0000
0001
0000
0000
0100
0000
0000
0000
0020
0000
0000
0000
,
2030
0000
0000
3020
0000
0000
2030
0000
,
0000
3002
0000
0000
0103
0000
0000
0000
,
1010
0000
0000
0000
0100
0000
0000
0000
0010
0000
0000
1000
0000
0000
0010
0000
,
0100
0000
0000
0000
0010
0000
0000
0000
1001
0000
0000
0101
0000
0000
0000
0000
,
1000
0000
0000
0000
0100
0000
0000
0000
0001
0000
0000
0100
0000
0000
0010
0000
,
0001
0000
0010
0000
0001
0000
0000
0101
0000
0000
0000
0000
0100
0000
0001
0000
,
0100
0000
0000
0000
0010
0000
0000
0000
1000
0000
0000
0001
0000
0000
0100
0000
,
0010
0000
0000
0000
0100
0000
0001
0000
0100
0000
0000
0010
0000
0000
0000
0000
,
1001
0000
0100
0001
1000
0000
0001
0100
,
0010
0100
1001
0101
,
0010
1000
0010
1000
0010
0000
0100
0000
,
0001
0100
0001
0100
0010
0000
0100
0000
,
0001
0100
0001
0000
1000
0100
1000
0000
,
0001
1000
0001
1000
0100
0010
0100
0000
,
0010
0000
1001
0000
0100
1000
0100
0000
,
0010
0100
0011
1100
,
0001
0100
0001
0000
1000
0010
0100
0000
,
0010
0100
0010
0100
0001
0100
0001
0000
,
1000
0000
0000
1000
0000
0000
0001
0000
0000
0001
0000
0000
1000
0000
0001
0000
,
0101
0000
0000
1001
0000
0000
2020
0000
0000
0000
0000
0000
3030
0000
0000
0000
,
1001
0000
0000
0000
;

//---------------dance-single - ----------------
#NOTES:
     dance-single:
     :
     Easy:
     4:
     0.274,0.288,0.133,0.319,0.004: // measure 1
0000
0000
0000
0000
,  // measure 2
0000
0000
0000
0001
,  // measure 3
0001
0100
0100
1000
,  // measure 4
1000
0010
0010
1001
,  // measure 5
0000
0000
0100
0000
,  // measure 6
0010
1000
0010
0100
,  // measure 7
1001
0000
0010
0000
,  // measure 8
0100
0001
1000
0010
,  // measure 9
1001
0000
1000
0000
,  // measure 10
0010
1000
0001
1000
,  // measure 11
1001
0000
0100
0000
,  // measure 12
0010
0001
1000
0001
,  // measure 13
0200
0000
0302
0000
,  // measure 14
2003
0000
3020
0000
,  // measure 15
2030
0000
3002
0000
,  // measure 16
0203
0302
0203
0000
,  // measure 17
0320
0000
0230
0000
,  // measure 18
0320
2030
3020
0000
,  // measure 19
0230
0000
0001
0000
,  // measure 20
0001
0000
0301
0000
,  // measure 21
1001
0010
1000
0001
,  // measure 22
1000
0100
0010
0010
,  // measure 23
0001
0010
0100
1000
,  // measure 24
0001
1000
0200
0300
,  // measure 25
1001
0100
0010
1000
,  // measure 26
0010
0100
0001
0001
,  // measure 27
0100
0010
1000
0001
,  // measure 28
0100
0010
0220
0330
,  // measure 29
2001
0000
3020
0000
,  // measure 30
2030
0000
3002
0000
,  // measure 31
0203
0000
0320
0000
,  // measure 32
0230
0302
0203
0000
,  // measure 33
0320
0000
0230
0000
,  // measure 34
0320
2030
3002
0000
,  // measure 35
0203
0000
0010
0000
,  // measure 36
0010
0000
0310
0000
,  // measure 37
1001
0010
1000
0010
,  // measure 38
0100
0010
1000
1000
,  // measure 39
0010
1000
0001
0100
,  // measure 40
0001
0100
0020
0030
,  // measure 41
0100
0001
0100
0010
,  // measure 42
0100
0001
0010
0010
,  // measure 43
0100
0010
0001
0010
,  // measure 44
0100
1000
1001
0110
,  // measure 45
1001
0100
0010
1000
,  // measure 46
0010
0100
0001
0001
,  // measure 47
0100
0010
1000
0100
,  // measure 48
0010
0001
0200
0300
,  // measure 49
0001
0100
1000
0100
,  // measure 50
0001
1000
0100
0100
,  // measure 51
1000
0001
0100
0010
,  // measure 52
1000
0100
0110
1001
,  // measure 53
0100
0000
0000
0000
,  // measure 54
0010
0000
0000
0010
0000
0000
0020
0000
0000
0000
0000
0000
0030
0000
0000
0000
,  // measure 55
1001
0000
0000
0000
;
