#TITLE:Bit Beat;
#SUBTITLE:;
#ARTIST:AS-13;
#TITLETRANSLIT:;
#SUBTITLETRANSLIT:;
#ARTISTTRANSLIT:;
#CREDIT:;
#BANNER:bitbeat-bn.png;
#BACKGROUND:bitbeat-bg.png;
#LYRICSPATH:;
#CDTITLE:;
#MUSIC:Bit Beat (Short Mix).mp3;
#OFFSET:-0.020;
#SAMPLESTART:16.640;
#SAMPLELENGTH:12.000;
#SELECTABLE:YES;
#BPMS:0.000=130.000,164.000=145.000;
#STOPS:164.000=3.050
;
#BGCHANGES:;

//---------------dance-single - Blank----------------
#NOTES:
     dance-single:
     Blank:
     Hard:
     9:
     0.688,0.600,0.392,0.030,0.632: // measure 1
0000
0000
0000
0000
,  // measure 2
1001
0000
0000
0000
0010
0000
0000
1000
0001
0000
1000
0000
0100
0000
0000
0000
,  // measure 3
0011
0000
0000
0101
0000
0000
0000
0000
1010
0000
0000
1100
0000
0000
0100
0000
,  // measure 4
0010
0000
0000
0010
0001
0000
0100
0000
1000
0000
0100
0000
0001
0000
0000
0000
,  // measure 5
1000
0000
0000
0100
0000
0000
1100
0000
0001
0000
0000
0100
0000
0001
0100
0000
,  // measure 6
0010
0000
1000
0000
0100
0000
1000
0010
0000
0000
0100
0000
0010
0000
0100
0000
,  // measure 7
0001
0000
0000
0101
0000
0000
0000
0000
1000
0000
0000
1100
0000
0000
1001
0000
,  // measure 8
0001
0010
0100
1000
0100
0010
0001
1000
,  // measure 9
2020
0000
3000
0130
,  // measure 10
1001
0000
0100
0000
0010
0000
1000
0001
0100
0000
0001
0100
0000
0000
0010
0000
,  // measure 11
1000
0000
0010
1000
0000
0010
1000
0000
0001
0000
0100
0001
0000
0100
0001
0000
,  // measure 12
1000
0000
0100
0000
0010
0000
0100
1000
0001
0000
1000
0001
0000
1000
0001
0000
,  // measure 13
1000
0000
0000
0100
0000
1000
0100
0000
1000
0000
0000
0010
0000
1000
0010
0000
,  // measure 14
0100
0000
0001
0000
1000
0000
0010
1000
0001
0000
0100
0001
0000
0000
1000
0000
,  // measure 15
0010
0000
1000
0010
0000
1000
0010
0000
1000
0000
0100
1000
0000
0100
1000
0000
,  // measure 16
0010
0000
1000
0000
0001
0000
0100
0001
1000
0000
0001
1000
0000
0010
1000
0000
,  // measure 17
0010
0000
0000
0100
0000
0000
0001
0000
0110
0000
0000
1001
0000
0000
0110
0000
,  // measure 18
1000
0000
0100
0000
0010
0000
0100
1000
0000
0100
1000
0000
0100
0000
0010
0000
,  // measure 19
0001
0000
0000
0010
0000
0000
0001
0000
1000
0000
0000
0010
0000
1000
0010
0000
,  // measure 20
0100
0000
0001
0000
0100
0000
0010
1000
0000
0010
1000
0000
0010
0000
0100
0000
,  // measure 21
0001
0000
0000
0100
0000
0001
0100
0000
0010
0000
0000
1000
0000
0010
1000
0000
,  // measure 22
0100
0000
1000
0000
0010
0000
1000
0000
0100
0000
0000
1100
0000
0000
0110
0000
,  // measure 23
1000
0000
0001
0000
0100
0001
0100
0000
0001
0000
1000
0001
0000
0000
1000
0000
,  // measure 24
0100
0000
1000
0000
0001
0000
0100
0000
0001
1000
0001
1000
0000
0001
0100
0000
,  // measure 25
0010
0000
0000
1000
0000
0000
0001
0000
0101
0000
0000
1010
0000
0000
0101
0000
,  // measure 26
1000
0000
0010
0000
1000
0000
0001
0100
0001
0000
1000
0001
0000
0000
0100
0000
,  // measure 27
0001
0000
0010
0001
0000
0010
0001
0000
1000
0000
0010
1000
0000
0010
1000
0000
,  // measure 28
0100
0000
1000
0000
0010
0000
1000
0010
0100
0000
0001
0100
0000
0001
0100
0000
,  // measure 29
0010
0000
0000
1000
0000
0000
0001
0000
1000
0000
0000
0100
0000
1000
0010
0000
,  // measure 30
0100
0000
1000
0000
0100
0000
0010
0100
0010
0000
1000
0010
0000
0000
0100
0000
,  // measure 31
0001
0000
0100
0010
0000
1000
0001
0000
1000
0000
0010
1000
0000
0001
0100
0000
,  // measure 32
0010
0000
0100
0000
0001
0000
0100
0001
0100
0000
0010
0100
0000
0001
0100
0000
,  // measure 33
0010
0000
0000
1000
0000
0000
0100
0000
1100
0000
0000
0101
0000
0000
1100
0000
,  // measure 34
0001
0000
0010
0000
0001
0000
1000
0001
0000
0000
0100
0000
0001
0000
1000
0000
,  // measure 35
1100
0000
0000
0011
0000
0000
0001
0000
0100
0000
0000
1010
0000
0000
1000
0000
,  // measure 36
0100
0000
0010
0000
0100
0000
1000
0010
0000
1000
0010
0000
0100
0000
0010
0000
,  // measure 37
1000
0000
0000
0001
0100
0000
0010
0000
1000
0000
0000
0010
0100
0010
0100
0000
,  // measure 38
0001
0000
0100
0000
1001
0000
0000
0010
1000
0000
0001
0000
0100
0000
0000
0000
,  // measure 39
0001
0100
1000
0100
0001
0010
1000
0010
,  // measure 40
0001
0000
0100
0000
0010
1000
0010
0000
1000
0000
0100
0010
0000
0100
0010
0000
,  // measure 41
0001
0000
0010
0100
0000
1000
0001
0000
1001
0000
0000
0101
0000
0000
1010
0000
,  // measure 42
0101
0000
0000
0000
1001
0000
0010
0000
0100
0000
0001
1000
0010
0000
1000
0010
,  // measure 43
0000
0000
0100
0000
0001
0000
0100
0001
0000
0100
0001
0000
1000
0000
0010
1000
,  // measure 44
0000
0010
1000
0000
0001
0000
0010
0000
0100
0000
0010
0001
1000
0000
0001
1000
,  // measure 45
0000
0001
1000
0000
0001
0000
0000
0010
0000
0001
0010
0000
0001
0000
0000
0100
,  // measure 46
0000
0001
0100
0000
0010
0000
1000
0000
0001
0000
0100
0001
1000
0000
0010
1000
,  // measure 47
0000
0000
0001
0000
0100
0000
0001
0100
0000
0001
0100
0000
0001
0000
0010
0001
,  // measure 48
0000
0010
0001
0000
0100
0000
0001
0000
1000
0000
0010
1000
0001
0000
1000
0001
,  // measure 49
0000
0100
0001
0000
0100
0000
0000
0010
0000
0000
1000
0000
0110
0000
0000
1001
,  // measure 50
0000
0000
0110
0000
0001
0000
0010
0000
0100
0000
0010
0001
0000
0010
0001
0000
,  // measure 51
0010
0000
0100
0000
1000
0000
0000
0100
0000
0000
1000
0000
0001
0000
0000
0100
,  // measure 52
0000
0001
0100
0000
0010
0000
1000
0000
0010
0000
0100
0001
0000
0100
0001
0000
,  // measure 53
0100
0000
0010
0000
1000
0000
0000
0010
0000
1000
0010
0000
0100
0000
0000
0001
,  // measure 54
0000
0100
0001
0000
0010
0000
0001
0000
0100
0000
0001
0000
0010
0000
0000
0011
,  // measure 55
0000
0000
0110
0000
0001
0000
1000
0000
0010
1000
0010
0000
1000
0000
0001
1000
,  // measure 56
0000
0000
0001
0000
0010
0000
0001
0000
1000
0000
0010
0000
1000
0001
1000
0001
,  // measure 57
0000
1000
0010
0000
0100
0000
0000
0001
0000
0000
1000
0000
1010
0000
0000
0101
,  // measure 58
0000
0000
1010
0000
0001
0000
0100
0000
0001
0000
1000
0010
1000
0000
0001
1000
,  // measure 59
0000
0000
0010
0000
1000
0000
0100
1000
0000
0100
1000
0000
0001
0000
0100
0001
,  // measure 60
0000
0100
0001
0000
0010
0000
0001
0000
0100
0000
0001
0100
0010
0000
1000
0010
,  // measure 61
0000
1000
0010
0000
0100
0000
0000
0001
0000
0000
1000
0000
0001
0000
0000
0010
,  // measure 62
0000
0001
0100
0000
0010
0000
0001
0000
0010
0000
0100
0010
0100
0000
0001
0100
,  // measure 63
0000
0000
0010
0000
1000
0000
0010
0100
0000
0001
1000
0000
0001
0000
0100
0001
,  // measure 64
0000
1000
0010
0000
0100
0000
0010
0000
1000
0000
0010
1000
0010
0000
0100
0010
,  // measure 65
0000
1000
0010
0000
0100
0000
0000
0001
0000
0000
0010
0000
0011
0000
0000
1010
,  // measure 66
0000
0000
0011
0000
1000
0000
0100
0000
1000
0000
0001
1000
0000
0000
0010
0000
,  // measure 67
1000
0000
0001
0000
0011
0000
0000
1100
0000
0000
1000
0000
0010
0000
0000
0101
,  // measure 68
0000
0000
0001
0000
0010
0000
0100
0000
0010
0000
0001
0100
0000
0001
0100
0000
,  // measure 69
0010
0000
0100
0000
0001
0000
0000
1000
0010
0000
0100
0000
0001
0000
0000
0100
,  // measure 70
0010
0100
0010
0000
1000
0000
0010
0000
1001
0000
0000
0100
0001
0000
1000
0000
,  // measure 71
0010
0000
1000
0010
0001
0010
1000
0100
,  // measure 72
0001
0000
0100
0000
1000
0000
0010
0000
0100
0001
0100
0000
0001
0000
0010
0100
,  // measure 73
0000
0010
0100
0000
1100
0000
0000
1100
0000
0000
0011
0000
0101
0000
0000
0101
,  // measure 74
0000
1010
2002
0000
0000
0000
3003
0000
;

//---------------dance-single - ----------------
#NOTES:
     dance-single:
     :
     Medium:
     7:
     0.540,0.515,0.540,0.074,0.311:
0000
0000
0000
0000
,
0101
0000
0000
0000
1000
0000
0000
0001
0000
0000
0100
0000
0000
0000
0000
0000
,
0001
0000
0000
0101
0000
0000
0000
0000
1000
0000
0000
1100
0000
0000
0000
0000
,
0010
0000
0100
0000
0010
0000
0000
0001
0000
0000
0011
0000
0000
0000
0000
0000
,
1000
0000
0000
0001
0000
0000
0001
0000
0100
0000
0000
0010
0000
0000
0010
0000
,
1000
0000
0000
0000
1100
0000
0000
1001
0000
0000
0000
0000
0001
0000
0100
0000
,
0010
0000
0000
0110
0000
0000
0000
0000
0100
0000
0000
0101
0000
0000
0000
0000
,
0010
0000
1000
0000
0010
0000
0000
0100
0000
0000
0101
0000
0000
0000
0010
0000
,
2002
0000
3003
0100
,
0101
0000
0000
0000
0010
0000
0100
0000
0001
0000
0000
0101
0000
0000
1000
0000
,
1100
0000
0000
1100
0000
0000
0001
0000
0101
0000
0000
0101
0000
0000
1000
0000
,
0010
0000
0000
0000
1000
0000
0100
0000
0010
0000
0000
0001
0000
0000
1000
0000
,
1100
0000
0000
0100
0000
0000
1000
0000
0101
0000
0000
0100
0000
0000
0010
0000
,
1000
0000
0001
0000
0100
0000
0010
0000
1000
0000
0000
1010
0000
0000
0010
0000
,
0101
0000
0000
0101
0000
0000
0010
0000
1010
0000
0000
1010
0000
0000
0100
0000
,
0010
0000
1000
0000
0010
0000
0100
0000
0010
0000
0000
1000
0000
0000
0010
0000
,
0100
0000
0000
0001
0000
0000
0010
0000
2002
0000
0000
0000
3003
0000
0000
0000
,
1000
0000
0000
0100
0000
0000
0001
0000
0000
0100
0000
0000
1000
0000
0100
0000
,
0010
0001
0100
0000
0010
1000
0100
0010
,
0100
0000
0000
1000
0000
0000
0100
0000
0000
0010
0000
0000
0001
0000
1000
0000
,
0010
0000
0000
0010
0000
0000
0010
0000
0100
0000
0000
0100
0000
0000
0100
0000
,
0001
0000
0000
0100
0000
0000
0010
0000
0000
1000
0000
0000
0100
0000
1000
0000
,
0010
0000
0000
0010
0000
0000
1000
0000
0100
0000
0000
0100
0000
0000
1000
0000
,
0001
0000
0000
0010
0000
0000
1000
0000
0000
0010
0000
0000
0001
0000
1000
0000
,
0100
0000
1000
0000
0100
0000
1000
0000
1100
0000
0000
0011
0000
0000
1100
0000
,
0001
0000
1000
0000
0001
0000
0100
0000
0001
0000
0000
0101
0000
0000
0000
0000
,
1010
0000
0000
1010
0000
0000
0001
0000
1001
0000
0000
1001
0000
0000
0100
0000
,
0101
0000
0000
0000
0010
0000
1000
0000
0010
0000
0000
0100
0000
0000
0010
0000
,
1000
0000
0000
1000
0000
0000
0010
0000
0001
0000
0000
0001
0000
0000
0010
0000
,
1000
0000
0000
0000
0001
0000
0100
0000
0001
0000
0000
1000
0000
0000
0100
0000
,
1000
0000
0000
1000
0000
0000
0100
0000
0001
0000
0000
0001
0000
0000
0100
0000
,
1000
0000
0010
0000
1000
0000
0010
0000
1000
0000
0000
0001
0000
0000
1000
0000
,
1100
0000
0000
0011
0000
0000
0000
0000
0202
0000
0000
0000
0303
0000
0000
0000
,
1000
0010
0100
0000
0001
0010
0100
0000
,
1000
0100
1000
0100
0010
0001
0010
0000
,
0100
1000
0010
0000
0100
0001
0010
0000
,
0001
1000
0010
1000
0010
1000
0100
0000
,
1000
0100
0010
0000
0100
0010
0001
0000
,
0010
0001
0010
0100
1000
0100
1000
0000
,
0100
0010
0001
0000
0100
0010
1000
0000
,
0001
0000
0000
1000
0000
0000
0010
0000
0110
0000
0000
0101
0000
0000
1001
0000
,
1100
0000
0000
0000
1010
0000
0000
0000
0100
0000
0010
0000
1000
0000
0000
1010
,
0000
0000
0001
0000
0011
0000
0000
0011
0000
0000
1000
0000
1010
0000
0000
1010
,
0000
0000
0001
0000
0100
0000
0000
0000
0001
0000
0010
0000
0100
0000
0000
1000
,
0000
0000
0001
0000
0011
0000
0000
0010
0000
0000
0001
0000
1010
0000
0000
0010
,
0000
0000
0100
0000
0001
0000
1000
0000
0010
0000
0100
0000
0001
0000
0000
0101
,
0000
0000
0100
0000
1010
0000
0000
1010
0000
0000
0100
0000
0101
0000
0000
0101
,
0000
0000
0010
0000
0100
0000
0001
0000
0100
0000
0010
0000
0100
0000
0000
0001
,
0000
0000
0100
0000
0010
0000
0000
1000
0000
0000
0100
0000
2002
0000
0000
0000
,
3003
0000
0000
0000
0001
0000
0000
0010
0000
0000
1000
0000
0000
0010
0000
0000
,
0001
0010
0100
1000
0010
0000
0100
0001
,
0010
0000
0100
0000
0010
0000
0000
0001
0000
0000
0010
0000
0000
0100
0000
0000
,
1000
0000
0001
0000
0100
0000
0000
0100
0000
0000
0100
0000
0010
0000
0000
0010
,
0000
0000
0010
0000
1000
0000
0000
0010
0000
0000
0100
0000
0000
0001
0000
0000
,
0010
0000
0001
0000
0100
0000
0000
0100
0000
0000
0001
0000
0010
0000
0000
0010
,
0000
0000
0001
0000
1000
0000
0000
0100
0000
0000
0001
0000
0000
0100
0000
0000
,
1000
0000
0001
0000
0010
0000
0001
0000
0010
0000
0001
0000
0011
0000
0000
1100
,
0000
0000
0011
0000
1000
0000
0001
0000
1000
0000
0010
0000
1000
0000
0000
1010
,
0000
0000
0000
0000
0101
0000
0000
0101
0000
0000
1000
0000
1001
0000
0000
1001
,
0000
0000
0010
0000
1010
0000
0000
0000
0100
0000
0001
0000
0100
0000
0000
0010
,
0000
0000
0100
0000
0001
0000
0000
0001
0000
0000
0100
0000
1000
0000
0000
1000
,
0000
0000
0100
0000
0001
0000
0000
0000
1000
0000
0010
0000
1000
0000
0000
0001
,
0000
0000
0010
0000
0001
0000
0000
0001
0000
0000
0010
0000
1000
0000
0000
1000
,
0000
0000
0010
0000
0001
0000
0100
0000
0001
0000
0100
0000
0001
0000
0000
1000
,
0000
0000
0001
0000
0011
0000
0000
1100
0000
0000
0000
0000
2020
0000
0000
0000
,
3030
0000
0001
0100
0010
0000
1000
0100
,
0010
0000
0001
0010
0001
0010
0100
1000
,
0100
0000
0010
0001
0100
0000
0010
1000
,
0100
0000
1000
0001
0100
0001
0100
0001
,
0010
0000
0001
0010
0100
0000
0010
0100
,
1000
0000
0100
1000
0100
0010
0001
0010
,
0001
0000
0010
0100
1000
0000
0010
0100
,
0001
0000
0000
0000
0101
0000
0000
0101
0000
0000
0101
0000
1010
0000
0000
1010
,
0000
1010
1001
0000
0000
0000
0000
0000
;

//---------------dance-single - ----------------
#NOTES:
     dance-single:
     :
     Easy:
     4:
     0.321,0.325,0.237,0.126,0.000:
0000
0000
0000
0000
,
0101
0000
0100
0000
,
0010
0010
0100
0100
,
1100
0000
0010
0000
,
0001
0010
0100
1000
,
0010
0000
1010
0000
,
1000
0100
1100
0000
,
0001
0000
0100
0000
,
0202
0000
0000
0303
,
1000
0010
0100
0001
,
1001
0000
0010
0010
,
1001
0100
0001
0100
,
0110
0000
1000
1000
,
0001
0010
1000
0010
,
1001
0000
1000
1000
,
0100
1000
0100
0010
,
0001
1000
2002
3003
,
0100
0001
0100
0010
,
0100
0001
1000
0010
,
0100
0010
0100
0001
,
0100
0010
1000
0010
,
0100
0001
0010
0001
,
0010
0100
1000
0100
,
0010
0100
1000
0100
,
0010
0100
2002
3003
,
0001
0100
0001
1000
,
1001
0000
0100
0100
,
0110
0010
0100
0010
,
1000
0000
1001
1001
,
0010
1000
0010
0100
,
0110
0000
1000
0001
,
1001
1000
0100
1000
,
0010
0000
0220
0330
,
1000
0010
0001
0010
,
1000
0010
0100
0010
,
1000
0001
0100
0010
,
0100
0010
1000
0001
,
0100
0001
1000
0100
,
1000
0100
0010
0100
,
1000
0100
0010
0001
,
1000
0001
0200
0000
,
0310
1000
0010
0100
,
0001
1001
0000
0010
,
0010
1001
0100
0001
,
0100
0110
0000
1000
,
1000
0001
0010
1000
,
0010
1001
0000
1000
,
1000
0100
1000
0100
,
0010
0001
1000
2002
,
3003
0100
0001
0100
,
0010
0100
0001
1000
,
0010
0100
0010
0100
,
0001
0100
0010
1000
,
0010
0100
0001
0010
,
0001
0010
0100
1000
,
0100
0010
0100
1000
,
0100
0010
0100
2002
,
3003
0001
0100
0001
,
1000
1001
0000
0100
,
0100
0110
0010
0100
,
0010
1000
0000
1001
,
1001
0010
1000
0010
,
0100
0110
0000
1000
,
0001
1001
1000
0100
,
1000
0010
0000
0220
,
0330
1000
0010
0001
,
0010
1000
0010
0100
,
0010
1000
0001
0100
,
0010
0100
0010
1000
,
0001
0100
0001
1000
,
0100
1000
0100
0010
,
0100
1000
0100
0010
,
0001
0200
0000
0020
,
0330
1001
0000
0000
;
