#VERSION:0.81;
#TITLE:Ballad of the Goddess;
#SUBTITLE:(AS-13 Remix);
#ARTIST:AS-13;
#TITLETRANSLIT:;
#SUBTITLETRANSLIT:;
#ARTISTTRANSLIT:;
#GENRE:;
#ORIGIN:;
#CREDIT:;
#BANNER:goddess-bn.png;
#BACKGROUND:goddess-bg.png;
#PREVIEWVID:;
#JACKET:;
#CDIMAGE:;
#DISCIMAGE:;
#LYRICSPATH:;
#CDTITLE:;
#MUSIC:Ballad of the Goddess (AS-13 Remix).mp3;
#OFFSET:-0.480000;
#SAMPLESTART:29.225609;
#SAMPLELENGTH:12.000000;
#SELECTABLE:YES;
#BPMS:0.000=150.000;
#STOPS:68.000=0.400,
195.000=0.800;
#DELAYS:;
#WARPS:;
#TIMESIGNATURES:0.000=4=4;
#TICKCOUNTS:0.000=4;
#COMBOS:0.000=1;
#SPEEDS:0.000=1.000=0.000=0;
#SCROLLS:0.000=1.000;
#FAKES:;
#LABELS:0.000=Song Start;
#BGCHANGES:;
#KEYSOUNDS:;
#ATTACKS:
;

//---------------dance-single - ----------------
#NOTEDATA:;
#CHARTNAME:;
#STEPSTYPE:dance-single;
#DESCRIPTION:;
#CHARTSTYLE:;
#DIFFICULTY:Hard;
#METER:8;
#RADARVALUES:0.474231,0.555661,0.158918,0.052973,0.035315,352.000000,18.000000,6.000000,0.000000,0.000000,0.000000,0.000000,0.000000,0.474231,0.555661,0.158918,0.052973,0.035315,352.000000,18.000000,6.000000,0.000000,0.000000,0.000000,0.000000,0.000000;
#CREDIT:;
#NOTES:
0000
0000
0000
0000
,
0000
0000
0000
0000
,
0000
0000
0000
0000
,
0000
0000
0000
0000
,
0000
0000
0000
0000
,
0000
0000
0000
0000
,
0000
0000
0000
0000
,
0000
0000
0000
0101
,
0010
0000
0000
0010
0000
0000
0010
0000
,
1000
2000
0000
3100
,
0010
0000
0000
0010
0001
0000
0100
0000
,
0100
0020
0030
0010
,
2000
0000
3000
1000
,
0100
0020
0030
0100
,
1000
0100
0001
0010
,
1000
0010
0001
0100
,
1000
0000
0100
0000
1000
0000
0100
0000
1000
0010
1000
0010
1000
0010
1000
0010
,
1000
0000
0101
0000
1100
0000
0001
1000
,
0100
1000
0001
0010
0100
0000
1000
0100
,
0010
0000
0001
0100
0010
0000
1000
0100
,
0000
0100
0010
0100
0001
0000
1000
0100
,
0000
0100
0010
0100
0001
0000
1000
0010
,
0100
0000
0001
0010
0100
0000
1000
0100
,
0001
0100
1000
0010
0100
0000
0001
0100
,
0010
0000
1000
0010
0100
0000
0001
0010
,
0100
1000
0100
0010
0001
1000
1001
0010
,
0100
0000
0001
0100
0010
0000
1000
0001
,
0020
0000
0130
0000
1001
0000
1000
0010
,
0100
0010
0100
0010
0001
0000
1000
0010
,
0100
0010
0100
0010
0001
0000
1000
0100
,
1000
0000
0001
1000
0100
0000
0001
0100
,
1000
0001
0100
1000
0100
0000
0001
0100
,
0010
0100
0001
0010
0100
0010
0001
0100
,
0010
0000
1000
0001
0100
0100
0101
0000
,
0010
1000
0100
1100
,
0001
0100
0001
0001
0010
0000
0100
0000
,
1100
0000
1000
0001
0100
0000
0101
0000
,
0010
0000
0100
0001
0100
0010
2000
0000
,
0100
0000
3001
1000
0100
0000
1000
0010
,
0100
0000
0100
0010
1000
0010
0100
0001
,
0000
0001
0000
0010
0000
0010
0001
0100
,
0000
0101
0000
0101
0000
1000
0001
0000
,
0100
0000
1000
0001
0100
0000
1000
0100
,
0001
0100
0001
1000
0100
0000
0001
0000
,
0010
0000
1000
0010
0001
0000
1000
0010
,
0001
0010
0001
0100
1000
0000
0001
0000
,
0100
0000
0001
0010
0100
0000
1000
0100
,
1000
0100
1000
0010
1000
0010
1000
0100
,
1000
0000
0100
0000
1000
0000
0100
0000
0010
0100
0010
0100
0010
0000
0000
0000
,
1100
0000
0001
0100
0010
1000
0001
0100
,
0001
0000
1000
0100
0001
0000
1000
0100
,
0001
0000
1000
0010
0000
0010
0100
0010
,
0001
0000
1000
0010
0000
0010
0100
0010
,
0001
0000
0100
0001
0010
0000
0001
0100
,
0010
0000
1000
0010
0100
0001
0100
0010
,
1000
0000
0100
0010
0001
0000
0100
0010
,
1000
0000
0100
0001
0100
1000
0000
0101
,
0010
0100
1001
0000
1000
0010
0100
0001
,
0010
0000
0001
0010
0100
0000
0001
0100
,
1000
0000
0001
1000
0010
0100
0001
0100
,
1000
0000
0001
1000
0010
0100
0001
0100
,
1000
0000
0001
0100
0010
0000
0100
0010
,
1000
0000
0100
0010
0001
0100
0010
1000
,
0100
0000
1000
0010
0110
0000
0100
1000
,
1001
0000
0001
0100
0110
0000
0010
0001
,
1001
0000
0010
1000
0001
0100
0010
1000
,
0001
0100
0010
1000
0001
0000
0000
0000
0000
0000
0000
0000
0000
0000
0000
0000
;

//---------------dance-single - ----------------
#NOTEDATA:;
#CHARTNAME:;
#STEPSTYPE:dance-single;
#DESCRIPTION:;
#CHARTSTYLE:;
#DIFFICULTY:Medium;
#METER:6;
#RADARVALUES:0.389727,0.380189,0.264863,0.194233,0.000000,257.000000,30.000000,22.000000,0.000000,0.000000,0.000000,0.000000,0.000000,0.389727,0.380189,0.264863,0.194233,0.000000,257.000000,30.000000,22.000000,0.000000,0.000000,0.000000,0.000000,0.000000;
#CREDIT:;
#NOTES:
0000
0000
0000
0000
,
0000
0000
0000
0000
,
0000
0000
0000
0000
,
0000
0000
0000
0000
,
0000
0000
0000
0000
,
0000
0000
0000
0000
,
0000
0000
0000
0000
,
0000
0000
0000
0000
,
0001
0000
0000
0001
0000
0000
0001
0000
,
0100
0020
0030
0010
,
1000
0000
0000
1000
0010
0000
1000
0000
,
0100
0200
0000
0310
,
0100
0000
0000
0100
0000
0000
1000
0000
,
0010
0200
0300
0100
,
0001
0000
0000
0001
0010
0000
0001
0000
,
1000
0000
1000
0000
0010
1000
0010
0000
,
2000
0000
0000
0000
0000
0000
3010
1000
,
0010
1010
0101
1001
,
0010
0000
1000
0000
0100
0000
1000
0100
,
0020
0000
0130
0000
0010
0100
0010
0000
,
0001
0100
0101
0010
,
0200
0000
0010
0000
0310
0000
1000
0100
,
2000
0000
0100
0000
3100
0000
0010
0010
,
0100
1000
0100
1001
,
0010
0000
0001
0000
1000
0000
0001
0100
,
0000
0101
0000
0000
0110
0000
1001
0000
,
0100
0000
0001
0000
0010
0000
0001
0100
,
0002
1003
1001
0010
,
1000
0000
0001
0000
0100
0000
0010
0100
,
0010
0100
0001
0010
,
1001
0100
1000
0101
,
1100
0000
0001
0000
1000
0000
0010
1000
,
0010
1000
0100
0010
,
0100
0000
1000
0100
0010
0000
2001
0000
,
0010
3010
0100
0001
,
0100
0001
0100
0000
0101
0000
1002
0000
,
0100
0010
0013
0001
,
0100
0000
0010
0100
0001
0000
2100
0000
,
0100
0010
0100
3020
,
0100
0100
1000
2030
,
0100
3002
0100
2003
,
0010
3002
0103
0110
,
1000
0000
0001
0000
0100
0001
0100
0000
,
0010
1000
0101
0002
,
0010
0000
1003
0000
0001
0000
0100
0010
,
1000
0000
0010
1000
0010
0000
1000
0000
,
1100
0100
2000
3020
,
0100
0130
0001
0020
,
0001
0000
0130
0100
0010
0000
0110
0000
,
1001
0100
0001
1000
,
0100
0000
1000
0100
2000
0000
3010
0000
,
1000
0000
1001
0000
0001
0000
0100
0001
,
0100
0000
0010
0000
0010
1000
0000
0010
,
1000
0000
0001
0000
0100
0000
0010
0100
,
0010
0000
1000
0000
0000
1001
0000
0001
,
0100
0000
0001
0000
1000
0000
0001
0100
,
0001
1000
1001
0001
,
0101
1001
1000
0010
,
1000
0000
0001
0100
0020
0000
0100
0000
,
0130
0000
0001
0000
0101
0000
0100
0010
,
0100
0000
0001
0000
0000
1001
0000
1000
,
0100
0000
1000
0000
0001
0000
0100
0001
,
0100
0000
0010
0000
0000
1001
0000
0100
,
0001
0100
0010
1000
,
0001
0000
0010
0001
0010
0000
0100
1000
,
0100
0000
0010
0100
0010
0100
1000
0001
,
1000
0001
1001
0000
0000
0000
0000
0000
;

//---------------dance-single - ----------------
#NOTEDATA:;
#CHARTNAME:;
#STEPSTYPE:dance-single;
#DESCRIPTION:;
#CHARTSTYLE:;
#DIFFICULTY:Easy;
#METER:3;
#RADARVALUES:0.208107,0.233963,0.070630,0.141260,0.000000,141.000000,8.000000,16.000000,0.000000,0.000000,0.000000,0.000000,0.000000,0.208107,0.233963,0.070630,0.141260,0.000000,141.000000,8.000000,16.000000,0.000000,0.000000,0.000000,0.000000,0.000000;
#CREDIT:;
#NOTES:
// measure 0
0000
0000
0000
0000
,  // measure 1
0000
0000
0000
0000
,  // measure 2
0000
0000
0000
0000
,  // measure 3
0000
0000
0000
0000
,  // measure 4
0000
0000
0000
0000
,  // measure 5
0000
0000
0000
0000
,  // measure 6
0000
0000
0000
0000
,  // measure 7
0000
0000
0000
0000
,  // measure 8
0001
0000
0001
0000
,  // measure 9
0100
0020
0000
0030
,  // measure 10
1000
0000
1000
0000
,  // measure 11
0010
0020
0000
0030
,  // measure 12
0100
0000
0100
0000
,  // measure 13
0001
0200
0000
0300
,  // measure 14
0100
0000
0010
0000
,  // measure 15
0100
0000
0001
0000
,  // measure 16
1000
1000
0001
0001
,  // measure 17
1001
0000
0000
0110
,  // measure 18
0000
1000
0000
0010
,  // measure 19
0020
0000
0030
1000
,  // measure 20
0000
0100
0000
0010
,  // measure 21
0000
0100
0000
1000
,  // measure 22
1000
0000
0000
0001
,  // measure 23
0002
0000
0003
0100
,  // measure 24
0200
0000
0300
0010
,  // measure 25
0020
0000
0030
1001
,  // measure 26
0000
0100
0000
0010
,  // measure 27
2000
0000
3000
0010
,  // measure 28
0000
1000
0000
0001
,  // measure 29
0000
0100
0001
0100
,  // measure 30
0000
0001
0000
1000
,  // measure 31
0200
0000
0300
1000
,  // measure 32
0000
0010
0010
1000
,  // measure 33
0002
0000
0003
0110
,  // measure 34
0000
0100
0000
0001
,  // measure 35
0000
0100
0001
0010
,  // measure 36
0000
0001
0010
0001
,  // measure 37
0000
1000
0100
0010
,  // measure 38
0000
0100
0000
1000
,  // measure 39
0000
0010
1000
0100
,  // measure 40
0000
0010
0010
0100
,  // measure 41
0010
0100
0010
0110
,  // measure 42
0000
0001
0000
0010
,  // measure 43
0000
0001
1000
0100
,  // measure 44
0000
0100
0000
1000
,  // measure 45
1000
0001
1000
1000
,  // measure 46
0000
0001
0000
0100
,  // measure 47
0000
0001
0000
1000
,  // measure 48
0010
1000
0010
0110
,  // measure 49
0000
0001
0000
1000
,  // measure 50
0000
0100
0020
0000
,  // measure 51
0030
0001
0000
0010
,  // measure 52
0000
1000
0000
0100
,  // measure 53
0000
0001
0000
1000
,  // measure 54
0001
1000
0002
0000
,  // measure 55
0003
0010
0000
0001
,  // measure 56
0000
1000
0200
0000
,  // measure 57
0300
0110
0000
1000
,  // measure 58
0001
1000
0002
0000
,  // measure 59
0003
0010
0000
0001
,  // measure 60
0000
0100
0002
0003
,  // measure 61
0100
0100
0000
0001
,  // measure 62
0000
1000
2000
3000
,  // measure 63
0010
0010
0000
1000
,  // measure 64
0000
0001
0001
0100
,  // measure 65
0100
0010
1000
0001
,  // measure 66
0100
1001
0000
0000
;
