#VERSION:0.83;
#TITLE:Anywhere Else;
#SUBTITLE:;
#ARTIST:AS-13 with IA;
#TITLETRANSLIT:;
#SUBTITLETRANSLIT:;
#ARTISTTRANSLIT:;
#GENRE:;
#ORIGIN:;
#TAGS:;
#CREDIT:;
#BANNER:anywhereelse-bn.png;
#BACKGROUND:anywhereelse-bg.png;
#PREVIEWVID:;
#JACKET:;
#CDIMAGE:;
#DISCIMAGE:;
#LYRICSPATH:;
#CDTITLE:;
#MUSIC:Anywhere Else.ogg;
#OFFSET:-0.020000;
#SAMPLESTART:34.654015;
#SAMPLELENGTH:21.359961;
#SELECTABLE:YES;
#BPMS:0.000000=180.000000
;
#STOPS:;
#DELAYS:;
#WARPS:;
#TIMESIGNATURES:0.000000=4=4
;
#TICKCOUNTS:0.000000=4
;
#COMBOS:0.000000=1
;
#SPEEDS:0.000000=1.000000=0.000000=0
;
#SCROLLS:0.000000=1.000000
;
#XSCROLLS:0.000000=0.000000 ;
#FAKES:;
#LABELS:0.000000=Song Start
;
#BGCHANGES:;
#KEYSOUNDS:;
#ATTACKS:
;

//---------------dance-single - ----------------
#NOTEDATA:;
#CHARTNAME:;
#CHARTHASH:962530622;
#STEPSTYPE:dance-single;
#BANNER:;
#DESCRIPTION:;
#CHARTSTYLE:;
#DIFFICULTY:Easy;
#METER:3;
#METERF:3.000000;
#LASTSECONDHINT:111.363335;
#RADARVALUES:0.281529,0.364056,0.061039,0.122079,0.000000,226.000000,219.000000,7.000000,14.000000,0.000000,0.000000,0.000000,0.000000,0.000000,0.281529,0.364056,0.061039,0.122079,0.000000,226.000000,219.000000,7.000000,14.000000,0.000000,0.000000,0.000000,0.000000,0.000000;
#CREDIT:;
#NOTES:
0000
0000
0000
0000
,
1000
1000
1000
0000
,
0010
0010
0010
0000
,
0001
0001
0001
0000
,
0100
0100
0100
0000
,
1000
1000
1000
0000
,
0100
0100
0100
0000
,
0001
0001
0001
0000
,
0010
0010
0010
0010
,
1000
0000
0010
0000
,
0001
0100
1000
0000
,
0100
0000
0001
0000
,
0010
1000
0100
0000
,
0001
0000
0010
0000
,
1000
0010
0001
0000
,
0100
0000
0000
0000
1000
0000
0000
2000
,
0000
0000
0000
0000
,
0000
3000
0000
1000
0000
1000
0000
0000
,
0001
0000
0100
0000
,
0010
0000
0100
0000
,
1000
0000
0100
0000
,
0010
0000
1000
0000
,
0100
0000
0001
0000
,
0100
0000
0010
0000
,
0100
0010
0001
1000
,
0020
0000
0000
0030
,
0100
0100
1001
0000
,
0100
0100
1001
0000
,
0100
0100
1001
0100
,
0020
0000
0030
0000
,
1000
1000
0010
0000
,
0001
0001
0010
0000
,
1000
0001
1000
0010
,
0200
0000
0000
0300
,
0001
0001
0110
0000
,
1000
1000
0110
0000
,
0001
0001
1000
0001
,
0020
0000
0030
0000
,
0100
1000
0010
0000
,
1000
0010
1000
0000
,
0001
0100
0001
0100
,
0020
0000
0000
0030
,
1000
1000
0001
0001
,
0100
0100
0100
0000
,
0010
0010
0100
0100
,
0001
0001
0001
0000
,
0100
0100
0010
0000
,
0010
0010
1000
0000
,
0010
0000
1000
0000
0001
0000
0000
0002
,
0000
0000
0000
0000
,
0000
0003
0000
0001
0000
0001
0000
0000
,
1000
0000
1000
0000
0000
0000
0000
0100
,
0000
0100
0000
0000
0000
0000
0000
0000
,
0010
0000
0010
0000
0000
0000
0000
0001
,
0000
0001
0001
0000
,
1000
0000
1000
0000
0000
0000
0000
0010
,
0000
0010
0000
0000
0000
0000
0000
0000
,
0100
0000
0100
0000
0000
0000
0000
0001
,
0000
0001
0001
0001
,
0001
0000
0000
1000
0000
1000
0000
0000
,
0001
0100
0010
0000
,
1000
0100
0010
0000
,
0001
0100
0001
1000
,
0200
0000
0300
0000
,
1000
0001
1000
0000
,
0010
1000
0010
0000
,
0100
0001
1000
0001
,
0200
0000
0000
0300
,
0001
1000
0010
0000
,
1000
0001
0010
0000
,
0001
1000
0001
0010
,
0002
0000
0003
0000
,
0100
0001
0100
0000
,
0010
1000
0100
0000
,
0020
0030
0200
0300
,
2000
3000
0002
0003
,
0100
0100
0010
0000
,
0010
0100
0010
0000
,
1000
1000
0010
0000
,
1000
0010
1000
0000
,
0001
0000
0100
0010
,
0100
0000
0001
0000
,
0110
0000
1000
0000
,
0001
1000
0110
0000
;

//---------------dance-single - ----------------
#NOTEDATA:;
#CHARTNAME:;
#CHARTHASH:2076008559;
#STEPSTYPE:dance-single;
#BANNER:;
#DESCRIPTION:;
#CHARTSTYLE:;
#DIFFICULTY:Medium;
#METER:5;
#METERF:5.000000;
#LASTSECONDHINT:111.363335;
#RADARVALUES:0.453436,0.509679,0.592954,0.200558,0.000000,364.000000,296.000000,68.000000,23.000000,0.000000,0.000000,0.000000,0.000000,0.000000,0.453436,0.509679,0.592954,0.200558,0.000000,364.000000,296.000000,68.000000,23.000000,0.000000,0.000000,0.000000,0.000000,0.000000;
#CREDIT:;
#NOTES:
0000
0000
0000
0000
,
0100
0000
0101
0000
1001
0000
0000
1000
,
0000
0001
0000
0001
1000
0000
0110
0000
,
0000
0000
1000
0000
1100
0000
0000
0001
,
0000
1000
0000
1000
0001
0000
0110
0000
,
0000
0000
1001
0000
0110
0000
0000
0001
,
0000
0100
0000
0000
1000
0000
0010
0000
,
0000
0000
0011
0000
1010
0000
0000
1000
,
0000
1000
0100
0000
0010
0000
0100
0000
,
1001
0000
0001
0000
0010
0000
0000
1000
,
0000
0000
0010
0000
0001
0000
0000
0100
,
0000
1000
0100
0001
,
0010
0110
1001
0110
,
1000
0000
0100
0000
0010
0000
0000
0100
,
0000
0010
1001
0001
,
1000
0000
0010
0000
1000
0000
0000
0202
,
0000
0000
0000
0000
,
0000
0303
0000
1010
0000
0101
0000
0000
,
1000
1000
0001
0001
,
0100
0100
0100
0100
,
0001
0010
1000
0010
,
0100
0100
0100
0100
,
1000
1000
0010
0001
,
0100
0100
1000
0010
,
0001
0010
1000
0100
,
0002
0000
0000
0003
,
1100
0000
1100
0000
1001
0000
0000
0101
,
0000
0000
0101
0000
1001
0000
0000
1100
,
0000
0100
1000
0001
,
1002
0100
0100
0103
,
0001
0000
0100
0000
0101
0000
0000
1000
,
0000
1000
0100
0000
1100
0000
0000
1000
,
0001
0001
1000
0010
,
2000
0100
0100
3100
,
1001
0000
1100
0000
1100
0000
0000
1001
,
0000
0000
0101
0000
0101
0000
0000
1001
,
0000
0100
1000
0001
,
2000
0010
0010
3010
,
1001
0000
0001
0000
0010
0000
0001
1000
,
0000
1000
0001
0000
0100
0000
0001
1000
,
0000
1000
0001
0000
0001
0000
0010
0000
,
1001
0110
1001
0110
,
1000
0000
0100
0000
0010
0000
0100
1000
,
0000
1000
0000
0100
0010
0000
0001
0000
,
0100
0000
0010
0000
0100
0000
0000
0001
,
0000
0001
0100
0000
0010
0000
0110
0000
,
0100
0000
0010
0000
1000
0000
0010
1000
,
0000
0001
0000
0000
1000
0000
0100
0000
,
0010
0100
0000
1000
0000
1000
0000
0001
,
0000
0001
0000
0220
0000
0000
0000
0000
,
0000
0330
0000
1001
0000
0110
0000
0000
,
0001
0000
0002
0000
0000
0000
0000
0103
,
0000
0200
0000
0000
0000
0000
0300
0000
,
1000
0000
2000
0000
0000
0000
0000
0010
,
0000
0010
0010
3010
,
0001
0000
0002
0000
0000
0000
0000
0013
,
0000
0020
0000
0000
0000
0000
0030
0000
,
1000
0000
2000
0000
0000
3000
0000
2001
,
0000
0100
3002
0100
,
2000
3003
0010
0010
,
1001
0000
1010
0000
1001
0000
0000
1001
,
0000
0000
0011
0000
1001
0000
0000
1001
,
0000
0010
1000
0001
,
1002
0010
0010
0013
,
0100
0000
0010
0000
1001
0000
0000
0100
,
0000
0000
1000
0000
0010
0000
0010
1000
,
0000
1000
0010
0000
1000
0000
0001
0000
,
0100
0101
1010
0101
,
0010
0000
1001
0000
0101
0000
0000
0100
,
0000
0000
1001
0000
1100
0000
0000
0100
,
0000
1001
1000
0100
,
2010
0010
0010
3010
,
0101
0000
1000
0000
0001
0000
1000
0100
,
0000
0100
1000
0000
0001
0000
0100
0000
,
1001
0100
0010
0010
,
0202
0303
2020
3030
,
1000
0000
0010
0000
0100
0000
0010
1000
,
0000
1000
0000
0000
0100
0000
0010
0000
,
0001
0000
0010
0000
0100
0000
1000
0100
,
0000
0100
0000
0000
0010
0000
0100
0000
,
1000
0000
0001
0000
0010
0000
0001
1000
,
0000
0001
0000
1000
0100
0000
0010
0000
,
1001
0000
0001
0010
0001
0000
0100
0000
,
0001
0100
0010
0000
0101
0000
0000
0000
;

//---------------dance-single - ----------------
#NOTEDATA:;
#CHARTNAME:;
#CHARTHASH:943864351;
#STEPSTYPE:dance-single;
#BANNER:;
#DESCRIPTION:;
#CHARTSTYLE:;
#DIFFICULTY:Hard;
#METER:9;
#METERF:9.000000;
#LASTSECONDHINT:111.696663;
#RADARVALUES:0.685136,0.730293,0.435996,0.104639,0.030520,550.000000,500.000000,50.000000,12.000000,0.000000,0.000000,0.000000,0.000000,0.000000,0.685136,0.730293,0.435996,0.104639,0.030520,550.000000,500.000000,50.000000,12.000000,0.000000,0.000000,0.000000,0.000000,0.000000;
#CREDIT:AS-13;
#NOTES:
// measure 0
0000
0000
0000
0000
,  // measure 1
1001
0100
0010
0000
1000
0010
0100
0001
,  // measure 2
0000
0100
0010
1000
0010
0100
0001
0000
,  // measure 3
1000
0100
0010
0000
0100
1000
0100
0010
,  // measure 4
0000
0001
0010
0100
1000
0001
0100
0000
,  // measure 5
0001
0100
0010
0000
0001
0010
1000
0010
,  // measure 6
0000
0100
0001
0100
0010
0100
0001
0000
,  // measure 7
1000
0100
0001
0000
0100
1000
0001
0010
,  // measure 8
0000
1000
0010
0001
1000
0010
0001
0010
,  // measure 9
1000
0000
0001
0000
0100
0000
0000
0100
0010
0000
0000
0000
1000
0000
0010
0000
,  // measure 10
0100
0001
0100
0000
1010
0010
0100
0001
,  // measure 11
0000
0000
1000
0000
0100
0000
0000
1000
0100
0000
0010
0000
0001
0000
0100
0000
,  // measure 12
0000
0001
0010
0100
0000
0010
0001
0100
,  // measure 13
0010
0000
1000
0000
0001
0000
0000
0001
0010
0000
0000
0000
1000
0000
0010
0000
,  // measure 14
0000
0001
0010
0100
1000
0000
0100
0010
,  // measure 15
0001
0100
0010
1000
0010
0100
0001
0022
,  // measure 16
0000
0000
0000
0000
,  // measure 17
0000
0033
0000
0110
0000
0011
0000
0000
,  // measure 18
1000
0000
1000
0000
1000
0000
0010
0100
,  // measure 19
0001
0000
0001
0000
0001
0000
0001
0100
,  // measure 20
0010
0000
0010
0000
0100
0001
0100
0001
,  // measure 21
0010
0000
0010
0000
0010
0000
0010
0100
,  // measure 22
1000
0000
1000
0000
0001
0000
0001
1000
,  // measure 23
0010
0000
0010
0000
0010
0000
0010
1000
,  // measure 24
0001
0000
0100
0001
0100
0000
0100
0020
,  // measure 25
0000
0001
0100
1030
,  // measure 26
0001
0100
0010
1000
0100
0010
0001
0000
,  // measure 27
1000
0100
0010
0001
0100
0010
1000
0000
,  // measure 28
0100
0010
0001
0100
0010
1000
0001
0010
,  // measure 29
0100
0000
1001
1000
0010
0000
0101
0000
,  // measure 30
1000
0010
0100
0001
0100
0010
1000
0100
,  // measure 31
0000
0100
1000
0010
0100
0001
0010
0000
,  // measure 32
0001
0100
1000
0100
0001
1000
0010
1000
,  // measure 33
0100
0000
0011
0000
1100
0010
0001
0000
,  // measure 34
0110
1000
0100
0010
0001
0100
0010
0000
,  // measure 35
0100
0001
0010
0100
1000
0010
0100
0000
,  // measure 36
0010
1000
0001
0100
0010
0001
0010
1000
,  // measure 37
0001
0000
1001
1000
0100
1000
0010
0000
,  // measure 38
0101
1000
0100
0010
0001
1000
0100
0000
,  // measure 39
0001
0100
1000
0010
0001
0010
1000
0100
,  // measure 40
0000
0100
0010
0001
0100
0000
0100
0010
,  // measure 41
2001
0000
0010
0000
3100
1000
0100
0010
,  // measure 42
0001
0100
0001
0000
1000
0010
1000
0100
,  // measure 43
0000
1001
0000
0001
0010
0000
0101
0000
,  // measure 44
1000
0010
1000
0000
0100
0001
0100
1000
,  // measure 45
0000
1000
0010
1000
0010
0000
0010
0100
,  // measure 46
0001
0100
0010
0000
1000
0010
0100
0001
,  // measure 47
0000
0101
0000
0100
0010
1000
0100
0000
,  // measure 48
1000
0100
0000
0011
0000
0100
0010
0002
,  // measure 49
0000
0100
0000
2000
0000
0000
0000
0000
,  // measure 50
0000
3003
0000
0010
0000
0010
0000
0000
,  // measure 51
1001
0000
0101
0000
0100
0000
0100
1001
,  // measure 52
0000
1100
0100
0000
0100
0000
0100
0000
,  // measure 53
1001
0000
0101
0000
0100
0000
0100
1001
,  // measure 54
0000
0001
1100
0000
1001
0000
1100
0000
,  // measure 55
0011
0000
1100
0000
0001
0000
0001
0011
,  // measure 56
0000
0101
1000
0000
1000
0000
1000
0000
,  // measure 57
1010
0000
0101
0000
0010
0000
0010
1001
,  // measure 58
0000
0100
1010
0000
1001
0000
0110
0000
,  // measure 59
1001
0000
0011
0011
0000
2002
0000
3003
,  // measure 60
1000
0010
0100
0001
0100
0010
1000
0000
,  // measure 61
0100
0010
0001
0010
0100
1000
0010
0000
,  // measure 62
1000
0001
0100
0010
1000
0000
0010
1000
,  // measure 63
0100
0000
1001
0000
0010
0001
0101
0000
,  // measure 64
0010
0100
0001
0100
0010
1000
0001
0010
,  // measure 65
0000
1000
0010
0001
0100
0000
0001
0010
,  // measure 66
0001
1000
0100
1000
0010
1000
0001
0010
,  // measure 67
0100
1000
0100
0001
0100
0010
0001
1000
,  // measure 68
0010
0000
1001
0000
0100
0001
0100
0010
,  // measure 69
0000
0010
0100
0001
0010
0000
0010
0001
,  // measure 70
0100
1000
0100
0001
1000
0010
0100
0010
,  // measure 71
1000
0001
0000
0100
0001
0010
0100
0000
,  // measure 72
1000
0100
0010
0100
0001
1000
0010
0001
,  // measure 73
0000
0010
1000
0010
0001
0000
0100
0010
,  // measure 74
1001
0000
0000
0001
1000
0000
0001
0000
0100
0000
0000
0001
0100
0000
0010
0000
,  // measure 75
1000
0000
0020
0000
1030
0000
0002
0000
0103
0000
0010
0000
1000
0001
1000
0001
,  // measure 76
0100
0001
0100
0000
0010
0100
0001
0010
,  // measure 77
0000
0001
0000
0010
1000
0010
0001
0000
,  // measure 78
1000
0010
1000
0100
1000
0000
0010
0100
,  // measure 79
0000
0001
0100
0010
1000
0010
0100
0001
,  // measure 80
1000
0100
0010
0000
0001
0010
0100
1000
,  // measure 81
0000
1010
0000
0001
0010
0001
0100
0010
,  // measure 82
1001
1001
1000
0000
1000
0000
1000
0000
,  // measure 83
0100
1000
1001
0000
0202
0000
0303
0000
;
