#VERSION:0.83;
#TITLE:All in the Golden Afternoon;
#SUBTITLE:(AS-13 Dubstep Remix);
#ARTIST:AS-13;
#TITLETRANSLIT:;
#SUBTITLETRANSLIT:;
#ARTISTTRANSLIT:;
#GENRE:;
#ORIGIN:;
#TAGS:;
#CREDIT:;
#BANNER:goldenafternoon-bn.png;
#BACKGROUND:goldenafternoon-bg.png;
#PREVIEWVID:;
#JACKET:;
#CDIMAGE:;
#DISCIMAGE:;
#LYRICSPATH:;
#CDTITLE:;
#MUSIC:All in the Golden Afternoon (AS-13 Dubstep Remix).mp3;
#OFFSET:-0.040000;
#SAMPLESTART:42.219997;
#SAMPLELENGTH:12.000000;
#SELECTABLE:YES;
#BPMS:0.000000=67.500000,
30.000000=135.000000,
127.000000=67.500000,
147.000000=135.000000,
211.000000=67.500000;
#STOPS:30.000000=1.340000;
#DELAYS:;
#WARPS:;
#TIMESIGNATURES:0.000000=4=4;
#TICKCOUNTS:0.000000=4;
#COMBOS:0.000000=1;
#SPEEDS:0.000000=1.000000=0.000000=0;
#SCROLLS:0.000000=1.000000;
#FAKES:;
#LABELS:0.000000=Song Start;
#BGCHANGES:16.000=AllInTheGoldenAfternoon.mp4=1.000=1=0=1===CrossFade==,
99999=-nosongbg-=1.000=0=0=0 // don't automatically add -songbackground-
;
#KEYSOUNDS:;
#ATTACKS:
;

//---------------dance-single - ----------------
#NOTEDATA:;
#CHARTNAME:;
#STEPSTYPE:dance-single;
#BANNER:;
#DESCRIPTION:;
#CHARTSTYLE:;
#DIFFICULTY:Easy;
#METER:3;
#METERF:0.000000;
#RADARVALUES:0.161696,0.232934,0.067463,0.082454,0.000000,151.000000,142.000000,9.000000,11.000000,0.000000,0.000000,0.000000,0.000000,0.000000,0.161696,0.232934,0.067463,0.082454,0.000000,151.000000,142.000000,9.000000,11.000000,0.000000,0.000000,0.000000,0.000000,0.000000;
#CREDIT:;
#NOTES:
0000
0000
0000
0000
,
0000
0000
0000
0000
,
0000
0000
0000
0000
,
0000
0000
0000
0000
,
0001
0001
0100
0100
,
0010
0010
1000
1000
,
0010
0010
0100
0100
,
0002
2003
3001
0000
,
0000
0100
0000
0010
,
0000
0010
0000
1001
,
0000
0100
0000
0010
,
0000
0010
0000
0001
,
0000
1001
0000
1000
,
0000
1001
0000
0001
,
0000
1000
0000
2002
,
0000
0000
3003
0010
,
0010
1000
0000
0010
,
0000
0100
0000
0001
,
0000
0100
0100
0200
,
0300
0200
0300
0010
,
0000
0010
0000
0100
,
0010
0100
0000
0001
,
0000
0100
0000
0020
,
0000
0000
0030
0001
,
0001
0100
0100
0001
,
0000
0100
0000
0010
,
0010
1000
1000
0010
,
0000
1000
0000
0100
,
0100
0010
0000
0010
,
0010
0100
0000
1000
,
0000
0100
0000
0010
,
0000
1001
0000
0010
,
0000
0100
0000
0001
,
1000
0100
0010
0001
,
0000
1000
0000
0010
,
0100
0001
1000
0010
,
0100
0020
0030
1000
,
0000
1000
1000
1000
,
0000
1000
1000
0001
,
0000
0001
0001
0001
,
0000
0001
0001
0010
,
0000
0010
0010
0010
,
0000
0010
0010
0100
,
0100
0100
0100
0200
,
0000
0000
0300
0010
,
0010
0100
0100
1000
,
1000
0001
0001
1000
,
0000
0100
0000
0010
,
0100
0010
0000
0001
,
0001
0010
0000
1000
,
1000
0010
0000
0001
,
0000
1000
0000
0110
,
0110
1001
1001
0100
,
0000
0010
0000
0001
,
1000
0020
0030
1000
,
0000
0100
0000
0010
,
0001
0200
0300
0000
;

//---------------dance-single - ----------------
#NOTEDATA:;
#CHARTNAME:;
#STEPSTYPE:dance-single;
#BANNER:;
#DESCRIPTION:;
#CHARTSTYLE:;
#DIFFICULTY:Medium;
#METER:6;
#METERF:0.000000;
#RADARVALUES:0.280559,0.338813,0.172405,0.164909,0.033731,262.000000,239.000000,23.000000,22.000000,0.000000,0.000000,0.000000,0.000000,0.000000,0.280559,0.338813,0.172405,0.164909,0.033731,262.000000,239.000000,23.000000,22.000000,0.000000,0.000000,0.000000,0.000000,0.000000;
#CREDIT:;
#NOTES:
0000
0000
0000
0000
,
0000
0000
0000
0000
,
0000
0000
0000
0000
,
0000
0000
0000
0000
,
0001
0100
1000
0100
,
0010
0100
0010
0000
1000
0000
0010
0000
,
0100
0100
0010
0010
,
2000
3002
0103
1001
,
0000
0000
0010
0100
0010
0000
2000
0000
,
3200
0000
1300
0001
1000
0001
0100
0000
,
0110
0010
0110
1001
,
0000
0110
0000
0000
1001
0000
1000
1000
,
1000
0000
0001
0001
0001
0000
0100
0010
,
0100
0000
0010
0100
0010
0000
1000
0001
,
1000
0001
0100
0010
0100
0010
2002
0000
,
0000
0000
0000
0000
0000
0000
0000
0000
3003
0000
0000
0000
0001
0000
0000
0001
,
0000
0000
0100
0000
0020
0000
0000
0000
0030
0000
0000
0000
1000
0000
0000
1000
,
0000
0000
0100
0000
0020
0000
0000
0000
0030
0000
0000
0000
0001
0000
0000
0001
,
0000
0000
0010
0000
0200
0000
0000
0000
0300
0000
0000
0000
1000
0000
0000
1000
,
0000
0000
0010
0000
0200
0000
0000
0000
0300
0000
0000
0000
0001
0000
0000
0100
,
0000
0000
0001
0000
0200
0000
0000
0000
0300
0000
0000
0000
1000
0000
0000
0010
,
0000
0000
1000
0000
0020
0000
0000
0000
0030
0000
0000
0000
0001
0000
0000
0010
,
0000
0000
0001
0000
0020
0000
0000
0000
0030
0000
0000
0000
1000
0000
0000
0100
,
0000
0000
1000
0000
0200
0000
0000
0000
0300
0000
0000
0000
0110
0000
0000
0110
,
0000
0001
1000
0000
0010
0100
0010
0100
,
0001
0101
0100
0010
,
1000
0001
1000
0000
0010
0000
1001
0000
,
0100
0001
1000
0000
0100
0000
1001
0000
,
0010
0100
0000
0010
0100
0000
1000
0100
,
0010
0000
0110
0000
0100
0000
1000
0100
,
1000
1010
0010
0100
,
0100
0010
0010
1000
,
0100
0000
0010
0000
0100
0000
1000
1000
,
0001
0001
1000
0000
0010
0000
0001
0000
,
0010
0000
1000
0100
0010
0000
0001
0100
,
0001
0100
0010
1000
0010
1000
0200
0000
,
0320
0200
0330
1000
,
1000
1000
1000
0001
,
0001
0001
0001
0100
,
0100
0100
0100
0010
,
0010
0010
0010
1000
,
0100
0010
0001
1000
,
0010
0000
0100
0000
0001
0000
1000
1000
,
1000
1000
0001
0001
0001
0001
2002
0000
,
0000
0000
3003
1010
,
0101
0000
0100
0000
0010
0000
1000
0001
,
1000
0010
1001
0001
,
0010
0100
1000
1100
,
1100
0010
0100
1001
,
0001
0000
0100
0010
0100
0000
0001
0000
,
0010
0100
1000
0010
,
0010
0000
0100
0000
0100
0000
0010
0100
,
0010
0000
0100
0010
0100
0000
1001
0000
,
0001
0000
0100
0001
0010
0000
0100
0000
,
0010
2002
3003
0100
,
0001
0000
1000
0001
0100
0000
0010
1000
,
0001
0100
0020
0000
0030
0000
0000
0000
;

//---------------dance-single - Blank----------------
#NOTEDATA:;
#CHARTNAME:Blank;
#STEPSTYPE:dance-single;
#BANNER:;
#DESCRIPTION:Blank;
#CHARTSTYLE:;
#DIFFICULTY:Hard;
#METER:9;
#METERF:0.000000;
#RADARVALUES:0.486160,0.695709,0.217380,0.112438,0.281095,454.000000,425.000000,29.000000,15.000000,0.000000,0.000000,0.000000,0.000000,0.000000,0.486160,0.695709,0.217380,0.112438,0.281095,454.000000,425.000000,29.000000,15.000000,0.000000,0.000000,0.000000,0.000000,0.000000;
#CREDIT:Blank;
#NOTES:
// measure 0
0000
0000
0000
0000
,  // measure 1
0000
0000
0000
0000
,  // measure 2
0000
0000
0000
0000
,  // measure 3
0000
0000
0000
0000
,  // measure 4
1000
1000
0001
0001
1000
1000
0001
0001
,  // measure 5
1000
0100
0001
0100
0020
0000
0000
0031
,  // measure 6
1000
0001
0100
0100
0001
1000
0100
0100
,  // measure 7
0020
0230
0310
0202
,  // measure 8
0303
0000
0000
0000
1000
0000
0100
0000
1000
0010
0000
1000
0002
0000
0000
0000
,  // measure 9
0023
0000
0000
0000
0130
1000
0100
1000
0001
1000
0001
1000
0010
0000
1000
0000
,  // measure 10
0100
0000
0000
0000
0110
0000
0000
0000
1001
0000
0100
0010
1000
0000
0100
0000
,  // measure 11
1000
0100
0110
0000
1001
0000
0010
1000
,  // measure 12
0010
1000
0001
1000
0001
1000
0001
0010
,  // measure 13
0001
0000
0010
0000
0001
0000
1000
0000
0001
0000
1000
0000
0010
0100
0010
0100
,  // measure 14
0010
0000
0100
0000
0001
0100
0001
0100
0001
0000
0100
0000
2002
0000
0000
0000
,  // measure 15
0000
0000
0000
0000
3003
0000
0000
0000
0100
0000
0010
0000
0101
0000
0000
1000
,  // measure 16
0001
0000
0010
0000
0100
0000
0000
0000
1100
0000
1000
0000
0010
0000
0000
0101
,  // measure 17
0000
0000
0010
0100
0001
0000
0100
0000
0010
0000
1000
0000
1001
0000
0000
0010
,  // measure 18
0001
0000
1000
0000
0100
0000
0000
0000
0110
0000
0000
0001
1000
0000
0100
1000
,  // measure 19
0000
0100
1000
0000
0010
0000
0000
0000
0110
0000
1001
0000
0010
0000
0001
0010
,  // measure 20
0001
0000
1000
0000
0100
0000
0000
1000
0010
0000
0100
0000
0101
0000
0000
1010
,  // measure 21
0000
0000
0100
0010
1000
0000
0010
0000
0100
0000
0001
0000
0010
0000
0100
0000
,  // measure 22
1001
0000
0000
0000
1010
0000
0000
1010
0000
0000
0100
0001
1000
0000
0000
0001
,  // measure 23
0000
0000
1000
0000
0010
0000
0000
0000
1000
0100
0010
0100
1000
0000
0010
0000
,  // measure 24
0100
0000
0001
0000
0100
0000
0010
0000
1000
0010
1000
0000
1010
0000
0000
1001
,  // measure 25
0000
0000
0001
0000
0100
0000
0010
0000
1000
0000
0100
0000
1100
0000
0000
0010
,  // measure 26
0100
0000
0010
0000
0001
0000
0000
0101
0000
0000
1001
0000
1000
0000
0000
0100
,  // measure 27
0000
0000
0001
0000
0100
0000
1000
0000
0010
0100
0010
0100
0010
0000
0000
1000
,  // measure 28
0001
0000
0100
0000
0001
0000
1000
0000
0100
0000
0010
0000
0011
0000
0000
0011
,  // measure 29
0000
0000
0001
0000
0100
0000
0010
0000
1000
0000
0000
0000
1100
0000
0000
0100
,  // measure 30
0010
0000
0100
0000
1000
0000
0000
0010
0000
0000
0100
0000
0110
0000
0001
0000
,  // measure 31
1000
0000
0001
0000
0010
0000
0100
0010
0100
0010
0100
0010
1000
0000
1000
0000
,  // measure 32
0001
0001
0100
0010
1001
0000
0200
0000
,  // measure 33
0320
0000
1030
0001
0200
0000
0301
0100
,  // measure 34
0010
0100
0010
1000
0002
0000
2003
0000
,  // measure 35
0100
3002
0010
1003
,  // measure 36
0001
0000
0100
0000
0000
0000
0010
1000
,  // measure 37
0010
1000
0010
1000
0010
1000
0001
0010
,  // measure 38
0001
0010
0001
0010
0001
0010
0100
1000
,  // measure 39
0100
1000
0100
1000
0100
1000
0001
0100
,  // measure 40
0001
0100
0001
0100
0001
0100
0010
1000
,  // measure 41
0100
1000
0010
1000
0100
1000
0001
0010
,  // measure 42
0001
0100
0001
0010
0001
0100
0010
0010
,  // measure 43
0100
0000
0100
0000
0001
0000
0001
0000
1000
0000
1000
0000
0010
0100
0000
0010
,  // measure 44
0100
0000
0010
0100
0000
0010
0100
0000
0001
1000
0001
1000
0010
0000
0100
0000
,  // measure 45
0001
0000
0100
0000
0010
0000
1000
0010
0100
0000
0001
0000
0100
0000
0010
0000
,  // measure 46
1000
0000
0010
0000
0100
0000
0001
1000
0010
0000
0100
0000
0001
0000
0010
0000
,  // measure 47
0100
0000
1000
0000
0100
0000
0010
0001
1000
0000
0100
0000
1000
0000
0001
0000
,  // measure 48
0010
0000
0001
0000
1000
0000
0100
0010
0001
0000
0010
0000
0100
0000
1000
0000
,  // measure 49
0001
0000
0100
0000
0010
0000
1000
0010
0100
0000
0010
0000
1000
0000
0001
0000
,  // measure 50
1000
0000
0010
0000
0100
0000
0001
0100
0010
0000
0100
0000
0001
0000
0100
0000
,  // measure 51
0010
0100
0010
0000
1000
0000
0100
0000
0010
0100
0010
0000
0100
0000
0100
0000
,  // measure 52
0010
0000
0010
0000
0001
1000
0000
0001
1000
0001
1000
0001
0100
0010
0100
0010
,  // measure 53
0100
0010
0100
0010
1000
0010
1000
0010
1000
0010
1000
0010
0100
0001
0100
0001
,  // measure 54
0100
0001
0100
0001
1000
0100
1000
0100
1000
0100
1000
0100
0010
0000
0001
0000
,  // measure 55
0100
0010
1000
0100
0010
0001
0100
0100
,  // measure 56
0010
0010
1001
0000
0000
0000
0000
0000
;
