#TITLE:Akihabara Speed;
#SUBTITLE:;
#ARTIST:AS-13 with IA;
#TITLETRANSLIT:;
#SUBTITLETRANSLIT:;
#ARTISTTRANSLIT:;
#GENRE:;
#CREDIT:;
#BANNER:AkihabaraSpeed-bn.png;
#BACKGROUND:AkihabaraSpeed-bg.png;
#LYRICSPATH:;
#CDTITLE:;
#MUSIC:Akihabara Speed.ogg;
#OFFSET:0.000000;
#SAMPLESTART:31.489990;
#SAMPLELENGTH:10.740000;
#SELECTABLE:YES;
#BPMS:0.000000=180.000000
;
#STOPS:
;
#BGCHANGES:;
#KEYSOUNDS:;
#ATTACKS:;

//---------------dance-single - ----------------
#NOTES:
     dance-single:
     :
     Easy:
     5:
     0.322041,0.414920,0.217806,0.511843,0.000000,207.000000,187.000000,20.000000,47.000000,0.000000,0.000000,0.000000,0.000000,0.000000,0.322041,0.414920,0.217806,0.511843,0.000000,207.000000,187.000000,20.000000,47.000000,0.000000,0.000000,0.000000,0.000000,0.000000:
0000
0000
0000
0000
,
0000
0000
0000
0000
,
0000
0000
0000
0000
,
0000
0000
0000
0000
,
0100
0100
0100
0000
,
0010
1000
0001
0100
,
0010
0010
0010
0000
,
2002
0000
0000
3003
,
0010
0100
0001
1000
,
0010
0000
0000
0010
0000
0100
0000
0000
,
1000
0000
0100
0000
0001
0000
0000
1000
,
0000
0100
0000
0001
0000
0000
0100
0000
,
1000
0010
0001
0010
,
1000
0000
0000
0010
0000
0100
0000
0000
,
0001
0000
0010
0000
1000
0000
0000
0010
,
0000
0001
0000
1000
0000
0000
0001
0000
,
0101
0000
1001
0000
0101
0000
0000
0010
,
0000
1000
0000
0000
1000
0000
0100
0000
,
1001
0000
1001
0000
1100
0000
0000
1100
,
0000
0100
0010
0001
,
1000
0000
1001
0000
0100
0000
0000
1001
,
0000
0010
1000
0001
,
1000
0100
0010
0001
,
0220
0000
0000
0330
,
1000
0100
1000
0100
,
1000
0001
0000
0001
0000
0000
0100
0000
,
0001
0100
0010
0000
,
0000
0000
0000
1000
,
0010
0100
0001
0100
,
0010
1000
0000
1000
0000
0000
0010
0000
,
0100
0010
1001
0000
,
0000
0000
0000
0000
0000
0000
0000
1000
,
0001
0100
1000
0100
,
0001
1000
0000
0001
0000
0000
0000
0000
,
1000
0010
0001
0010
,
1000
0001
0000
1000
0000
0000
0010
0000
,
0100
0010
0101
0000
,
0000
0000
0000
0000
0000
0000
0000
0001
,
1000
0100
0010
0001
,
0010
0100
0000
0010
0000
0000
0000
0000
,
0001
0010
0100
1000
,
0100
0010
0000
0100
0000
0000
1000
0000
,
0100
1000
1010
0000
,
0000
0000
0000
0001
,
0100
0001
0011
0000
,
2000
0000
3002
0203
,
0000
0302
2003
3200
,
0000
2300
3002
0023
,
0000
0032
2003
3020
,
2030
0000
3002
0203
,
0000
0320
2030
3200
,
0000
2300
3200
0320
,
0032
0023
0230
1300
,
1100
0002
0203
0302
,
2003
3020
0230
0320
,
2030
3000
0200
0300
,
0000
0000
0000
0100
2000
0000
3002
0000
,
0203
0300
0002
0203
,
0300
0020
2030
3002
,
0023
0000
0230
0000
,
0310
0011
0101
1010
,
1000
0001
0100
0000
,
0000
0000
0000
1010
,
0010
1000
0100
0000
;

//---------------dance-single - ----------------
#NOTES:
     dance-single:
     :
     Medium:
     8:
     0.561627,0.587803,0.511843,0.261367,0.010890,361.000000,314.000000,47.000000,24.000000,0.000000,0.000000,0.000000,0.000000,0.000000,0.561627,0.587803,0.511843,0.261367,0.010890,361.000000,314.000000,47.000000,24.000000,0.000000,0.000000,0.000000,0.000000,0.000000:
0000
0000
0000
0000
,
0000
0000
0000
0000
,
0000
0000
0000
0000
,
0000
0000
0000
0000
,
1100
1001
1100
0000
,
0000
0000
0000
0000
,
0011
0101
1001
0000
,
0100
1000
0100
1000
0100
1000
0100
0010
,
0001
0000
0011
0010
0100
0000
1000
0100
,
1000
0100
0010
0001
0000
0001
0100
0010
,
1000
0000
1010
0000
0100
0010
1000
0100
,
0000
1001
0000
0101
0010
0100
0001
0100
,
0010
0000
1001
0000
0100
0010
1000
0010
,
0100
0001
0000
0011
0000
0010
0001
0100
,
0010
0000
0101
0100
0010
0000
1001
1000
,
0000
0011
0000
0001
1000
0010
0100
0001
,
0010
0000
1000
0010
0001
0010
0000
0110
,
0000
0100
0001
0100
1000
0100
0010
0000
,
1001
0000
1010
0000
0010
0100
0001
0100
,
0000
1000
0100
0001
1000
0010
0100
0010
,
1000
0000
0110
0000
0001
0100
0000
1001
,
0000
1000
0001
0000
0001
0100
0010
1000
,
0001
0010
0001
0010
0000
0001
0100
0001
,
1000
0010
0100
0010
0100
0001
1000
0010
,
0100
0000
1001
0000
0101
0000
0010
1000
,
0001
0010
0000
1001
0000
1000
0010
1000
,
0001
0000
1001
0000
1100
0000
0100
1000
,
0100
1000
0001
1000
0001
0100
0001
1000
,
0100
0000
1001
0000
0101
0000
0100
0001
,
0100
0010
1000
0001
0000
0001
1000
0010
,
1000
0000
0011
0000
0101
0000
0100
0001
,
1000
0001
0100
0001
0100
0010
0100
0010
,
1000
0000
0001
0000
0010
0000
0001
0010
,
0001
1000
0100
0010
0000
0000
0000
1001
,
0001
0000
0011
0010
0001
0000
1000
0001
,
0100
0010
0000
1001
0000
0010
0100
0001
,
1000
0101
1100
0000
,
1000
0100
0000
0001
0000
0100
0000
1000
,
1001
0000
0001
0100
0001
0000
0001
0010
,
0001
1000
0010
0100
0000
0000
0000
0100
,
0010
0000
0101
0000
1000
0010
1000
0010
,
1000
0100
0000
0011
0000
0010
0001
0100
,
0101
0110
1001
0000
,
0000
0000
0000
0000
0000
1000
0001
0010
,
0011
1100
1001
0000
,
0020
0000
0000
1030
0002
0000
0203
0000
,
0300
0020
0000
1030
0001
1000
0200
0000
,
0300
1000
0100
0010
0002
0000
0203
0000
,
0300
0010
0100
0001
0100
0010
2000
0000
,
3020
0000
0030
1000
0001
1000
0200
0000
,
0300
1000
0100
1000
0001
1000
0200
0000
,
0300
1000
0002
0000
0023
0000
0230
0000
,
1300
0100
1000
0000
0010
0100
0020
0000
,
0030
0000
0000
0000
1000
0000
0000
0010
1000
0000
0000
0000
0010
0000
0000
0000
,
0100
0000
0000
0001
0100
0000
0001
0000
2000
0000
0000
0000
3001
0000
1000
0000
,
0200
0000
0300
0010
0200
0000
0300
0000
,
0000
0000
0000
0100
2000
0000
3020
0000
,
0230
0000
0300
0010
1000
0010
2000
0000
,
3000
0010
0001
0010
0001
0000
0010
1000
,
0200
0000
0300
0001
0200
0000
0300
1000
,
0100
1000
0100
0010
0001
0100
0010
1000
,
0001
0011
1100
0000
,
0000
0000
0000
0000
0000
0000
0001
0100
,
0010
1001
0101
0000
;

//---------------dance-single - ----------------
#NOTES:
     dance-single:
     :
     Hard:
     10:
     0.818327,0.955622,0.533624,0.228696,0.495508,526.000000,477.000000,49.000000,21.000000,3.000000,0.000000,0.000000,0.000000,0.000000,0.818327,0.955622,0.533624,0.228696,0.495508,526.000000,477.000000,49.000000,21.000000,3.000000,0.000000,0.000000,0.000000,0.000000:
// measure 0
0000
0000
0000
0000
,  // measure 1
0000
0000
0000
0000
,  // measure 2
0000
0000
0000
0000
,  // measure 3
0000
0000
0000
0000
,  // measure 4
0101
0000
1001
0000
0101
0010
0100
0010
,  // measure 5
1000
0010
0100
0001
0100
0010
1000
0001
,  // measure 6
1100
0011
1001
0000
,  // measure 7
0100
1000
0100
1000
0001
0010
0001
0010
0100
1000
0001
0010
0001
1000
0100
1000
,  // measure 8
0001
0000
0000
0001
0100
0000
0001
0000
1000
0000
0010
0100
0010
0100
0001
0000
,  // measure 9
0100
0000
0010
0000
0000
0000
1001
0000
0100
0001
0100
0000
0010
1000
0001
0000
,  // measure 10
0100
0000
0001
0100
0010
0000
0100
0000
0001
0000
1000
0100
0010
0100
0010
0000
,  // measure 11
0001
0010
0001
0000
1000
0100
0010
0000
0100
0000
1000
0000
0100
0010
0001
1000
,  // measure 12
0001
0000
0000
1000
0100
0000
1000
0000
0001
0000
0100
0001
0100
0000
0010
0000
,  // measure 13
1001
0000
1000
0000
0000
0010
1000
0000
0001
1000
0001
0000
0100
0000
0001
1000
,  // measure 14
0100
0000
1000
0100
1000
0000
0001
0000
0100
0000
0010
1000
0010
0100
0001
0000
,  // measure 15
0100
0010
0100
0000
0001
0000
0100
0000
0010
1000
0001
0010
0001
1000
0001
0010
,  // measure 16
0100
0000
1000
0100
1000
0000
0100
0000
0010
0000
1001
0000
0000
0000
0100
0000
,  // measure 17
1000
0100
0010
0000
0001
0000
0010
0000
0100
0010
0001
0000
1000
0000
0001
1000
,  // measure 18
0010
0000
1000
0000
0100
0000
0000
0100
1000
0000
0010
0000
1000
0100
1000
0000
,  // measure 19
0001
0010
0100
0000
0010
0000
0100
0010
0001
1000
0001
0100
0010
1000
0001
0100
,  // measure 20
0010
0000
0000
0010
0100
0000
0010
0000
1000
0000
1010
0000
0000
0000
1001
0000
,  // measure 21
0001
0100
0001
0000
0010
0000
0001
0010
0001
0000
0100
0000
0010
0000
1001
0000
,  // measure 22
0100
0001
0100
0000
1000
0000
0100
0000
0001
0100
0010
0000
0001
0000
0010
0000
,  // measure 23
1000
0010
1000
0010
1000
0001
1000
0001
0100
0001
1000
0100
0010
0001
0100
0010
,  // measure 24
1000
0000
1100
0000
0101
0000
0001
0100
,  // measure 25
1000
0100
0000
1001
0000
0001
0010
0001
,  // measure 26
1000
0000
1001
0000
1100
0000
1000
0100
,  // measure 27
1000
0001
1000
0010
1000
0001
0100
0010
,  // measure 28
1000
0000
1010
0000
1001
0000
0001
0010
,  // measure 29
0001
1000
0000
0011
0000
0010
0001
0100
,  // measure 30
0001
0000
1010
0000
1100
0000
0010
0001
,  // measure 31
0100
0001
1000
0100
0010
0001
1000
0100
,  // measure 32
1001
0000
0110
0000
1001
0100
1000
0100
,  // measure 33
0010
1001
0000
1010
0000
0010
1000
0001
,  // measure 34
1001
0000
0001
0010
0001
0100
0010
0001
,  // measure 35
0010
1010
0000
1001
0000
0100
0001
0100
,  // measure 36
0010
1000
1100
0000
0011
0000
0001
0010
,  // measure 37
0100
0001
0100
1000
0001
0010
1000
0010
,  // measure 38
0011
0000
0101
0000
1000
0010
1000
0001
,  // measure 39
0100
1010
0000
0101
0001
0100
0010
1000
,  // measure 40
1001
0000
0011
0000
0010
0100
0001
0100
,  // measure 41
1000
0010
0100
0010
0000
1001
1000
0010
,  // measure 42
0101
0000
0010
1000
0100
0000
1001
0100
,  // measure 43
0001
1000
0001
0100
0010
1000
0100
0010
,  // measure 44
0011
1001
1010
0000
,  // measure 45
M2MM
0000
0000
0000
0000
0000
0301
0010
0002
0000
0000
0000
0203
0000
0000
0000
,  // measure 46
0300
0000
0020
0000
0000
0000
1030
0010
1000
0000
0100
0000
0020
0000
0000
0000
,  // measure 47
0030
0000
0100
0000
1000
0000
0001
0010
0002
0000
0000
0000
0203
0000
0000
0000
,  // measure 48
0300
0000
0010
0000
0100
0000
0100
0001
0100
0000
0010
0000
1000
0100
1000
0001
,  // measure 49
0020
0000
0000
0000
0000
0000
0031
0010
0001
0000
1000
0000
0200
0000
0000
0000
,  // measure 50
0300
0000
0010
0000
0100
0000
1000
0000
0001
0010
0001
1000
0200
0000
0000
0000
,  // measure 51
0300
0000
1000
0000
0100
0000
1000
0010
2000
0000
0000
0000
3010
0000
0000
0010
,  // measure 52
1000
0000
1000
0010
0100
0000
0010
0000
0010
1000
0001
0100
0010
0000
0000
0000
,  // measure 53
1001
0000
0000
0000
1000
0000
0000
0010
0200
0000
0000
0000
0302
0000
0000
0000
,  // measure 54
1003
0000
0000
0001
0100
0000
0001
0000
1000
0010
1000
0001
1000
0000
0010
0000
,  // measure 55
0200
0000
0300
1000
0200
0000
0300
0000
,  // measure 56
0000
0000
0000
0001
2000
0000
3020
0000
,  // measure 57
2030
0000
0000
0000
3000
0000
0010
0000
1000
0001
0010
0001
2000
0000
0000
0000
,  // measure 58
3000
0000
0001
0000
0010
0001
0010
0001
1000
0000
0000
0001
0100
0000
0001
1000
,  // measure 59
0200
0000
0000
0000
0300
0000
0001
0000
0200
0000
0000
0000
0300
0000
0100
1000
,  // measure 60
0001
0100
0001
1000
0100
0010
0001
1000
0010
0100
0010
1000
0001
0010
0100
1000
,  // measure 61
0010
0000
1001
0000
0101
0000
0100
0001
,  // measure 62
0010
0100
0010
0001
0100
0010
1000
0001
,  // measure 63
0100
0000
1010
0000
1100
0000
0100
1000
,  // measure 64
0001
0010
1000
0010
0001
1000
0001
0010
,  // measure 65
0100
0000
0000
0000
;
