#VERSION:0.83;
#TITLE:Akihabara Ondo;
#SUBTITLE:;
#ARTIST:AS-13;
#TITLETRANSLIT:;
#SUBTITLETRANSLIT:;
#ARTISTTRANSLIT:;
#GENRE:;
#ORIGIN:;
#TAGS:;
#CREDIT:;
#BANNER:AkihabaraOndo-bn.png;
#BACKGROUND:AkihabaraOndo-bg.png;
#PREVIEWVID:;
#JACKET:;
#CDIMAGE:;
#DISCIMAGE:;
#LYRICSPATH:;
#CDTITLE:;
#MUSIC:Akihabara Ondo.ogg;
#OFFSET:-0.100000;
#SAMPLESTART:32.960011;
#SAMPLELENGTH:12.000000;
#SELECTABLE:YES;
#BPMS:0.000000=115.000000
;
#STOPS:;
#DELAYS:;
#WARPS:;
#TIMESIGNATURES:0.000000=4=4
;
#TICKCOUNTS:0.000000=4
;
#COMBOS:0.000000=1
;
#SPEEDS:0.000000=1.000000=0.000000=0
;
#SCROLLS:0.000000=1.000000
;
#XSCROLLS:0.000000=0.000000 ;
#FAKES:;
#LABELS:0.000000=Song Start
;
#BGCHANGES:;
#KEYSOUNDS:;
#ATTACKS:
;

//---------------dance-single - ----------------
#NOTEDATA:;
#CHARTNAME:;
#CHARTHASH:1267319305;
#STEPSTYPE:dance-single;
#BANNER:;
#DESCRIPTION:;
#CHARTSTYLE:;
#DIFFICULTY:Easy;
#METER:3;
#METERF:3.000000;
#LASTSECONDHINT:101.859138;
#RADARVALUES:0.232825,0.269327,0.303856,0.027623,0.059850,177.000000,144.000000,33.000000,3.000000,0.000000,0.000000,0.000000,0.000000,0.000000,0.232825,0.269327,0.303856,0.027623,0.059850,177.000000,144.000000,33.000000,3.000000,0.000000,0.000000,0.000000,0.000000,0.000000;
#CREDIT:;
#NOTES:
1000
0001
1001
0000
,
0110
0000
0000
0000
0000
1001
0000
0000
0000
0000
0000
0000
,
0010
0000
0000
0100
0000
0000
0110
0000
0000
0000
0000
0110
,
0000
0000
0000
0000
0000
1001
0000
0000
0000
0000
0000
0000
,
0001
1000
1001
0000
,
1001
0000
0000
0000
0000
0110
0000
0000
0000
0000
0000
0000
,
0100
0000
0000
0010
0000
0000
0110
0000
0000
0000
0000
1001
,
0000
0000
0000
0000
0000
0110
0000
0000
0000
0000
0000
0000
,
1000
0001
0100
0000
,
0010
0100
0010
0000
,
1000
0100
1000
0000
,
0001
1000
0100
1000
,
0001
0000
0100
0000
,
0100
0001
0010
0000
,
1001
0000
1001
0000
,
0100
0010
0001
1000
,
0100
0100
1000
0001
,
1000
0100
0010
0000
,
0001
0010
0001
0000
,
0100
0000
0100
0001
,
0100
0010
1000
0000
,
0010
1000
0001
0001
,
1000
0010
0100
0000
,
0010
0000
0100
0010
,
1000
0001
1001
0000
,
1001
0000
0000
0000
0000
0110
0000
0000
0000
0000
0000
0000
,
0010
0100
0110
0000
,
1001
0000
0000
0000
0000
1001
0000
0000
0000
0000
0000
0000
,
1000
0001
0100
0100
,
0001
1000
0010
0010
,
1001
0000
0110
0000
,
0010
0000
0000
0000
0000
1001
0000
0000
0000
0000
0000
0000
,
0100
1000
0001
0000
,
1001
0000
0000
0000
0000
0110
0000
0000
0000
0000
0000
0000
,
1000
0010
0100
0000
,
0010
0100
0010
1000
,
0001
0100
0010
0000
,
2001
0000
3100
0100
,
0000
1000
1000
1000
,
0000
0010
0010
1000
,
0001
0001
1000
1000
,
0000
0100
0100
0000
,
1000
0100
0010
0010
,
0200
0300
0020
0030
,
1001
1001
0110
0110
,
0001
1000
0001
0000
,
1000
0000
0000
1000
0000
0000
0100
0000
0000
0000
0000
1000
,
0000
0000
0000
0100
0000
0000
0010
0000
0000
0000
0000
1001
,
0000
0000
0000
0000
0000
0110
0000
0000
0000
1001
0000
0000
;

//---------------dance-single - ----------------
#NOTEDATA:;
#CHARTNAME:;
#CHARTHASH:2391049306;
#STEPSTYPE:dance-single;
#BANNER:;
#DESCRIPTION:;
#CHARTSTYLE:;
#DIFFICULTY:Medium;
#METER:6;
#METERF:6.000000;
#LASTSECONDHINT:101.859138;
#RADARVALUES:0.373572,0.359103,0.644544,0.055247,0.317668,284.000000,214.000000,70.000000,6.000000,0.000000,0.000000,0.000000,0.000000,0.000000,0.373572,0.359103,0.644544,0.055247,0.317668,284.000000,214.000000,70.000000,6.000000,0.000000,0.000000,0.000000,0.000000,0.000000;
#CREDIT:;
#NOTES:
1001
0110
1001
0000
,
0110
0000
0110
0000
0000
1001
0000
0000
0000
0001
0000
0000
,
0100
0000
0000
1001
0000
0000
1100
0000
0000
1000
0000
0100
,
0000
0000
1001
0000
0000
0101
0000
0000
0000
0100
0000
0000
,
1010
1001
0011
0000
,
1001
0000
1001
0000
0000
1010
0000
0000
0000
1000
0000
0000
,
0001
0000
0000
0011
0000
0000
1001
0000
0000
1000
0000
0001
,
0000
0000
1100
0000
0000
0101
0000
0000
0000
1001
0000
0000
,
0100
0101
0001
1100
,
0001
0000
1000
0000
0000
0001
0000
0000
1000
0010
0000
0000
,
1000
0000
0000
1010
0000
0000
1100
0000
0000
0001
0000
0100
,
0000
0000
0101
0000
0000
0011
0000
0000
0000
0010
0000
0010
,
0001
0000
0000
0100
0000
0000
1001
0000
0000
0010
0000
0010
,
1000
0000
0010
0000
0000
0100
0000
0000
0100
0010
0000
0000
,
1001
0000
1001
0000
,
1010
1100
0101
0011
,
1000
0000
0000
0001
0000
0000
0100
0000
0000
0001
0000
0001
,
1000
0000
0100
0000
0000
0010
0000
0000
0001
1000
0000
1000
,
0001
0000
0000
0100
0000
0000
0010
0000
0000
1000
0000
0010
,
0100
0000
0000
0001
0000
0000
0100
0000
0100
0010
0000
0010
,
1000
0000
0000
0010
0000
0000
0100
0000
0000
0001
0000
0001
,
1000
0000
0100
0000
0000
0010
0000
0000
0010
0100
0000
0000
,
1000
0010
1001
0001
,
1000
0000
0000
0100
0000
0000
1000
0000
1000
0010
0000
0000
,
1001
0110
1001
0000
,
0110
0000
0110
0000
0000
1001
0000
0000
0000
0100
0000
0000
,
0101
0101
1100
0000
,
1100
0000
1001
0000
0000
0101
0000
0000
0000
0010
0000
0000
,
1000
0000
0000
0001
0000
0000
0100
0000
0000
0001
0000
1000
,
0100
0000
1000
0100
0000
0000
1000
0000
0001
0100
0000
0010
,
1000
1010
1001
0000
,
1001
0000
0011
0000
0000
1001
0000
0000
0000
0000
0000
0000
,
0110
0110
1001
0000
,
0101
0000
0110
0000
0000
1001
0000
0000
1000
0001
0000
0000
,
1000
0000
0000
0010
0000
0000
0100
0000
0000
0010
0000
1000
,
0100
0000
0000
0010
0000
0000
0001
0000
0001
0010
0000
0010
,
0100
0110
1001
0000
,
0002
0000
0000
0003
0000
1000
0100
0000
0000
0100
0000
0000
,
0000
0000
1000
0000
0000
0001
0100
0000
0000
0010
0000
0000
,
0000
0000
0100
0001
0000
0000
1000
0000
0000
0100
0000
0000
,
0010
0000
0000
0100
0000
0000
1000
0000
0100
0010
0000
0000
,
0002
0100
2003
0100
,
3002
0000
0000
0010
0000
0000
1003
0000
1000
0010
0000
0010
,
0200
0000
0000
0300
0000
0001
0200
0000
0000
0300
0000
0010
,
1000
0000
1000
0001
0000
0001
0100
0000
0100
0010
0000
0000
,
1001
1100
0101
0000
,
0101
0000
1001
0000
0000
1100
0000
0000
0000
1000
0000
1000
,
0001
0000
0000
1001
0000
0000
0011
0000
0000
0001
0000
1000
,
0000
0000
1010
0000
0000
1010
0000
0000
0001
0010
0000
0000
;

//---------------dance-single - ----------------
#NOTEDATA:;
#CHARTNAME:;
#CHARTHASH:3425893139;
#STEPSTYPE:dance-single;
#BANNER:;
#DESCRIPTION:;
#CHARTSTYLE:;
#DIFFICULTY:Hard;
#METER:9;
#METERF:9.000000;
#LASTSECONDHINT:101.859138;
#RADARVALUES:0.559043,0.605986,0.552466,0.073662,0.865530,425.000000,365.000000,60.000000,8.000000,0.000000,0.000000,0.000000,0.000000,0.000000,0.559043,0.605986,0.552466,0.073662,0.865530,425.000000,365.000000,60.000000,8.000000,0.000000,0.000000,0.000000,0.000000,0.000000;
#CREDIT:;
#NOTES:
// measure 0
1010
0011
1001
1001
,  // measure 1
0010
0000
1001
0000
0000
0011
0000
0000
0010
0001
0000
1000
,  // measure 2
0100
0000
0000
1001
0000
0000
0101
0000
0000
1000
0000
0100
,  // measure 3
0000
0000
0101
0000
0000
1100
0000
0000
0000
0001
0000
0001
,  // measure 4
1000
0000
0000
1010
0000
0000
0011
0000
0000
0010
0000
0001
,  // measure 5
1000
0000
1010
0000
0000
1001
0000
0000
0001
1000
0000
1000
,  // measure 6
0010
0000
0000
1001
0000
0000
0101
0000
0000
1001
0000
0100
,  // measure 7
0000
0000
1100
0000
0000
0101
0000
0000
0100
0001
0000
1000
,  // measure 8
0100
0000
0000
0000
0100
0000
0010
0000
0000
0000
0001
0000
0100
0000
0000
0000
0100
0000
0010
0000
0000
0000
1000
0010
,  // measure 9
1000
0000
1000
0100
0000
0010
0001
0000
0001
0100
0001
1000
,  // measure 10
0100
0000
0100
1000
0000
0001
0010
0000
0010
0001
0000
0101
,  // measure 11
0000
0100
0001
0100
0000
0100
0010
0000
0010
1000
0100
0010
,  // measure 12
0001
0000
0000
0000
0001
0000
0010
0000
0000
0000
0001
0000
0100
0000
0000
0000
0100
0000
0010
0000
0000
0000
1000
0010
,  // measure 13
1000
0000
1000
0100
0000
0010
0001
0000
0001
0100
0010
1000
,  // measure 14
1100
0000
0101
0000
,  // measure 15
1000
0000
0100
1000
0100
0000
1000
0000
0010
1000
0010
0000
0100
0000
0010
0100
0010
0000
0100
0000
0001
0100
0001
0000
,  // measure 16
1000
0000
0000
1000
0100
1000
0001
1000
0001
0100
0010
0100
,  // measure 17
0001
0100
0010
1000
0010
0100
0001
0100
0001
1000
0100
1000
,  // measure 18
0001
0000
0000
0001
0100
0010
1000
0000
0000
1000
0010
0100
,  // measure 19
0010
1000
0100
0010
0100
1000
0100
0010
0001
0010
0100
1000
,  // measure 20
0001
0000
0000
0001
0100
0010
1000
0001
0010
0100
0010
0001
,  // measure 21
0100
0000
0100
0001
0100
0010
1000
0010
0100
0001
0010
0100
,  // measure 22
1000
0000
0000
1000
0001
1000
0100
0000
1000
0100
1000
0100
,  // measure 23
0010
0001
0100
0010
0100
0010
1000
0100
0010
0001
1000
0100
,  // measure 24
1001
0000
0000
0101
0000
0000
1100
0000
0000
0001
0000
1000
,  // measure 25
1001
0000
0101
0000
0000
1100
0000
0000
1000
0010
0000
0000
,  // measure 26
0011
0000
0000
1001
0000
0000
1010
0000
0000
1000
0000
0001
,  // measure 27
0011
0000
1001
0000
0000
1010
0000
0000
1000
0100
0000
1000
,  // measure 28
0001
0000
0001
0100
0000
0100
0010
0000
0010
0001
0000
0001
,  // measure 29
0100
0000
0100
1000
0000
1000
0001
0000
0001
0010
0001
1000
,  // measure 30
1001
0000
0000
1010
0000
0000
1100
0000
0000
1000
0000
0100
,  // measure 31
1001
0000
0101
0000
0000
0011
0000
0000
0010
0001
0000
0100
,  // measure 32
0110
0000
0000
0101
0000
0000
0110
0000
0000
1000
0000
0010
,  // measure 33
1001
0000
1010
0000
0000
0110
0000
0000
0001
0100
0000
0010
,  // measure 34
1000
0000
1000
0100
0000
0001
0100
0000
1000
0010
0000
0010
,  // measure 35
1000
0000
0001
0010
0000
1000
0010
0000
0001
0100
0000
0100
,  // measure 36
0010
0010
0010
1001
,  // measure 37
0200
0000
0000
0000
0000
0000
0000
0000
0300
0000
0001
1000
0002
0000
0000
0000
0000
0000
0103
0000
0000
0000
0000
0000
,  // measure 38
0000
0000
0000
0000
0010
0000
1000
0000
0000
1000
0010
1000
0010
0000
0000
0000
0100
0000
0020
0000
0000
0000
0000
0000
,  // measure 39
0030
0000
0000
0000
0100
0000
0001
0000
0000
0000
0001
0010
0002
0000
0000
0000
0000
0000
0103
0000
0000
0000
0001
0100
,  // measure 40
0010
0000
0000
0000
0100
0010
0100
0000
0000
0000
0010
0000
1000
0000
0000
1000
0010
0100
0001
0000
0000
0000
0000
0000
,  // measure 41
2100
0000
0000
3001
0000
0002
0100
0000
0000
1003
0000
0000
,  // measure 42
0010
0000
0000
0000
0010
0000
1000
0000
0000
0000
0100
0000
0010
0000
0000
0010
0100
0010
0001
0000
0000
0000
0010
0000
,  // measure 43
0200
0000
0000
0000
0000
0000
1300
0000
0000
0000
0001
0000
0200
0000
0000
0000
0000
0000
0310
0000
0000
0000
0100
0010
,  // measure 44
1000
0000
0000
0000
0100
0010
0001
0000
0000
0000
0100
0010
1000
0000
0000
0000
0100
0010
0001
0010
0100
1000
0100
0010
,  // measure 45
0001
1001
0101
1000
,  // measure 46
1001
0000
1010
0010
0000
0101
0100
0000
1001
0001
0000
0010
,  // measure 47
1001
0000
0000
0011
0000
0000
1100
0000
0000
0001
0000
0001
,  // measure 48
1000
0000
1010
0000
0000
0011
0000
0000
0010
1001
0000
0000
;
