#VERSION:0.81;
#TITLE:Airflight 2013;
#SUBTITLE:;
#ARTIST:AS-13;
#TITLETRANSLIT:;
#SUBTITLETRANSLIT:;
#ARTISTTRANSLIT:;
#GENRE:;
#ORIGIN:;
#CREDIT:;
#BANNER:airflightbn.PNG;
#BACKGROUND:airflightbg.png;
#PREVIEWVID:;
#JACKET:;
#CDIMAGE:;
#DISCIMAGE:;
#LYRICSPATH:;
#CDTITLE:;
#MUSIC:Airflight 2013.mp3;
#OFFSET:-0.060000;
#SAMPLESTART:28.799999;
#SAMPLELENGTH:12.000000;
#SELECTABLE:YES;
#BPMS:0.000=150.000;
#STOPS:;
#DELAYS:;
#WARPS:;
#TIMESIGNATURES:0.000=4=4;
#TICKCOUNTS:0.000=4;
#COMBOS:0.000=1;
#SPEEDS:0.000=1.000=0.000=0;
#SCROLLS:0.000=1.000;
#FAKES:;
#LABELS:0.000=Song Start;
#BGCHANGES:;
#KEYSOUNDS:;
#ATTACKS:
;

//---------------dance-single - Blank----------------
#NOTEDATA:;
#CHARTNAME:Blank;
#STEPSTYPE:dance-single;
#DESCRIPTION:Blank;
#CHARTSTYLE:;
#DIFFICULTY:Hard;
#METER:8;
#RADARVALUES:0.461306,0.479527,0.193748,0.129166,0.000000,360.000000,24.000000,16.000000,0.000000,0.000000,0.000000,0.000000,0.000000,0.461306,0.479527,0.193748,0.129166,0.000000,360.000000,24.000000,16.000000,0.000000,0.000000,0.000000,0.000000,0.000000;
#CREDIT:Blank;
#NOTES:
// measure 0
0000
0000
0000
0000
,  // measure 1
0000
0000
0000
0000
,  // measure 2
0001
0000
0100
0000
0001
0100
0010
0000
,  // measure 3
1000
0000
0100
0000
1000
0010
0100
0000
,  // measure 4
0010
0000
1000
0000
0010
0100
0010
0100
,  // measure 5
0001
0000
0100
0001
0100
0001
0100
0000
,  // measure 6
0010
0000
1000
0000
0001
0100
0010
0000
,  // measure 7
1000
0000
0010
0000
0100
0010
1000
0000
,  // measure 8
0100
0100
0010
0010
,  // measure 9
0001
0010
1000
0100
,  // measure 10
0001
0100
0001
0000
1000
0000
1001
0000
,  // measure 11
1000
0100
1000
0000
0010
0000
0101
0000
,  // measure 12
1000
0000
0001
0000
0100
0010
0100
0000
,  // measure 13
0001
0100
1000
0010
,  // measure 14
0001
0000
1000
0000
0010
1000
0000
0010
,  // measure 15
2000
0000
0100
0010
,  // measure 16
3001
0100
0002
0000
1003
0100
2000
0000
,  // measure 17
3001
1000
0001
1000
0110
0000
1001
0000
,  // measure 18
1000
0010
1000
0010
0001
0010
1000
0000
,  // measure 19
0001
0100
0000
0100
1000
0100
0001
0000
,  // measure 20
1000
0100
0010
0000
0001
0100
0010
0100
,  // measure 21
0001
0000
0101
0000
0100
0001
0100
0000
,  // measure 22
0010
1000
0010
1000
0001
0100
0010
0000
,  // measure 23
2002
0000
3003
0000
0010
1000
0100
0000
,  // measure 24
1000
1000
0001
0100
0010
0010
0100
0001
,  // measure 25
1000
0001
0100
0000
0001
1000
0010
0000
,  // measure 26
0101
0000
1000
0010
0100
0000
0001
0000
,  // measure 27
1000
0001
1000
0001
0100
0000
0010
0000
,  // measure 28
0101
0000
0100
0010
1000
0001
0000
0001
,  // measure 29
0100
0000
1010
0000
1000
0010
1000
0010
,  // measure 30
0100
0000
0001
0000
1000
0100
0001
0100
,  // measure 31
2000
0010
3002
0010
,  // measure 32
1003
0100
0020
0000
0031
0100
0020
0000
,  // measure 33
1030
0010
1000
0010
0110
0000
0101
0000
,  // measure 34
2000
0100
0010
0100
,  // measure 35
3002
0010
0100
0010
,  // measure 36
2003
0010
0100
3002
,  // measure 37
0100
1000
0023
0130
,  // measure 38
1000
0000
0100
0000
1000
0010
0100
0000
,  // measure 39
0010
0000
1000
0001
0100
0001
0100
0000
,  // measure 40
0010
0010
1000
0001
,  // measure 41
0010
0010
0100
1001
,  // measure 42
0100
0010
1000
0000
0100
0010
0001
0000
,  // measure 43
1000
0010
0100
0001
0100
0010
1000
0000
,  // measure 44
0001
0010
0001
0010
0100
1000
0100
0000
,  // measure 45
0010
0000
0100
0000
1000
0001
1100
0000
,  // measure 46
0001
0100
0001
0100
0010
0100
0001
0000
,  // measure 47
1000
0100
0010
0001
1000
0001
0100
0000
,  // measure 48
1000
0100
1000
0000
0100
0001
0010
0000
,  // measure 49
1100
1010
0101
0011
,  // measure 50
1000
0100
0001
0100
1000
0001
0100
0000
,  // measure 51
1000
0100
0001
0100
0001
0000
1100
0000
,  // measure 52
0010
0001
0100
0000
0001
0100
0010
0000
,  // measure 53
1000
0001
0000
1000
0001
0100
0010
0000
,  // measure 54
0100
0001
0100
0010
0100
0001
0100
0000
,  // measure 55
0010
0000
1010
0000
1000
0010
0100
0000
,  // measure 56
0001
0001
0100
0001
0010
0010
0001
0100
,  // measure 57
0010
0100
0010
0000
1000
0010
0100
0000
,  // measure 58
1001
0000
0010
0000
1000
0010
0001
0000
,  // measure 59
0010
0000
0100
0000
1000
0100
0001
0100
,  // measure 60
0010
1010
2000
0100
,  // measure 61
3001
0100
0002
0000
1003
0010
0100
0000
,  // measure 62
0001
0100
0001
0100
0010
1000
0010
0100
,  // measure 63
0001
0000
0010
0000
1000
0010
0100
0000
,  // measure 64
1000
0100
1000
0100
0001
0010
0001
0010
,  // measure 65
1000
0010
0100
0001
0101
0100
0110
0010
,  // measure 66
1001
0000
0000
0000
;

//---------------dance-single - Blank----------------
#NOTEDATA:;
#CHARTNAME:Blank;
#STEPSTYPE:dance-single;
#DESCRIPTION:Blank;
#CHARTSTYLE:;
#DIFFICULTY:Medium;
#METER:5;
#RADARVALUES:0.348286,0.319685,0.201821,0.137238,0.000000,260.000000,25.000000,17.000000,0.000000,0.000000,0.000000,0.000000,0.000000,0.348286,0.319685,0.201821,0.137238,0.000000,260.000000,25.000000,17.000000,0.000000,0.000000,0.000000,0.000000,0.000000;
#CREDIT:Blank;
#NOTES:
0000
0000
0000
0000
,
0000
0000
0000
0000
,
0001
0000
0000
0001
0100
0000
0001
0000
,
1000
0000
0000
1000
0100
0000
1000
0000
,
0001
0010
1000
0010
,
0001
0000
0000
0010
0001
0000
0100
0000
,
0010
0010
0100
0001
,
0020
0000
0030
0000
0001
1000
0001
0000
,
0100
0000
0001
0000
1000
0000
0000
0001
,
0000
0001
0000
0100
0000
0010
0000
1000
,
1000
0010
0100
0010
,
1000
0001
0000
1000
0001
0000
0000
0000
,
0100
0001
1000
0100
,
1100
0000
0011
1100
,
0001
0000
0010
0000
1000
0000
0010
0001
,
0020
0030
0100
1001
,
1000
0000
0001
0000
0100
0000
0000
0110
,
0000
0110
0000
0000
1001
0000
0110
0000
,
0001
0000
0010
0000
0100
0010
0100
0000
,
1000
0100
0001
0100
,
1000
0000
0001
0000
0100
0001
0000
0001
,
0200
0300
0010
1000
,
0001
0000
0100
0000
0001
1000
0000
0001
,
2000
0010
3010
1000
,
0001
0100
1000
0100
,
0001
0000
0010
0000
0100
0010
0100
0000
,
1001
0001
0100
0101
,
0001
1000
2200
3300
,
0010
0000
0100
0000
0010
0000
0001
0010
,
0001
0000
1000
0001
1000
0000
0100
0000
,
0010
0100
1000
0010
,
1001
0000
0000
0100
0001
0000
0001
0000
,
0100
0010
1000
1000
,
0010
0100
0110
0110
,
0002
0010
0000
0010
,
2003
0100
0000
0010
,
3001
0100
0010
1001
,
1000
0000
0010
0000
0100
0001
0100
0000
,
0010
0100
0000
0010
0100
0000
0100
0000
,
0001
0100
0000
0001
0100
0000
0100
0000
,
0010
1000
0001
0100
,
0001
0000
0000
1000
0000
0001
0000
1000
,
0010
1000
0100
0001
,
0100
1000
0010
0001
,
0010
1000
0001
0010
,
1100
0011
0001
0101
,
1001
0000
1000
0000
0010
0100
0010
0000
,
1000
0010
0001
0100
,
1000
0001
0100
0001
,
0200
0000
0000
0320
0000
0000
0130
0000
,
0001
0000
0010
0000
0001
1000
0001
0000
,
1000
0100
0010
0100
,
1000
0010
0001
0010
,
1000
0001
0000
1000
0001
0000
1000
0000
,
0001
0000
0100
0000
0001
0000
1000
0001
,
2000
0000
3100
0100
,
1000
0000
0001
0000
0100
0000
0000
0001
,
0000
1000
0000
0001
0000
1000
0000
0001
,
1000
0010
0001
0100
,
1000
0100
2002
3003
,
0001
0000
0100
0000
0001
1000
0000
0001
,
1000
0100
1000
0010
,
0100
0001
0202
0303
,
2020
3030
1000
0001
,
0100
0000
0001
0000
1000
0100
0000
1000
,
0000
0100
0000
0000
0110
0000
1001
0000
,
1001
0000
0000
0000
;

//---------------dance-single - Blank----------------
#NOTEDATA:;
#CHARTNAME:Blank;
#STEPSTYPE:dance-single;
#DESCRIPTION:Blank;
#CHARTSTYLE:;
#DIFFICULTY:Easy;
#METER:4;
#RADARVALUES:0.303308,0.319685,0.153384,0.266404,0.000000,211.000000,19.000000,33.000000,0.000000,0.000000,0.000000,0.000000,0.000000,0.303308,0.319685,0.153384,0.266404,0.000000,211.000000,19.000000,33.000000,0.000000,0.000000,0.000000,0.000000,0.000000;
#CREDIT:Blank;
#NOTES:
0000
0000
0000
0000
,
0000
0000
0000
0000
,
0001
0000
0100
0000
,
1000
0100
0001
0000
,
1000
0000
0010
0000
,
1001
0000
0100
0010
,
1000
1000
0001
0001
,
0020
0030
0200
0300
,
1000
0100
1000
0010
,
0100
0001
0010
0001
,
1000
0000
0100
0000
,
0010
0001
0100
0000
,
1000
1000
0100
0100
,
0001
0000
1000
0000
,
0001
0100
0010
0010
,
2002
3003
0220
0330
,
1000
0010
0100
0100
,
0001
0100
0110
0110
,
2002
3003
0010
0001
,
1000
0001
0200
0300
,
1000
0100
0001
0100
,
0220
0330
2002
3003
,
0100
0001
1000
0100
,
0020
0000
0031
0010
,
1000
1000
0100
0100
,
0001
0100
1000
0100
,
0001
1000
0100
0100
,
1000
0001
0200
0300
,
0010
0010
0100
0100
,
2002
3003
0100
0010
,
1000
0010
0100
0001
,
0020
0030
1000
0010
,
0001
0100
0010
0110
,
1000
0001
0110
0110
,
2000
0100
0000
0100
,
3002
0010
0000
0010
,
2003
0000
0010
0000
,
3020
0000
0100
0000
,
2030
0001
3002
0000
,
0100
0100
0200
0303
,
0020
0030
0200
0300
,
0001
0100
0010
0100
,
1001
1000
0010
1000
,
0001
0100
0020
0030
,
1000
0010
0001
0010
,
1000
0001
0100
0000
,
0110
0000
1000
0001
,
1000
0001
0110
0000
,
0001
0010
0100
1000
,
0100
0000
0000
0100
0000
0000
0100
0000
,
1001
0100
0001
0100
,
0010
0100
0001
0000
,
1000
0001
0100
0000
,
0020
0000
2030
0000
,
3001
0100
0001
1000
,
0200
0300
1000
0001
,
0100
0001
0100
0001
,
1000
0010
0100
0001
,
0010
0010
0100
0100
,
1000
0100
0020
0030
,
0100
0010
0001
0000
,
1000
1000
0001
0100
,
0010
1000
0001
0100
,
0020
0000
1030
0010
,
0001
0010
1000
0100
,
0001
0100
0110
1001
,
0110
0000
0000
0000
;
