#TITLE:Xeroize;
#SUBTITLE:;
#ARTIST:FE;
#TITLETRANSLIT:;
#SUBTITLETRANSLIT:;
#ARTISTTRANSLIT:;
#GENRE:;
#CREDIT:;
#BANNER:xeroize-bn.png;
#BACKGROUND:xeroize-bg.png;
#LYRICSPATH:;
#CDTITLE:arsa-cd.png;
#MUSIC:Xeroize.ogg;
#OFFSET:-0.120000;
#SAMPLESTART:91.599998;
#SAMPLELENGTH:12.000000;
#SELECTABLE:YES;
#DISPLAYBPM:200.000000;
#BPMS:0.000000=200.000000
,1.000000=800.000000
,6.000000=400.000000
,19.000000=200.000000
,472.000000=150.000000
,472.166656=100.000000
,472.333344=75.000000
,472.500000=50.000000
;
#STOPS:1.000000=1.180000,
6.000000=1.320000,
130.000000=0.943000
;
#BGCHANGES:;
#KEYSOUNDS:;
#ATTACKS:;

//---------------dance-single - ----------------
#NOTES:
     dance-single:
     :
     Beginner:
     4:
     0.166850,0.243466,0.000000,0.158017,0.000000,147.000000,0.000000,23.000000,0.000000,0.000000,0.000000,0.166850,0.243466,0.000000,0.158017,0.000000,147.000000,0.000000,23.000000,0.000000,0.000000,0.000000:
0000
0000
0000
0000
,
0000
0000
0000
0000
,
0000
0000
0000
0000
,
0000
0000
0000
0000
,
0000
0000
0000
0000
,
1000
0000
1000
0000
,
1000
0000
1000
0000
,
0001
0000
0001
0000
,
0001
0000
0001
0000
,
1000
0000
1000
0000
,
0001
0000
0001
0000
,
1000
0000
1000
0000
,
0001
0000
0001
0002
,
0000
0003
0000
2000
,
0000
3000
0000
0002
,
0000
0003
0000
0000
,
0000
0000
0000
2000
,
0000
3000
0000
0002
,
0000
0003
0000
2000
,
0000
3000
0000
0000
,
0000
0000
0000
1000
,
0000
0000
0000
0001
,
0000
0000
0000
0010
,
0000
0000
0000
0100
,
0000
0000
0000
2000
,
0000
0000
0000
3000
,
0000
0000
0000
0002
,
0000
0000
0000
0003
,
0000
0000
0000
0000
,
0010
0000
0010
0000
,
0100
0000
0100
0100
,
0000
0000
0000
0000
,
0000
0000
0000
0000
,
1000
0000
1000
0000
,
0001
0000
0001
0000
,
1000
0000
1000
0000
,
0001
0000
0000
0000
,
0001
0000
0001
0000
,
1000
0000
1000
0000
,
0001
0000
0001
0000
,
1000
0000
0000
0000
,
0010
0000
0010
0000
,
0100
0000
0100
0000
,
0010
0000
0010
0000
,
0100
0000
0000
0000
,
0100
0000
0100
0000
,
0010
0000
0010
0000
,
0100
0000
0100
0000
,
0010
0000
0000
0000
,
2000
0000
0000
0000
,
3000
0000
0001
0000
,
0002
0000
0000
0000
,
0003
0000
0010
0000
,
0020
0000
0000
0000
,
0030
0000
0100
0000
,
0200
0000
0000
0000
,
0300
0000
0000
0000
,
0000
1000
0000
1000
,
0000
1000
0000
0000
,
0000
0001
0000
0001
,
0000
0001
0000
0000
,
0000
0010
0000
0010
,
0000
0010
0000
0000
,
0000
0100
0000
0100
,
0000
0100
0000
0010
,
0000
0100
0000
0010
,
0010
0000
0010
0000
,
0010
0000
0000
0000
,
0200
0000
0000
0000
,
0000
0000
0000
0000
,
0300
0000
0000
0000
,
0010
0000
0000
0000
,
0020
0000
0000
0000
,
0000
0000
0000
0000
,
0030
0000
0000
0000
,
0100
0000
0000
0000
,
1000
0000
0010
0000
,
1000
0000
0010
0000
,
1000
0000
0010
0000
,
1000
0000
0000
0000
,
0001
0000
0010
0000
,
0001
0000
0010
0000
,
0001
0000
0010
0000
,
0001
0000
0000
0000
,
1000
0000
0100
0000
,
1000
0000
0100
0000
,
1000
0000
0100
0000
,
1000
0000
0000
0000
,
0001
0000
0100
0000
,
0001
0000
0100
0000
,
0001
0000
0100
0000
,
0001
0000
0000
0000
,
0000
0000
1000
0000
,
0000
0000
1000
0000
,
0000
0000
1000
0000
,
0000
0000
1000
0000
,
0000
0000
0001
0000
,
0000
0000
0001
0000
,
0000
0000
0001
0000
,
0000
0000
0001
0000
,
0000
0000
1000
0000
,
0100
0000
1000
0000
,
0000
0000
0001
0000
,
0100
0000
0001
0000
,
0000
0000
1000
0000
,
0010
0000
1000
0000
,
0000
0000
0001
0000
,
0010
0000
0001
0000
,
0000
0000
2000
0000
,
3000
0000
0020
0000
,
0030
0000
0200
0000
,
0300
0000
0002
0000
,
0003
0000
2000
0000
,
3000
0000
0200
0000
,
0300
0000
0020
0000
,
0030
0000
0002
0000
,
0003
0000
0020
0000
,
0000
0000
0000
0000
,
0000
0030
0000
0000
0000
0000
0000
0000
;

//---------------dance-single - ----------------
#NOTES:
     dance-single:
     :
     Easy:
     8:
     0.446570,0.527510,0.158017,0.398478,0.000000,374.000000,23.000000,58.000000,0.000000,0.000000,0.000000,0.446570,0.527510,0.158017,0.398478,0.000000,374.000000,23.000000,58.000000,0.000000,0.000000,0.000000:
0000
2000
0000
0000
,
0000
0000
3000
0000
,
0000
0000
0000
0000
,
0000
0000
0000
0000
,
0000
0000
0000
0000
,
0010
0000
0010
0000
,
0100
0000
0100
0000
,
0001
0000
0001
1000
,
1000
0001
0001
0010
,
0100
0000
0010
0000
,
0100
0000
1000
0000
,
0001
0000
1000
0000
,
0010
0100
0100
0002
,
0013
2000
3010
0002
,
0103
2000
3200
0320
,
0031
2000
3100
0010
,
0001
0100
1000
0020
,
0130
0002
1003
0200
,
0310
0002
2003
3020
,
0130
0002
0013
0100
,
1000
0010
0001
2000
,
0100
0000
3100
0010
,
0001
0100
0001
0002
,
0100
0000
0103
0010
,
1000
0001
1000
0010
,
0000
0100
0000
0001
,
0000
1000
0000
0001
,
0000
0010
0000
0100
,
0000
1000
0000
0001
,
0001
1000
1000
0001
,
1000
0001
1000
0010
,
0000
0010
0000
0000
0010
0000
0000
0010
,
0000
0010
0010
0000
,
0010
0010
1001
0000
,
0100
0100
1001
0000
,
0010
0010
0100
0100
,
0010
1000
0001
0100
,
0010
0100
1001
0000
,
0100
0010
1001
0000
,
1000
0010
0100
0010
,
1000
0100
0010
0001
,
0100
0010
1010
0000
,
0100
0010
0011
0000
,
1000
0100
0001
0100
,
1000
1000
0001
0001
,
0010
0001
0011
0000
,
0010
1000
1010
0000
,
1000
0000
0100
1000
0000
1000
0001
0000
,
0001
0000
0100
0000
0010
0100
0010
0000
,
2000
3100
2000
3100
,
0010
0001
0100
0001
,
0200
0301
0200
0301
,
0010
0001
0100
0010
,
2000
3001
0002
1003
,
1000
0100
0001
0100
,
2000
3010
0020
0130
,
0110
0110
0110
0110
,
0100
0001
1000
0001
,
0200
0000
0310
0000
,
0010
1000
0001
1000
,
0010
0100
0001
1000
,
0100
0010
0001
0010
,
0200
0000
1300
0000
,
1000
0001
0100
0001
,
1000
0100
0010
0100
,
1000
0010
0100
0010
,
1000
0001
1000
0000
0001
0000
0001
0000
,
0000
0010
0100
0000
1001
0000
0000
0000
,
2000
0000
0000
3200
0000
0000
2300
0000
,
0000
3002
0000
0000
0203
0000
0000
0000
,
0310
1000
0001
1000
,
0010
0100
0010
0000
1001
0000
0000
0000
,
2000
0000
0000
3002
0000
0000
0023
0000
,
0000
0032
0000
0000
2003
0000
0000
0000
,
3010
0100
0001
1000
,
0100
0200
0000
0300
,
0010
0010
1001
0000
,
0100
0100
1001
0000
,
1000
1000
0001
0010
,
0001
0100
0010
1000
,
0001
0001
0110
0000
,
1000
1000
0110
0000
,
0001
1000
0100
1000
,
0001
0100
0010
1000
,
0001
1000
1010
0000
,
1000
0001
0011
0000
,
0001
1000
0010
0100
,
0010
0010
0010
0010
,
1000
0001
0101
0000
,
0001
1000
1100
0000
,
1000
0000
0010
0100
0000
0100
0001
0000
,
1000
0000
0100
0000
0010
0100
0010
0000
,
0000
0000
0002
0000
,
0003
0000
0200
0000
,
0300
0000
0020
0000
,
0030
0000
2000
0000
,
3000
0000
2000
0000
,
3000
0000
0200
0000
,
0300
0000
0020
0000
,
0030
0000
0002
0000
,
0003
0000
1000
1000
,
1000
1000
0100
0001
,
0010
0100
0001
0001
,
0001
0001
0100
0010
,
0001
0100
0010
1000
,
0100
0010
0001
0100
,
0010
0100
0001
0010
,
0100
1000
0010
0100
,
0001
1000
0002
0103
,
2000
3100
0002
0103
,
2000
3100
0002
0013
,
2000
3010
0002
0023
,
0230
2300
3001
0100
,
0001
1000
0100
1000
,
0010
0100
0010
1000
,
0001
0010
0100
1000
,
0010
0100
2002
0000
,
0000
0000
0000
0000
,
0000
3003
0000
0000
0000
0000
0000
0000
;

//---------------dance-single - ----------------
#NOTES:
     dance-single:
     :
     Medium:
     12:
     0.614401,0.649244,0.137406,0.460310,0.147712,539.000000,20.000000,67.000000,0.000000,0.000000,0.000000,0.614401,0.649244,0.137406,0.460310,0.147712,539.000000,20.000000,67.000000,0.000000,0.000000,0.000000:
0000
2000
0000
0000
,
0000
0000
3000
0000
,
0000
0000
0000
0000
,
0000
0000
0000
0000
,
0000
0000
0000
0001
,
0101
0000
0000
1000
0100
0000
0010
0000
,
0011
0000
0000
0001
0100
0000
0010
0000
,
1010
0000
0000
1000
0100
0000
0010
0000
,
0001
0000
1000
0010
1000
0000
0001
0000
,
1001
0000
0000
0001
0100
0000
0010
0000
,
0110
0000
0000
1000
0100
0000
0010
0000
,
0110
0000
0000
0001
0100
0010
1000
0000
,
0001
0000
0000
0000
1000
0000
0100
0000
0010
0000
0000
0000
0002
0200
0000
0000
,
0303
0000
0000
0000
0200
0020
0000
0000
0330
0000
0000
0000
0020
2000
0000
0000
,
3030
0000
0000
0000
2000
0100
0000
0000
0002
0000
3003
0000
0002
0200
0000
0000
,
0303
0000
0000
0000
0200
0020
0000
0000
0330
0000
0000
0000
1000
0000
0001
0000
,
1000
0000
0000
0000
0001
0000
1000
0000
0001
0000
0000
0000
0002
0020
0000
0000
,
0033
0000
0000
0000
0020
0200
0000
0000
0330
0000
0000
0000
0200
2000
0000
0000
,
3300
0000
0000
0000
0002
0100
0000
0000
0020
0000
0033
0000
0200
2000
0000
0000
,
3300
0000
0000
0000
2000
0002
0000
0000
3003
0000
0000
0000
1000
0000
0000
0000
,
0100
0000
0001
0100
0001
0000
0010
0000
,
0010
0000
0100
1000
0001
0000
0100
0010
,
1000
0001
0100
0000
0010
0000
1000
0000
,
1000
0000
0100
0010
0001
0000
0100
0010
,
1000
0010
0100
0000
0001
0000
1000
0000
,
0000
0100
0000
0000
1000
0000
0000
0001
,
0000
0100
0001
1000
,
0000
0001
0000
0000
0010
0000
0000
0001
,
0000
1000
0010
0100
,
0101
0001
0011
0010
,
0110
0000
0100
0000
1100
0000
1000
0001
,
0000
0001
1000
0000
1000
0010
0000
0010
,
0100
0000
0100
0010
0100
0000
0000
0000
,
1000
0000
0001
0000
0100
0010
0000
0000
,
1000
0000
0001
0000
0100
0010
0000
0000
,
1000
0000
0001
0000
0010
0001
0010
0000
,
0100
1000
0100
1000
0001
0000
0100
0000
,
0010
0000
0100
0000
0001
1000
0000
0000
,
0010
0000
0100
0000
0001
1000
0000
0000
,
0010
0000
0100
0001
0000
0001
1000
0000
,
0100
0010
0001
0100
0010
0000
1000
0000
,
0001
0000
1000
0000
0100
0010
0000
0000
,
0001
0000
1000
0000
0100
0010
0000
0000
,
0001
0000
1000
0000
0010
0100
0010
0000
,
1000
0100
0010
0001
1000
0000
0010
0000
,
0100
0000
0001
0000
0100
0001
0000
0000
,
1000
0000
0100
0000
1000
0100
0000
0000
,
0001
0000
0100
0001
0000
0001
1000
0000
,
0100
0010
0001
0010
0100
0000
1001
0000
,
0200
0010
0000
0000
0310
0000
0000
0000
1000
0000
0001
0000
1000
0000
0000
0000
,
0010
0100
0010
0100
0001
0000
0010
0000
,
0200
1000
0000
0000
1300
0000
0000
0000
0010
0000
0100
0000
0010
0000
0000
0000
,
1000
0001
0010
0100
1000
0000
0110
0000
,
0002
0010
0000
0000
0013
0000
0000
0000
0100
0000
1000
0000
0001
0000
0000
0000
,
0100
1000
0001
1000
0100
0000
0110
0000
,
0020
0001
0000
0000
0031
0000
0000
0000
0100
0000
0010
0000
1000
0000
0000
0000
,
0001
0010
0000
0000
0010
0100
0000
0000
0100
1000
0000
0000
1000
0001
0000
0000
,
1000
0100
0001
0100
0000
0100
0010
0000
,
2000
0100
0001
3010
,
0001
0100
1000
0100
0000
0100
0001
0000
,
0010
0001
0100
0010
0000
0010
0100
0000
,
0001
0010
1000
0010
0000
0010
0100
0000
,
0002
0100
1000
0013
,
1000
0100
0010
0001
0000
0100
0010
0000
,
1000
0001
0010
0000
0001
1000
0000
0010
,
0100
0000
0001
0010
0100
0000
1000
0000
,
0010
0100
0010
0000
1000
0001
1000
0000
,
0000
0010
0010
0000
2002
0000
3003
0000
,
2000
3200
0302
0203
,
2300
3200
0302
0203
,
1300
0010
0000
0100
0000
0001
1000
0000
,
0100
0010
0100
0000
2002
0000
3003
0000
,
0002
0023
2030
3020
,
0032
0023
2030
3020
,
0031
0100
0000
0010
0000
1000
0001
0000
,
1000
2000
0000
3000
,
0001
0100
0001
0100
0001
0100
0000
0000
,
1000
0100
1000
0100
1000
0100
0000
0000
,
0010
0001
0010
0001
0100
0000
0010
0000
,
1000
0100
0010
0000
0001
0100
0010
0000
,
1000
0001
1000
0001
1000
0010
0000
0000
,
0001
1000
0001
1000
0001
0010
0000
0000
,
0100
0000
1000
0001
0000
0100
0010
0000
,
1000
0100
0010
0001
0010
0100
1000
0000
,
0001
0100
0001
0100
0010
1000
0000
0000
,
1000
0100
1000
0100
0010
0001
0000
0000
,
1000
0100
1000
0100
0010
0000
0001
0000
,
0100
0010
1000
0001
0100
0010
1000
0000
,
0001
0010
0001
1000
0010
1000
0000
0000
,
1000
0010
1000
0001
0010
0001
0000
0000
,
0100
0000
0010
0100
0000
0001
1000
0000
,
0100
0010
0001
0100
0010
1000
0001
0000
,
0000
0000
2000
0000
,
0000
0000
3200
0000
,
0000
0000
0320
0000
,
0000
0000
0032
0000
,
0000
0000
0203
0000
,
0320
0000
2030
0000
,
3002
0000
2003
0000
,
3020
0000
0230
0000
,
0302
0000
1003
1000
,
0100
0100
0001
0010
,
0001
0000
0001
0100
0000
0100
0001
0000
0000
0001
0000
0000
,
1000
1000
0010
0100
,
0001
0000
0001
1000
0000
1000
0001
0000
1000
0001
0000
0000
,
1000
1000
0010
0100
,
0001
0000
0010
0001
0000
0001
0100
0000
0000
0100
0000
0000
,
0010
0010
2000
3200
,
1300
0000
0001
1000
0000
1000
0001
0000
0000
0101
0000
0000
,
1000
1100
0001
0011
,
1010
0011
0100
0100
,
0010
0000
0000
0010
0000
0000
1000
0000
1000
0100
0000
0100
,
0010
0000
0010
0001
0000
0001
1000
0000
0000
0001
0000
0000
,
0100
0000
0000
1000
0000
0000
0100
0000
0100
0001
0000
0000
,
0010
0000
0010
0100
0000
0000
1000
0000
0000
0001
0000
0000
,
0010
0000
0000
1000
0000
0000
0001
1000
0001
1000
0001
1000
,
0001
1000
0001
1000
0001
1000
0002
0000
0000
0000
0000
0000
,
0000
0000
0000
0000
,
0000
0003
0000
0000
0000
0000
0000
0000
;

//---------------dance-single - ----------------
#NOTES:
     dance-single:
     :
     Hard:
     14:
     0.835232,0.973865,0.164887,0.309164,0.360691,782.000000,24.000000,45.000000,0.000000,0.000000,0.000000,0.835232,0.973865,0.164887,0.309164,0.360691,782.000000,24.000000,45.000000,0.000000,0.000000,0.000000:
0000
2000
0000
0000
,
0000
0000
3000
0000
,
0000
0000
0000
0000
,
0000
0000
0000
0000
,
0000
0000
0000
1000
,
1100
0000
0000
0001
0100
1000
0010
0000
,
1010
0000
0000
1000
0100
0001
0010
0000
,
0011
0000
0000
0001
0100
1000
0100
0000
,
0001
0010
0100
1000
0010
0100
0001
0000
,
0101
0000
0000
1000
0100
0001
0100
0000
,
0110
0000
0000
0010
1000
0010
0001
0000
,
1001
0000
0000
1000
0100
0010
0001
0000
,
1000
0000
0010
0000
0100
0000
0010
0000
0001
0000
0010
0000
1000
0100
0000
0000
,
0010
0000
0000
0000
0001
0100
0000
0000
0010
0000
0000
0000
1000
0001
0000
0000
,
0010
0000
0000
0000
0001
1000
0000
0000
1000
0100
0000
0000
0100
1000
0000
0000
,
0001
0000
0000
0000
0100
0001
0000
0000
1000
0000
0000
0000
0100
0000
0010
0000
,
0100
0000
0010
0000
0001
0000
1000
0000
0010
0000
0100
0000
0001
0100
0000
0000
,
0010
0000
0000
0000
1000
0100
0000
0000
0010
0000
0000
0000
0001
1000
0000
0000
,
0100
0000
0000
0000
1000
0001
0000
0000
0001
1000
0000
0000
0010
0100
0000
0000
,
0001
0000
0000
0000
0010
0100
0000
0000
1000
0000
0000
0000
0001
0000
0100
0000
,
1000
0100
0001
0010
0100
1000
0001
0100
,
0010
0100
0000
0100
0001
1000
0100
0010
,
0100
1000
0020
0000
0130
0000
1000
0001
,
0100
0001
0000
0001
1000
0100
0010
0100
,
1000
0001
0010
0010
0010
0000
1001
0000
,
1000
0100
0000
0001
0100
0000
1000
0010
,
0000
0001
0010
0100
1000
0000
0001
0000
,
0100
1000
0000
0100
0001
0010
0000
0100
,
0000
1000
0001
0000
0001
0000
1000
0100
,
1000
0010
1000
0000
0100
0000
0010
0001
,
0010
0100
1000
0001
0100
0000
0010
0010
,
0000
0100
0100
0000
0010
0100
0000
0100
,
0010
0000
0010
0100
1001
0000
0000
0000
,
1000
0100
0100
0001
0100
0100
1000
0010
,
0100
0001
0001
1000
0001
0001
0010
0001
,
0100
0010
1000
1000
0100
0001
0100
1000
,
0010
0100
0001
1000
0100
0010
0001
1000
,
0010
1000
1000
0100
1000
1000
0010
0100
,
0001
0010
0010
0001
0010
0010
0001
0100
,
0010
1000
0001
0100
1000
1000
0100
0001
,
1000
0100
0010
0001
0100
0010
1000
0001
,
0010
0100
0100
1000
0100
0100
0010
0001
,
0100
0010
0010
1000
0001
0001
1000
0010
,
0100
0001
0010
0010
0100
1000
0100
0001
,
0100
0010
0001
0100
0010
1000
0001
0010
,
0100
1000
1000
0010
0100
0100
0001
0010
,
0001
0100
0100
1000
0100
0100
0001
0010
,
0100
1000
0010
0010
0100
0001
0001
1000
,
0100
0000
0001
0000
0100
0000
1000
0000
0010
0100
0010
0100
0010
0000
0000
0000
,
2000
0001
0000
0000
3100
0000
0000
0000
0010
0000
0010
0000
0010
0000
0000
0000
,
1000
0100
0001
0100
0010
1000
0001
0000
,
0002
1000
0000
0000
0103
0000
0000
0000
0010
0000
0010
0000
0010
0000
0000
0000
,
1000
0100
0001
1000
0010
0001
1000
0000
,
0002
0100
0000
0000
0013
0000
0000
0000
0100
0000
0100
0000
0100
0000
0000
0000
,
1000
0010
0001
0010
1000
0100
0010
0000
,
2000
0100
0000
0000
3010
0000
0000
0000
0100
0000
0100
0000
0100
0000
0000
0000
,
2001
3000
0000
0000
1002
0003
0000
0000
2001
3000
0000
0000
1002
0003
0000
0000
,
1000
0100
1100
0001
0000
0001
0101
0100
,
0010
1000
0001
1000
0010
0100
0001
0000
,
1000
0100
0110
0010
0000
0010
0011
0001
,
0100
0010
1000
0001
1000
0100
0010
0100
,
1000
0001
0011
0010
0000
0010
0110
0100
,
1000
0001
0100
0010
0100
0001
1000
0000
,
0100
0010
0011
0001
0000
0001
0101
0100
,
0010
1000
0001
1000
0010
0100
0010
0001
,
0010
0100
0010
1000
0100
0001
0100
1000
,
0010
0010
0010
0010
0020
0100
0130
0000
,
0000
1000
0001
1000
0001
0000
0010
0000
0220
0000
0000
0000
0330
0000
0000
0000
,
1000
0100
1000
0000
0100
0000
1000
0100
1000
0000
0100
0000
1000
0001
1000
0000
,
0001
0000
0100
0001
0100
0000
0001
0000
0100
0001
0100
0000
0010
0000
0010
0000
,
1000
0000
0000
0100
0000
0000
0001
0000
0000
1000
0000
0000
0010
0000
0000
0000
,
0001
0000
1000
0001
1000
0000
0010
0000
0220
0000
0000
0000
0330
0000
0000
0000
,
0001
0100
0001
0000
0100
0000
0001
0100
0001
0000
0100
0000
0001
1000
0001
0000
,
1000
0000
0100
1000
0100
0000
1000
0000
0100
1000
0100
0000
1000
0000
0010
0000
,
0010
0000
0000
1000
0000
0000
0100
0000
0000
1000
0000
0000
0010
0000
0000
0000
,
0100
2002
3003
1001
,
1000
0010
0010
0001
0010
0010
1000
0100
,
0010
0001
0001
0100
0001
0001
1000
0100
,
0010
0100
1000
1000
0010
0100
0001
1000
,
0100
0001
0100
1000
0010
0001
0010
1000
,
0100
0010
0010
0001
0100
0100
0010
1000
,
0100
0010
0010
0100
1000
1000
0010
0100
,
0001
1000
0001
0001
1000
0100
0100
1000
,
0010
0100
0001
1000
0100
1000
0001
0100
,
0010
1000
1000
0100
1000
1000
0010
0100
,
0001
0010
0010
0001
0100
0100
0010
1000
,
0001
1000
0010
0100
0001
0001
1000
0100
,
0001
0010
0001
0100
0010
1000
0100
1000
,
0010
0100
0100
0001
0100
0100
1000
0010
,
0100
0001
0100
1000
0100
0100
0010
0001
,
1000
0001
0010
0010
0100
1000
0001
0100
,
0010
0000
1000
0000
0001
0000
1000
0000
0010
0100
0010
0100
0010
0000
0000
0000
,
0000
0000
2000
0100
,
0010
3100
0002
0100
,
0010
0103
0020
0100
,
0001
0130
0200
1000
,
0010
1300
1000
0010
,
0001
0010
0000
0001
0000
0100
0000
0010
,
1000
0000
0100
0000
1000
0001
0000
1000
,
0000
0001
1000
0000
0010
0000
0100
0000
,
0020
0000
0000
0030
0000
0000
1000
0000
1000
0100
0000
0100
,
0010
0000
0010
0001
0000
0001
0100
0000
0100
0010
0000
0010
,
1000
0000
0001
1000
0000
0200
0000
0000
1300
0001
0000
0001
,
0100
0000
0100
0010
0000
0010
1000
0000
1000
0100
0000
0100
,
0001
0000
0001
0100
0000
0100
1000
0000
1000
0010
0000
0010
,
0100
0000
0100
0001
0000
0001
0010
0000
0010
0100
0000
0100
,
1000
0000
0001
1000
0000
0020
0000
0000
0130
0001
0000
0001
,
0010
0000
0000
0000
0010
0000
0100
0000
0000
0000
0100
0000
2000
0000
0000
3020
0000
0000
0230
0000
0000
0302
0000
0000
,
1003
0000
0100
0010
0000
0000
0002
0000
0103
0020
0000
1030
,
0200
0000
0310
0002
0000
1003
0020
0000
1030
0200
0000
0310
,
0002
0000
0103
0020
0000
0130
0002
0000
1003
0200
0000
1300
,
0020
0000
0130
0002
0000
1003
0200
0000
1300
0200
0000
1300
,
0002
0000
0103
0002
0000
0103
0001
1000
0000
1000
0100
0000
,
0100
0001
0000
0001
0010
0000
0010
0001
0000
1000
0010
0000
,
0100
0001
0000
1000
0100
0000
0010
0001
0000
0100
0010
0100
,
0001
1000
0001
0100
0000
0000
0010
1000
0010
0100
0001
0100
,
0010
1000
0001
0010
0001
1000
0020
0000
0000
0000
0000
0000
,
0000
0000
0000
0000
,
0000
0030
0000
0000
0000
0000
0000
0000
;

//---------------dance-single - ----------------
#NOTES:
     dance-single:
     :
     Challenge:
     18:
     1.000000,1.000000,0.425959,0.542754,0.979018,1031.000000,62.000000,79.000000,0.000000,0.000000,0.000000,1.000000,1.000000,0.425959,0.542754,0.979018,1031.000000,62.000000,79.000000,0.000000,0.000000,0.000000:
// measure 0
0000
2000
0000
0000
,  // measure 1
0000
0000
3000
0000
,  // measure 2
0000
0000
0000
0000
,  // measure 3
0000
0000
0000
0000
,  // measure 4
0000
0000
0000
0010
,  // measure 5
1001
0000
0100
0010
1000
0001
0100
0000
,  // measure 6
0110
0000
0001
0100
1000
0100
0001
0000
,  // measure 7
0101
0000
1000
0100
0010
0100
1000
0100
,  // measure 8
0001
0000
0010
0001
0000
0001
0100
0000
0100
0010
0000
0010
1000
0000
0000
0000
,  // measure 9
1100
0000
0001
0100
1000
0100
0001
0000
,  // measure 10
0101
0000
0001
0010
0100
1000
0010
0000
,  // measure 11
0110
0000
0000
0000
1000
0000
0100
0000
0001
0000
0100
0000
1000
0010
0000
0010
,  // measure 12
0100
0000
0001
0000
0010
0000
0010
0000
0010
0000
0000
0000
0100
1000
0100
0000
,  // measure 13
0010
0000
0001
0000
0100
0001
0100
0000
0010
0000
1000
0000
0001
1000
0001
0000
,  // measure 14
0010
0000
0100
0000
1000
0001
1000
0000
0100
0010
0100
0000
0010
0001
0010
0000
,  // measure 15
0100
0000
1000
0000
0010
1000
0010
0000
0100
0000
0001
0000
1000
0100
0000
1000
,  // measure 16
0100
0000
0010
0000
0001
0000
1000
0000
0001
0000
0010
0000
0100
1000
0100
0000
,  // measure 17
0010
0000
0001
0000
0100
0001
0100
0000
0010
0000
1000
0000
0010
0100
0010
0000
,  // measure 18
1000
0000
0100
0000
0010
0100
0010
0000
0001
1000
0001
0000
0010
0001
0010
0000
,  // measure 19
0100
0000
0010
0000
0001
1000
0001
0000
0010
0000
0100
0000
1000
0010
0200
0000
,  // measure 20
0301
0100
0020
0000
1030
0001
0100
0001
1000
0000
0000
0000
0100
0000
0010
0000
,  // measure 21
0011
1000
0000
1000
2010
0010
3010
0100
,  // measure 22
0001
0000
0100
0000
0010
1000
0001
1000
0010
0000
0000
0000
0100
0000
0001
0000
,  // measure 23
1001
0001
0000
0100
0201
0001
0301
1000
,  // measure 24
0100
0000
0010
0000
0001
1000
0010
0100
0001
0000
0000
0000
2100
0000
0000
0000
,  // measure 25
0001
3020
0000
1000
0230
0000
0010
0302
,  // measure 26
0000
0100
1003
0100
0001
0000
0210
0000
,  // measure 27
0001
0320
0000
1000
0230
0020
0300
2030
,  // measure 28
0000
3100
2100
0000
3001
0000
0100
0001
,  // measure 29
0011
0010
0100
0010
0110
0010
0001
0100
,  // measure 30
0101
0010
1000
0100
1100
1000
1001
0100
,  // measure 31
0000
0100
0100
0000
0100
0100
0000
0100
,  // measure 32
0100
0200
0310
0000
,  // measure 33
1000
0000
0001
0100
0001
0000
0001
0100
0001
0000
1000
0100
0010
0000
0001
0100
,  // measure 34
0010
0000
1000
0001
0010
0001
1000
0000
0010
0100
0010
0000
1000
0000
0100
0010
,  // measure 35
0001
0000
1000
0000
0010
0100
0001
0000
1000
0100
0010
0000
0001
0100
0010
1000
,  // measure 36
0001
0010
0001
0000
0001
0010
0001
0000
0100
0010
1000
0001
0100
0000
0010
0000
,  // measure 37
1000
0000
0100
1000
0100
0000
0100
1000
0100
0000
0010
0001
1000
0000
0010
0100
,  // measure 38
0001
0000
1000
0100
0010
0100
1000
0000
0001
0100
0010
0000
1000
0000
0100
0010
,  // measure 39
0001
0100
0110
0110
1000
0110
0110
0001
,  // measure 40
2000
0000
3200
0000
0302
0000
0203
0000
1300
0100
0010
0001
1000
0000
0010
0000
,  // measure 41
0100
0000
0001
1000
0001
0000
0001
1000
0001
0000
0010
0001
1000
0000
0010
1000
,  // measure 42
0100
0000
0010
0001
1000
0001
0010
0000
0100
1000
0001
0000
1000
0000
0100
0010
,  // measure 43
0001
0000
1000
0000
0010
0100
0001
0000
1000
0100
0010
0000
0100
1000
0001
0100
,  // measure 44
0010
1000
0010
0000
0010
1000
0010
0000
0100
0001
1000
0100
0010
0000
0001
0000
,  // measure 45
1000
0000
0010
0100
0010
0000
0010
0100
0010
0000
1000
0001
0010
0000
0001
0100
,  // measure 46
0010
0000
1000
0100
0010
0100
1000
0000
0001
0100
0010
0000
0100
0000
0001
1000
,  // measure 47
0100
0010
0011
0011
1000
1010
1010
0001
,  // measure 48
1000
0100
0010
0000
0001
1000
0100
1000
0010
0100
0010
0100
0010
0000
0000
0000
,  // measure 49
1000
0001
1000
0000
0200
0000
0300
0000
1001
0000
1000
0000
1001
0000
0000
0000
,  // measure 50
0001
0100
1000
0100
0001
0010
0011
0000
,  // measure 51
1000
0001
1000
0000
0020
0000
0030
0000
1001
0000
0001
0000
1001
0000
0000
0000
,  // measure 52
1000
0001
0020
0000
0031
1000
0020
0000
1030
0100
1000
0100
0010
0001
0010
0001
,  // measure 53
1000
0100
0010
0000
0002
0000
0003
0000
1010
0000
1000
0000
1010
0000
0000
0000
,  // measure 54
0001
0100
1000
0100
0001
0010
0110
0000
,  // measure 55
0001
0100
0010
0000
2000
0000
3000
0000
0110
0000
1010
0000
1001
0000
0000
0000
,  // measure 56
1000
0001
0000
0000
0000
0000
0000
0000
0000
0000
0000
0000
0010
0100
0000
0000
0000
0000
0000
0000
0000
0000
0000
0000
1000
0001
0000
0000
0000
0000
0000
0000
0000
0000
0000
0000
0100
0010
0000
0000
0000
0000
0000
0000
0000
0000
0000
0000
,  // measure 57
1000
0100
1100
1000
0001
0100
0101
0001
,  // measure 58
0010
0001
0101
0100
0010
1000
1001
1000
,  // measure 59
0100
0010
0011
0001
0100
0010
1010
1000
,  // measure 60
0001
0000
1000
0000
0100
0000
0020
0001
0000
0000
0100
0000
0230
0000
0000
0000
,  // measure 61
1300
0010
0101
0001
0010
0100
1100
1000
,  // measure 62
0010
0100
0110
0010
1000
0001
0011
0001
,  // measure 63
0100
0010
1010
1000
0001
0100
0101
0001
,  // measure 64
1000
0000
0100
0010
0001
0000
0100
0000
0010
1000
0001
0000
0100
0000
0010
1000
,  // measure 65
0100
0000
0010
0000
0100
0010
0001
0000
0100
0010
1000
0000
0100
0010
0001
0000
,  // measure 66
0100
0010
0100
0010
1000
0001
1000
0001
0010
0000
0000
0000
0100
1000
0001
0100
,  // measure 67
0000
0010
0100
0010
0100
0000
0010
0000
2002
0000
0000
0000
3003
0000
0000
0000
,  // measure 68
1000
0100
1000
0100
1000
0000
0001
1000
0001
1000
0001
0000
0100
0001
0100
0001
,  // measure 69
0100
0000
0010
0100
0010
0100
0010
0000
1000
0000
0100
1000
0001
0000
0100
0001
,  // measure 70
1000
0100
0000
0001
0100
0000
1000
0010
0000
0001
0010
0000
0100
0000
0000
0000
,  // measure 71
1000
0000
0010
0100
0010
0000
0100
0000
2002
0000
0000
0000
3003
0000
0000
0000
,  // measure 72
0010
0001
0010
0001
0010
0000
0100
0010
0100
0010
0100
0000
1000
0100
1000
0100
,  // measure 73
1000
0000
0001
1000
0001
1000
0001
0000
0010
0000
0001
0100
0010
0000
1000
0100
,  // measure 74
0010
0001
0000
0100
0010
0000
1000
0100
0000
0010
0001
0000
0100
0000
0000
0000
,  // measure 75
0010
0000
0000
0000
0200
0000
0000
0000
0000
0000
0000
0000
0301
0010
0100
1000
,  // measure 76
0001
0000
1000
0100
1000
0000
1000
0100
1000
0000
0010
0100
0001
0000
1000
0100
,  // measure 77
0010
0000
0001
1000
0100
1000
0001
0000
0100
0010
1000
0000
0001
0000
0010
0100
,  // measure 78
1000
0000
0001
0000
1000
0100
0010
0000
0001
0100
0010
0000
1000
0100
0010
0001
,  // measure 79
1000
0010
1000
0000
1000
0010
1000
0000
0100
0010
0001
0010
0100
0000
1000
0000
,  // measure 80
0001
0000
0010
0100
0010
0000
0010
0100
0010
0000
0001
1000
0010
0000
1000
0100
,  // measure 81
0010
0000
0001
1000
0100
0010
0100
0000
1000
0001
0100
0000
0010
0000
1000
0001
,  // measure 82
0010
1000
1001
1001
0010
0110
0110
1000
,  // measure 83
0001
0010
0100
0000
1000
0010
0100
0001
1000
0100
0010
0001
1000
0001
1000
0000
,  // measure 84
0100
0000
0010
0001
0010
0000
0010
0001
0010
0000
0001
0100
0010
0000
1000
0100
,  // measure 85
0010
0000
0001
1000
0100
1000
0001
0000
0100
0010
1000
0000
0001
0000
1000
0100
,  // measure 86
0010
0000
0001
0000
0100
0010
1000
0000
0010
0100
0001
0000
1000
0100
0010
0100
,  // measure 87
1000
0001
1000
0000
1000
0001
1000
0000
0010
0100
0001
1000
0100
0000
0010
0000
,  // measure 88
0001
0000
1000
0100
1000
0000
1000
0100
1000
0000
0010
0100
0001
0000
1000
0100
,  // measure 89
0010
0000
0001
1000
0100
0010
0001
0000
0100
0010
1000
0000
0001
0000
1000
0010
,  // measure 90
0100
0010
0110
0110
1000
0110
0110
0001
,  // measure 91
1000
0100
0010
0100
1000
0001
0100
0010
1000
0001
1000
0001
1000
0000
0000
0000
,  // measure 92
0000
0000
0000
0000
0001
0100
1000
0001
,  // measure 93
0010
1000
0100
0010
0100
1000
0001
0100
,  // measure 94
0010
1000
0100
0001
0100
1000
0010
0100
,  // measure 95
0001
1000
0100
1000
0001
0100
0010
1000
,  // measure 96
0001
0000
0010
0000
0100
1000
0001
1000
,  // measure 97
0100
0010
0001
0100
0010
1000
0001
0100
,  // measure 98
0001
1000
0100
0010
0001
0100
0001
1000
,  // measure 99
0100
1000
0010
0100
0001
1000
0010
0100
,  // measure 100
0020
0000
0000
0000
0000
0000
1030
0000
0001
0200
0000
1300
,  // measure 101
0200
0000
0301
0020
0000
1030
0020
0000
0031
0200
0000
0310
,  // measure 102
1000
0001
0010
0100
0000
2100
0000
0000
3010
0200
0000
0301
,  // measure 103
0020
0000
0031
0200
0000
0310
2000
0000
3100
2000
0000
3001
,  // measure 104
0200
0000
0310
2000
0000
3001
0020
0030
0010
0002
0003
0001
,  // measure 105
2000
0000
3010
0200
0000
0301
0020
0000
0031
0200
0000
0310
,  // measure 106
1000
0100
0010
0100
0000
2100
0000
0000
3010
0200
0000
0301
,  // measure 107
0020
0000
0000
0000
0000
0000
0000
0000
1030
0000
0000
0000
0020
0000
0000
0000
0000
0000
0000
0000
0031
0000
0000
0000
0100
0000
0000
0001
0000
0000
0100
0000
0000
0001
0000
0000
1000
0000
0000
0010
0000
0000
1000
0000
0000
0010
0000
0000
,  // measure 108
0200
0300
0100
0001
0000
1000
0100
0000
0010
0001
1000
0010
,  // measure 109
0100
0001
0001
0020
0000
0031
0200
0000
0310
1000
0001
1000
,  // measure 110
0010
0100
0100
0002
0000
0103
0010
2000
0000
3100
0020
0000
,  // measure 111
0031
2000
0000
3010
0200
0000
0301
0020
0000
0130
0020
0000
,  // measure 112
0031
0200
0000
0310
0200
0000
0301
1000
0001
0100
0020
0000
,  // measure 113
1030
0002
0000
0013
0200
0000
1300
0002
0000
0013
0200
0000
,  // measure 114
1300
0020
0000
0130
0002
0000
1003
0200
0000
1300
0001
0010
,  // measure 115
0001
1000
0010
0100
0001
1000
0100
0100
0010
0001
0001
0100
,  // measure 116
0010
1000
0001
0010
0001
1000
2002
0000
0000
0000
0000
0000
,  // measure 117
0000
0000
0000
0000
,  // measure 118
0000
3003
0000
0000
0000
0000
0000
0000
;
