#TITLE:Warrior;
#SUBTITLE:;
#ARTIST:Mark With a K & Robert Falcon;
#TITLETRANSLIT:;
#SUBTITLETRANSLIT:;
#ARTISTTRANSLIT:;
#GENRE:;
#CREDIT:;
#BANNER:warrior-bn.png;
#BACKGROUND:Warrior-bg.png;
#LYRICSPATH:;
#CDTITLE:arsa-cd.png;
#MUSIC:Warrior.ogg;
#OFFSET:-0.279000;
#SAMPLESTART:93.181999;
#SAMPLELENGTH:12.000000;
#SELECTABLE:YES;
#BPMS:0.000000=155.000000
;
#STOPS:
;
#BGCHANGES:;
#KEYSOUNDS:;
#ATTACKS:;

//---------------dance-single - ----------------
#NOTES:
     dance-single:
     :
     Beginner:
     1:
     0.099408,0.122691,0.054936,0.009156,0.000000,138.000000,12.000000,2.000000,0.000000,0.000000,0.000000,0.099408,0.122691,0.054936,0.009156,0.000000,138.000000,12.000000,2.000000,0.000000,0.000000,0.000000:
0000
0000
0000
0000
,
0000
0000
0000
0000
,
0000
0000
0000
0000
,
0000
0000
0000
0000
,
0100
0000
0000
0000
,
0100
0000
0000
0000
,
0010
0000
0000
0000
,
0100
0000
0000
0000
,
0001
0000
0000
0000
,
0001
0000
0000
0000
,
1000
0000
0000
0000
,
0001
0000
0000
0000
,
0100
0000
0000
0000
,
0100
0000
0000
0000
,
0010
0000
0000
0000
,
0010
0000
0000
0000
,
1000
0000
0000
0000
,
0001
0000
0000
0000
,
0010
0000
0000
0000
,
0000
0000
0000
0000
,
1000
0000
0000
0000
,
0100
0000
0000
0000
,
0010
0000
0010
0000
,
0010
0000
0000
0000
,
0001
0000
0000
0000
,
0100
0000
0000
0000
,
0010
0000
0010
0000
,
0010
0000
0000
0000
,
1000
0000
0000
0000
,
0100
0000
0000
0000
,
0010
0000
0000
0000
,
0001
0000
0000
0000
,
0100
0000
0000
0000
,
0010
0000
0000
0000
,
1000
0000
0000
0000
,
0001
0000
0000
0000
,
1001
0000
0000
0000
,
0000
0000
0000
0000
,
1001
0000
0000
0000
,
0000
0000
0000
0000
,
1001
0000
0000
0000
,
0000
0000
0000
0000
,
1001
0000
0000
0000
,
0000
0000
0000
0000
,
0100
0000
0100
0000
,
0100
0000
0000
0000
,
0010
0000
0010
0000
,
0010
0000
0000
0000
,
1000
0000
1000
0000
,
1000
0000
0000
0000
,
0001
0000
0001
0000
,
0001
0000
0000
0000
,
0010
0000
0000
0000
,
0010
0000
0000
0000
,
0010
0000
0000
0000
,
0010
0000
0000
0000
,
1000
0000
0000
0000
,
0001
0000
0000
0000
,
0100
0000
0000
0000
,
0010
0000
0000
0000
,
1001
0000
0000
0000
,
0100
0000
0000
0000
,
0010
0000
0000
0000
,
0100
0000
0000
0000
,
1001
0000
0000
0000
,
0010
0000
0000
0000
,
0100
0000
0000
0000
,
0010
0000
0010
0000
,
0010
0000
0000
0000
,
1000
0000
0000
0000
,
0001
0000
0000
0000
,
1000
0000
0000
0000
,
1001
0000
0000
0000
,
0001
0000
0000
0000
,
1000
0000
0000
0000
,
0001
0000
0000
0000
,
0100
0000
0100
0000
,
0100
0000
0000
0000
,
0010
0000
0010
0000
,
0010
0000
0000
0000
,
1000
0000
1000
0000
,
1000
0000
0000
0000
,
0001
0000
0001
0000
,
0001
0000
0000
0000
,
1000
0000
0000
0000
,
0100
0000
0000
0000
,
1000
0000
0000
0000
,
0100
0000
0000
0000
,
0001
0000
0000
0000
,
0100
0000
0000
0000
,
0010
0000
0000
0000
,
0000
0000
0000
0000
,
1000
0000
0000
0000
,
0001
0000
0000
0000
,
0010
0000
0010
0000
,
0010
0000
0000
0000
,
0001
0000
0000
0000
,
1000
0000
0000
0000
,
0010
0000
0010
0000
,
0010
0000
0000
0000
,
0100
0000
0000
0000
,
0010
0000
0000
0000
,
1000
0000
1000
0000
,
1000
0000
0000
0000
,
0100
0000
0000
0000
,
0010
0000
0000
0000
,
0001
0000
0001
0000
,
0001
0000
0000
0000
,
0100
0000
0000
0000
,
0010
0000
0000
0000
,
0100
0000
0000
0000
,
0010
0000
0000
0000
,
1000
0000
0000
0000
,
0001
0000
0000
0000
,
1000
0000
0000
0000
,
0001
0000
0000
0000
,
1001
0000
0000
0000
,
0010
0000
0000
0000
,
0100
0000
0000
0000
,
0010
0000
0000
0000
,
1001
0000
0000
0000
,
0100
0000
0000
0000
,
0010
0000
0000
0000
,
0100
0000
0000
0000
,
1001
0000
0000
0000
,
0001
0000
0000
0000
,
1000
0000
0000
0000
,
0001
0000
0000
0000
,
1001
0000
0000
0000
,
1000
0000
0000
0000
,
0001
0000
0000
0000
,
1000
0000
0000
0000
,
2002
0000
0000
0000
,
0000
0000
0000
0000
,
3003
0000
0000
0000
;

//---------------dance-single - ----------------
#NOTES:
     dance-single:
     :
     Easy:
     4:
     0.203395,0.245382,0.036624,0.132763,0.000000,274.000000,8.000000,29.000000,0.000000,0.000000,0.000000,0.203395,0.245382,0.036624,0.132763,0.000000,274.000000,8.000000,29.000000,0.000000,0.000000,0.000000:
0000
0000
0000
0000
,
0000
0000
0000
0000
,
0000
0000
0000
0000
,
0000
0000
0000
0000
,
1000
0000
0000
0000
,
0001
0000
0000
0000
,
0100
0000
0000
0000
,
0010
0000
1000
0000
,
0001
0000
0000
0000
,
1000
0000
0000
0000
,
0100
0000
0000
0000
,
0010
0000
0001
0000
,
0100
0000
0100
0000
,
0010
0000
0010
0000
,
1000
0000
0001
0000
,
1000
0000
0001
0000
,
0010
0000
0100
0000
,
0010
0000
0100
0000
,
0020
0000
0000
0000
,
0030
0000
0000
1000
,
1000
0000
0000
0001
,
0001
0000
0000
0010
,
0010
0000
0100
0000
,
0010
0010
0010
0010
,
0010
0000
0000
0100
,
0100
0000
0000
1000
,
1000
0000
0001
0000
,
1000
1000
1000
1000
,
2000
0000
3000
0000
,
0002
0000
0003
0000
,
0020
0000
0030
0000
,
0002
0000
0003
0000
,
0200
0000
0300
0000
,
0020
0000
0030
0000
,
2000
0000
3000
0000
,
2002
0000
0000
3003
,
0010
0020
0000
0030
,
1000
0000
0001
0000
,
0010
0020
0000
0030
,
0001
0000
1000
0000
,
0100
0200
0000
0300
,
1000
0000
0001
0000
,
0100
0200
0000
0300
,
1000
0000
0001
0000
,
1001
0000
1000
0000
,
0010
0000
0100
0000
,
0010
0000
1000
0000
,
0001
0001
1000
1000
,
0010
0000
0100
0000
,
0001
0000
1000
0000
,
0100
0000
0010
0000
,
0001
0001
1000
1000
,
0001
0000
1000
1000
,
0000
0000
0001
0001
,
0001
0000
1000
0000
,
0010
0010
0100
0100
,
0010
0000
1000
1000
,
0000
0000
0001
0001
,
0001
0000
1000
0000
,
0100
0100
0010
0010
,
0001
1000
0000
0001
,
1000
1000
1000
0000
,
0010
0100
0000
0010
,
0100
0100
0100
0000
,
1000
0100
0000
1000
,
0100
1000
0100
0000
,
0001
0100
0000
0001
,
0100
0001
0100
0000
,
0000
1001
0000
0100
,
0010
0100
0010
0000
,
1000
0100
0000
0001
,
0100
0001
0100
0000
,
1000
0010
0000
0001
,
0010
0100
1000
0000
,
0001
1000
0000
1000
,
0020
0000
0030
0000
,
0100
0000
0010
0000
,
1000
0000
0001
0000
,
1000
0000
0010
0000
,
0100
0000
0010
0010
,
1000
0000
0001
0000
,
0010
0000
0001
0000
,
1000
0000
0010
0000
,
0100
0000
0010
0010
,
0100
0000
0010
0000
,
1000
0000
0001
0000
,
0010
0000
0001
0000
,
0100
0000
0010
0000
,
1000
0000
0100
0000
,
1000
0000
0100
0000
,
0020
0000
0000
0000
,
0030
0000
0000
1000
,
1000
0000
0000
0001
,
0001
0000
0000
0100
,
0010
0000
1000
0000
,
0001
0001
0001
0001
,
0001
0000
0000
1000
,
1000
0000
0000
0010
,
0100
0000
0010
0000
,
0100
0100
0100
0100
,
0100
0000
1000
0001
,
0000
0000
1000
1000
,
1000
0000
0001
0000
,
0010
0010
0100
0100
,
0010
0000
0001
1000
,
0000
0000
1000
1000
,
1000
0000
0001
0000
,
0100
0100
0010
0010
,
0200
0000
0300
0000
,
0020
0000
0030
0000
,
2000
0000
3000
0000
,
0002
0000
0003
0000
,
0220
0000
0330
0000
,
0220
0000
0330
0000
,
0220
0000
0000
0000
,
0330
0000
0000
0000
,
1000
0000
0100
0000
,
1000
0100
1000
0000
,
0010
0000
0001
0000
,
0010
0001
0010
0000
,
0100
0000
0010
0000
,
0001
1000
0001
0000
,
0100
0000
0010
0000
,
1000
0001
1000
0000
,
0000
1001
0000
0000
,
1000
0010
1000
0000
,
0001
0000
1000
0000
,
0001
0010
0001
0000
,
0100
0000
0010
0000
,
0100
0010
0100
0000
,
0010
0000
0100
0000
,
2002
0000
3003
0000
,
0020
0000
0000
0000
,
0000
0000
0000
0000
,
0030
0000
0000
0000
;

//---------------dance-single - ----------------
#NOTES:
     dance-single:
     :
     Medium:
     7:
     0.384554,0.398746,0.105294,0.320461,0.000000,495.000000,23.000000,70.000000,0.000000,0.000000,0.000000,0.384554,0.398746,0.105294,0.320461,0.000000,495.000000,23.000000,70.000000,0.000000,0.000000,0.000000:
0000
0000
0000
0000
,
0000
0000
0000
0000
,
0000
0000
0000
0000
,
0000
0000
0000
0000
,
1000
0000
0001
0100
,
0010
0000
0000
1000
0000
0000
0001
0000
,
1000
0000
0100
0000
,
0001
0010
0100
1000
,
0010
0000
1000
0001
,
0010
0000
0000
0001
0000
0000
1000
0000
,
0001
0000
0100
0000
,
1000
0010
0100
0001
,
1000
1000
0001
0001
,
1000
0100
0010
0100
,
1000
0010
0100
0001
,
0010
0001
0010
0001
,
0100
0010
1000
0001
,
1000
0010
0100
0001
,
0020
0000
0000
0000
,
0200
0000
0330
1000
,
0002
0000
0000
0103
,
0020
0000
0000
1030
,
0001
0010
0001
0100
,
0010
0000
1000
0000
0001
1000
0001
0000
,
0020
0000
0000
0130
,
2000
0000
0000
3001
,
0100
0010
1000
0001
,
1000
0000
0010
0000
0100
0010
0100
0000
,
0002
0013
2000
3010
,
0002
0103
2000
3100
,
0020
0031
2000
3100
,
0020
1030
0002
0103
,
1000
0100
1000
0000
0010
0000
0100
0000
,
0001
0001
1000
1000
,
0001
0010
0001
0000
0100
0000
0010
0000
,
1001
1001
0110
1001
,
0010
0010
0020
0000
0000
0000
0030
0000
,
0001
1000
0001
0000
0010
0000
0100
0000
,
1000
1000
2000
0000
0000
0000
3000
0000
,
0001
0000
0100
0000
0010
0010
0000
0000
,
0100
0100
0200
0000
0000
0000
0300
0000
,
0001
1000
0100
0010
,
0001
0001
0002
0000
0000
0000
0003
0000
,
1000
0000
0010
0000
0100
0100
0000
0000
,
1001
0100
0010
1000
,
0001
0000
0000
0010
0000
0000
1000
0000
,
0001
1000
0100
0010
,
0100
0000
1000
0000
0001
1000
0001
0000
,
0100
0010
1000
0001
,
1000
0000
0000
0010
0000
0000
0001
0000
,
1000
0100
0010
0001
,
1000
0000
0010
0000
0100
0001
0100
0000
,
0010
0010
2000
3001
,
0100
0100
0002
2003
,
3100
0010
0100
1000
,
0001
0000
1000
0000
0010
0100
0010
0000
,
1000
0001
0020
0130
,
0001
0100
0020
2030
,
3100
0010
0001
1000
,
1001
1001
0110
1001
,
1000
0100
0010
0000
0001
0000
0100
0000
,
0020
0130
0002
1003
,
0001
0010
0100
0000
1000
0000
0001
0000
,
2000
3010
0002
0013
,
1000
0001
0010
0000
0001
0000
0100
0000
,
0020
1030
0002
0103
,
0010
1000
0001
0000
0010
0000
0001
0000
,
2000
3200
0320
0032
,
0003
0110
1000
0001
,
2000
3010
0002
0013
,
1000
0100
0010
0000
0100
0000
1000
0000
,
0002
0013
2000
3010
,
0001
0100
0010
0000
1000
0000
0001
0000
,
2000
3100
0002
0103
,
1000
0001
0010
0000
0100
0000
1000
0000
,
0110
1001
0110
0000
,
1000
0100
0001
0100
,
1000
0000
0000
0010
0000
0000
0001
0000
,
1000
0100
0010
0001
,
0100
0010
1000
0001
,
0010
0001
0100
1000
,
0001
0000
0000
0010
0000
0000
1000
0000
,
0001
1000
0100
1000
,
0001
0100
0001
0010
,
0100
1000
0010
0010
,
0100
0001
0010
0010
,
0001
0100
0010
1000
,
0001
1000
0001
1000
,
0001
0010
0100
0010
,
0001
0100
0010
1000
,
0200
0000
0000
0000
,
0020
0000
0330
0001
,
2000
0000
0000
3100
,
0002
0000
0000
0103
,
1000
0010
0100
0001
,
0010
0000
0100
0000
1000
0001
1000
0000
,
0020
0000
0000
0130
,
0002
0000
0000
1003
,
0001
0010
0100
0010
,
1000
0000
0010
0000
0100
0010
0100
0000
,
0001
0001
2000
3100
,
0010
0010
0002
2003
,
3010
1000
0100
0001
,
0010
0000
0100
0000
0010
0100
0010
0000
,
0100
0100
0002
0013
,
0100
0100
2000
3020
,
0130
0001
1000
0001
,
0010
0000
0100
0000
1000
0001
1000
0000
,
0010
0010
0100
0100
,
0010
0100
0010
0100
,
1000
1000
0001
0001
,
1000
0001
1000
0001
,
2000
0100
0100
3100
,
0002
0100
0100
0103
,
0220
0000
0000
0330
,
1001
1001
0110
1001
,
0100
0000
1001
0000
0100
0010
0100
0000
,
0001
0000
0100
0010
0100
0000
0001
0000
,
1000
0000
0100
0000
0010
0001
0010
0000
,
0100
0000
0010
0001
0010
0000
0100
0000
,
1000
0000
0001
0000
1000
0100
1000
0000
,
0001
0000
1000
0100
1000
0000
0010
0000
,
0100
0000
0010
0000
0001
1000
0001
0000
,
0100
0000
0001
1000
0001
0000
0100
0000
,
0010
1000
0001
0000
0010
0000
0100
0000
,
0020
0032
2003
3020
,
1030
0100
0010
0000
0001
0000
1000
0000
,
0020
2030
3200
0320
,
0031
1000
0100
0000
1000
0000
0010
0000
,
0200
0302
0023
0230
,
1300
0010
0001
0010
,
0110
1001
0110
0000
,
2002
0000
0000
0000
,
0000
0000
0000
0000
,
3003
0000
0000
0000
;

//---------------dance-single - ----------------
#NOTES:
     dance-single:
     :
     Hard:
     10:
     0.552633,0.490764,0.160231,0.407444,0.018312,721.000000,35.000000,89.000000,4.000000,0.000000,0.000000,0.552633,0.490764,0.160231,0.407444,0.018312,721.000000,35.000000,89.000000,4.000000,0.000000,0.000000:
0000
0000
0000
0000
,
0000
0000
0000
0000
,
0000
0000
0000
0000
,
0000
0000
0000
0000
,
1000
0000
0100
0001
,
0020
0000
0000
0230
0000
0000
1300
0000
,
0001
0100
1000
0001
,
1000
0100
0010
0000
0001
0000
0100
0000
,
0010
0000
1000
0001
,
2000
0000
0000
3020
0000
0000
0130
0000
,
0001
0010
1000
0001
,
1000
0100
0010
0000
0001
0000
1000
0000
,
0010
0000
0100
0000
0001
0100
0001
0000
,
0010
0000
0100
0000
1000
0100
1000
0010
,
0100
0000
0001
1000
0001
0000
0010
0100
,
0020
0032
0203
0320
,
1030
0000
0100
0000
0001
0000
0100
1000
,
0010
0100
0001
0000
1000
0000
0100
0010
,
0100
0000
0010
0000
0001
0000
1000
0020
,
0200
0000
0330
0100
,
0001
0010
0001
0010
0002
0000
1003
0000
,
1000
0010
1000
0010
2000
0000
3001
0000
,
0010
0000
0100
1000
0001
0000
0100
0001
,
1000
0000
0010
0100
0001
1000
0010
0000
,
0100
0001
0100
0001
0200
0000
0310
0000
,
1000
0010
1000
0010
2000
0000
3100
0000
,
0010
0000
0001
1000
0010
0000
1000
0001
,
0010
0000
1000
0100
0010
0001
0100
0000
,
0020
2030
3200
0320
,
0032
2003
3020
0032
,
0023
2030
3200
0302
,
0203
0320
2030
3002
,
1003
0100
0020
0000
0031
0100
0020
0000
,
1030
0001
0020
0000
0031
1000
0020
0000
,
1030
0001
0200
0000
0301
1000
0200
0000
,
0310
1100
1001
0101
,
0010
1000
0020
0000
0000
0000
0000
0130
,
0001
0010
0001
0010
0100
1000
0010
0100
,
0001
1000
0020
0000
0000
0000
0000
0130
,
0010
1000
0010
0100
0001
0200
0000
0310
,
0001
0010
2000
0000
0000
0000
0000
3001
,
1000
0100
1000
0001
0100
0010
1000
0001
,
1000
0010
0002
0000
0000
0000
0000
1003
,
0100
0010
0100
0010
0001
0200
0000
0310
,
1000
0100
0010
0100
,
1000
0001
0100
0010
0000
0010
0100
0000
,
0001
0000
0010
0100
1000
0000
0010
0100
,
0001
0000
1000
0100
0010
0100
1000
0000
,
0001
0100
1000
0010
,
0001
0100
0010
0100
0000
0100
0001
0000
,
1000
0000
0100
0010
0001
0000
0100
0010
,
1000
0000
0001
0010
0100
0010
0001
0000
,
1000
0001
1000
0000
0120
0000
1030
0000
,
0001
1000
0001
0000
0120
0000
0100
0000
,
0130
0000
1000
0010
0100
0000
0001
0010
,
0100
0000
1000
0010
0100
0001
1000
0000
,
0001
0010
1200
0310
,
1000
0010
0201
0001
,
0301
0000
1000
0010
0100
0001
0010
0100
,
0010
1100
1001
0101
,
1000
0100
0010
0100
1000
0100
0001
0000
,
0201
0310
1200
0310
,
0001
0010
0100
0010
0001
0100
1000
0000
,
1020
0130
0021
0130
,
1000
0001
0010
0001
0100
0010
1000
0000
,
1200
1300
0201
0301
,
1000
0001
0010
0001
1000
0010
0100
0000
,
0001
0100
0010
0100
0010
0000
1001
0000
,
0000
0010
1001
0000
1000
0100
0010
0000
,
0102
1003
2100
3001
,
1000
0100
0010
0001
0100
0010
1000
0000
,
1020
0130
0201
0310
,
1000
1000
1000
0100
0010
0001
0100
0000
,
0201
0310
1200
0310
,
1000
0010
1000
0100
0010
0001
0100
0000
,
0010
0100
0010
0100
0010
0100
0010
0000
0000
0100
0000
0000
,
1001
0000
1000
0000
0100
0010
0001
0000
,
0100
0000
0010
1000
0000
1000
0001
0000
,
1000
0000
0001
0000
0010
0100
1000
0001
,
0020
0000
0230
0000
2300
0000
3001
0100
,
0010
0000
1000
0000
0001
0010
0100
0000
,
1000
0000
0010
0100
0000
0100
0001
0000
,
1000
0000
0100
0000
0001
0010
1000
0000
,
0200
0000
0320
0000
0032
0000
1003
0010
,
0100
0000
0001
1000
0100
1000
0001
0000
,
1000
0000
0010
0100
0001
1000
0010
0000
,
1000
0000
0100
0010
0001
0010
0100
1000
,
0020
0000
2030
0000
3002
0000
0013
0100
,
0010
0000
1000
0100
0010
0001
0100
0010
,
1000
0000
0001
0010
0001
0100
0010
1000
,
0001
0000
0010
0000
1000
0000
0001
0200
,
0020
0000
0330
0100
,
0001
0010
0001
0010
0002
0000
0103
0000
,
1000
0010
1000
0010
2000
0000
3100
0000
,
0001
0010
0100
1000
0100
1000
0100
1000
,
0100
0010
0001
0100
0010
1000
0001
0000
,
0100
0010
0100
0010
0200
0000
0310
0000
,
0001
1000
0001
1000
0002
0000
1003
0000
,
1000
0100
0010
0001
0010
0001
0010
0001
,
0010
0100
1000
0001
0100
0010
1000
0000
,
0001
1000
0001
0000
0120
0000
1030
0000
,
0001
1000
0001
0000
0210
0000
0010
0000
,
0310
0000
0001
1000
0100
0000
1000
0001
,
0100
0000
0001
1000
0100
0010
0001
0000
,
1000
0010
1000
0000
1200
0000
0310
0000
,
0001
0100
0001
0100
0001
0010
0001
0010
,
0001
0000
1000
0010
0100
0000
0001
0010
,
0100
0000
1000
0010
0100
0001
0010
0000
,
1000
0100
1000
0000
0001
0100
0001
0000
,
1000
0010
1000
0000
0001
0010
0001
0000
,
1000
0010
1000
0000
0010
0100
0010
0000
,
0100
0001
0100
0000
0001
1000
0001
0000
,
0010
0100
0010
0100
0010
0100
1001
0000
,
0100
0010
0100
0010
0100
0010
1001
0000
,
0010
0100
0001
0010
0100
1000
0010
0100
,
0010
1100
1001
0101
,
MMMM
0000
2000
0000
3100
0010
0001
0100
,
0002
0000
1003
0010
0100
0010
0001
0100
,
0020
0000
1030
0000
0001
0010
0100
0010
,
0002
0000
0103
0001
1000
0100
0010
0100
,
2000
0000
3010
0100
0001
0010
0100
0000
,
0020
0000
0031
0100
0001
1000
0100
0010
,
0002
0000
1003
0010
0100
0010
1000
0001
,
0010
0100
0010
0100
0010
0001
1000
0000
,
0000
0010
1001
0000
0100
0010
1000
0100
,
0020
0000
0031
0100
0001
0010
0100
1000
,
0020
0000
1030
0000
0001
0010
0100
1000
,
0020
0000
1030
0100
0010
0100
1000
0010
,
0100
0001
0100
0001
0010
0001
0010
0000
,
0200
0000
1300
0001
0010
0001
0100
0010
,
1000
0000
0100
0000
0010
0001
0100
0000
,
0010
0100
0010
0100
0010
0100
0010
0000
0000
0100
0000
0000
,
2002
0000
0000
0000
,
0000
0000
0000
0000
,
3003
0000
0000
0000
;

//---------------dance-single - ----------------
#NOTES:
     dance-single:
     :
     Challenge:
     13:
     0.655311,0.644128,0.279259,0.306727,0.091560,874.000000,61.000000,67.000000,4.000000,0.000000,2.000000,0.655311,0.644128,0.279259,0.306727,0.091560,874.000000,61.000000,67.000000,4.000000,0.000000,2.000000:
// measure 0
0000
0000
0000
0000
,  // measure 1
0000
0000
0000
0000
,  // measure 2
0000
0000
0000
0000
,  // measure 3
0000
0000
0000
0000
,  // measure 4
0010
0000
0100
0000
0001
0010
0001
0000
,  // measure 5
0100
0000
0010
1000
0000
1000
0001
0000
,  // measure 6
1000
0000
0100
0000
0001
0000
0010
0100
,  // measure 7
0020
0000
0031
0000
0200
0000
0310
0010
,  // measure 8
1000
0000
0001
0000
1000
0100
0010
0000
,  // measure 9
0001
0000
0100
0010
0000
0010
1000
0000
,  // measure 10
0100
0000
0010
0000
0001
0000
1000
0001
,  // measure 11
0020
0000
0130
0000
2000
0000
3001
0001
,  // measure 12
0010
0000
0110
0000
0100
1000
0100
0000
,  // measure 13
0010
0000
0011
0000
0001
0100
0001
0010
,  // measure 14
0100
0000
1000
0001
0100
0000
0001
1000
,  // measure 15
0200
0000
0001
0000
0010
0010
0310
0000
,  // measure 16
1000
0000
0001
0000
0100
0010
1000
0010
,  // measure 17
0100
0001
0010
0000
0100
0000
1000
0001
,  // measure 18
0010
0100
0010
0100
0010
0100
0010
0002
,  // measure 19
2000
0000
3003
0010
,  // measure 20
1000
0100
0001
0100
1000
0010
0100
0000
,  // measure 21
0100
0001
0010
0001
0100
0010
1000
0000
,  // measure 22
0001
0000
0001
0010
0100
0000
0100
1000
,  // measure 23
0010
0000
0010
0100
0010
0010
0010
0000
,  // measure 24
1000
0001
0010
0001
1000
0010
0100
0000
,  // measure 25
0100
0010
0100
0001
0010
0100
1000
0000
,  // measure 26
0001
0000
1000
0010
0100
0000
0100
0001
,  // measure 27
0010
0000
0010
0100
0010
0010
0010
0000
,  // measure 28
0002
0100
0103
0010
2000
0100
3100
0010
,  // measure 29
0002
1000
1003
0010
0200
0010
0310
1000
,  // measure 30
0002
0010
0013
0100
2000
0010
3010
0100
,  // measure 31
0002
1000
1003
0100
2000
0001
3001
0100
,  // measure 32
0020
0100
0130
1000
0002
0100
0103
0010
,  // measure 33
2000
0100
3100
0010
0002
1000
1003
0010
,  // measure 34
2000
0010
3020
0100
0230
0001
0301
0000
,  // measure 35
0011
0000
1100
1000
1010
0000
0101
0000
,  // measure 36
1000
0000
0100
0010
0200
0000
0000
0000
0000
0000
0000
0000
0000
0000
0310
0000
,  // measure 37
0001
0000
1000
0010
1000
0000
0001
0000
1000
0000
0100
0000
0001
0000
0100
0000
,  // measure 38
1000
0000
0010
0100
0020
0000
0000
0000
0000
0000
0000
0000
0000
0000
1030
0000
,  // measure 39
0001
0000
1000
0100
1000
0000
0001
0000
0200
0000
0020
0000
0330
0000
1000
0000
,  // measure 40
0001
0000
0010
0100
0020
0000
0000
0000
0000
0000
0000
0000
0000
0000
0031
0000
,  // measure 41
1000
0000
0010
0100
0010
0000
1000
0000
0001
0000
0010
0000
1000
0000
0010
0000
,  // measure 42
0001
0000
0100
0010
0200
0000
0000
0000
0000
0000
0000
0000
0000
0000
0301
0000
,  // measure 43
1000
0000
0100
0010
0100
0000
1000
0001
2000
0000
0002
0000
3003
0000
1000
0000
,  // measure 44
0001
0000
0100
0010
0100
0000
0001
0000
0010
0000
0100
0000
1000
0000
0001
0000
,  // measure 45
1000
0100
0001
0100
0000
0100
1000
0000
,  // measure 46
0010
0000
0100
0001
0100
0000
0010
0000
1000
0000
0100
0000
0010
0000
0100
0000
,  // measure 47
1000
0010
1000
0001
0010
0100
0010
0000
,  // measure 48
0001
0000
1000
0100
1000
0000
0010
0000
0100
0000
0001
0000
0010
0000
1000
0000
,  // measure 49
0001
0100
1000
0100
0000
0100
0001
0000
,  // measure 50
1000
0000
0001
0010
0001
0000
0100
0000
0010
0000
1000
0000
0001
0000
1000
0000
,  // measure 51
0100
0010
0001
0010
0100
1000
0010
0000
,  // measure 52
0100
0000
0010
1000
0010
0000
0100
0000
0002
0000
0010
0000
0013
0000
1000
0000
,  // measure 53
0001
0000
1000
0100
1000
0000
0010
0000
0200
0000
0001
0000
0302
0000
1000
0000
,  // measure 54
1003
0000
0001
0100
0001
0000
0010
0000
0100
0000
0010
0000
0001
0000
0100
0000
,  // measure 55
0010
1000
0001
1000
0010
0100
0001
0010
,  // measure 56
0100
0000
1000
0100
1000
0000
0010
0000
0200
0000
0001
0000
0301
0000
0010
0000
,  // measure 57
0100
0000
1000
0001
1000
0000
0010
0000
2000
0000
0001
0000
3002
0000
0010
0000
,  // measure 58
0013
1000
0100
0010
0001
0100
0010
1000
,  // measure 59
0001
0100
1000
0100
0010
0100
1001
0000
,  // measure 60
1010
1000
1010
0000
0012
0000
0103
0000
,  // measure 61
1000
0000
0100
0010
0100
0000
1000
0000
0001
0000
0100
0000
1000
0000
0100
0000
,  // measure 62
0101
0001
0101
0000
2100
0000
3010
0000
,  // measure 63
0100
0000
0001
1000
0001
0000
0010
0000
0100
0000
1000
0000
1001
0000
0000
0000
,  // measure 64
0110
0010
0110
0000
1002
0000
0103
0000
,  // measure 65
1000
0000
0001
0010
0001
0000
0100
0000
0010
0000
1000
0000
0001
0000
1000
0000
,  // measure 66
1001
0001
1001
0000
0120
0000
1030
0000
,  // measure 67
0001
0010
0001
0000
1000
0010
1000
0010
1000
0000
0001
0000
1001
0000
0000
0000
,  // measure 68
0000
0110
0110
0000
1200
0000
0310
0000
,  // measure 69
0001
0000
1000
0100
1000
0000
0010
0000
0100
0000
0001
0000
1000
0000
0001
0000
,  // measure 70
1001
1000
1001
0000
0102
0000
0013
0000
,  // measure 71
1000
0000
0010
0100
0010
0000
1000
0000
0001
0000
0010
0000
0100
0000
1000
0000
,  // measure 72
1010
0010
1010
0000
1200
0000
0310
0000
,  // measure 73
0001
0000
1000
0100
1000
0000
0001
0000
0010
0000
0100
0000
0010
0000
0100
0000
,  // measure 74
0110
0010
0110
0000
1002
0000
0103
0000
,  // measure 75
1000
0000
0100
0000
0010
0000
0001
0000
0100
0000
0010
0000
1000
0000
0000
0001
0000
0000
1000
0000
0000
0000
0000
0000
,  // measure 76
1000
0100
1000
0100
0001
0100
1000
0100
,  // measure 77
0001
0010
0100
0010
0100
0010
0001
0000
,  // measure 78
1000
0010
1000
0010
0100
0001
0100
0001
,  // measure 79
1000
0100
0010
0001
0100
0010
1000
0001
,  // measure 80
0010
0100
0010
0100
0010
0001
0100
0001
,  // measure 81
0010
0100
1000
0100
0010
0100
1000
0000
,  // measure 82
0001
0100
0001
0100
1000
0100
1000
0100
,  // measure 83
0010
0001
1000
0001
0010
0100
1000
0010
,  // measure 84
0100
0000
0101
0000
0010
0100
0010
0000
,  // measure 85
0001
0000
1100
0000
1000
0010
0100
0001
,  // measure 86
1000
0000
0100
0010
0001
0000
0100
0010
,  // measure 87
2000
0000
0100
0000
0010
0000
3001
1000
,  // measure 88
0001
0000
1000
0000
0100
0010
0100
1000
,  // measure 89
0001
0100
0010
0000
1000
0000
0001
0010
,  // measure 90
0100
0010
0100
0010
0100
0010
0100
2000
,  // measure 91
0002
0000
3003
1001
,  // measure 92
0100
0010
0100
0001
0010
0100
1000
0000
,  // measure 93
1000
0100
0010
0001
1000
0010
0100
0000
,  // measure 94
0001
0000
1000
0100
0001
0000
1000
0010
,  // measure 95
0100
0000
0001
0010
0100
1000
0010
0000
,  // measure 96
1000
0001
0010
0001
1000
0010
0100
0000
,  // measure 97
0100
0001
0010
0001
0100
0010
1000
0000
,  // measure 98
0010
0000
0001
0100
1000
0000
0001
0010
,  // measure 99
0100
0000
1000
0010
0100
0010
1000
0000
,  // measure 100
0001
0010
0100
0010
2000
0010
3010
0100
,  // measure 101
0001
1000
0100
1000
0002
0010
0023
0100
,  // measure 102
0130
1000
0001
0100
1000
0100
0001
1000
,  // measure 103
0100
0010
0100
1000
0001
0010
0001
0001
,  // measure 104
0100
0010
1000
0010
0200
0001
0301
0010
,  // measure 105
0001
0100
0010
1000
0200
0010
0320
0001
,  // measure 106
0031
0100
1000
0100
0001
0010
0100
1000
,  // measure 107
0010
0100
0010
1000
0010
0100
0010
0010
,  // measure 108
1000
0100
2000
0000
3001
0100
0002
0000
,  // measure 109
0013
0100
0020
0000
0031
1000
0002
0000
,  // measure 110
0103
0010
2000
0000
3100
0010
0002
0000
,  // measure 111
0103
0010
0200
0000
0301
1000
0002
0000
,  // measure 112
1003
1000
0001
0001
1000
0001
2002
3003
,  // measure 113
0100
0100
0010
0010
0100
0010
0220
0330
,  // measure 114
4000
0004
0000
0000
0000
0000
0000
0000
0000
0000
0000
0000
0000
0000
3003
0000
,  // measure 115
0011
1100
1010
0101
,  // measure 116
MMMM
0000
1100
0000
0011
0001
0100
0010
,  // measure 117
1010
0000
1100
0100
0010
0010
0001
1000
,  // measure 118
0010
0000
0100
0001
0100
0010
0100
1000
,  // measure 119
0100
0010
0001
0100
0010
1000
0001
0010
,  // measure 120
0011
0000
1100
0000
0101
0100
0010
1000
,  // measure 121
1001
0000
0000
0000
1100
0000
0100
0000
0010
0000
0010
0000
0001
0000
1000
0010
,  // measure 122
1000
0000
0100
0001
0010
0001
0100
1000
,  // measure 123
0010
0100
0010
0000
1000
0000
0010
0100
0010
0000
1000
0000
1001
0000
0000
0000
,  // measure 124
0000
1001
1001
0000
1100
0100
0010
0001
,  // measure 125
0101
0000
1100
1000
0010
0010
0100
0001
,  // measure 126
0010
0000
0001
0100
0001
1000
0100
1000
,  // measure 127
0010
0100
0001
0010
0100
0010
0001
0100
,  // measure 128
0110
0000
0010
0000
1000
0001
1000
0000
0010
0000
0010
0000
1000
0000
0000
0000
,  // measure 129
0011
0000
1100
0100
0010
0100
1000
0001
,  // measure 130
0100
0000
0010
1000
0100
0010
0001
0000
,  // measure 131
1000
0000
0100
0000
0010
0000
0001
0000
0100
0000
0010
0000
1000
0000
0000
0001
0000
0000
1000
0000
0000
0000
0000
0000
,  // measure 132
2002
0000
0000
0000
,  // measure 133
0000
0000
0000
0000
,  // measure 134
3003
0000
0000
0000
;
