#TITLE:Screamroom;
#SUBTITLE:;
#ARTIST:Xtrullor;
#TITLETRANSLIT:;
#SUBTITLETRANSLIT:;
#ARTISTTRANSLIT:;
#GENRE:;
#CREDIT:;
#BANNER:screamroom-bn.png;
#BACKGROUND:screamroom-bg.png;
#LYRICSPATH:;
#CDTITLE:arsa-cd.png;
#MUSIC:Screamroom.ogg;
#OFFSET:-0.273000;
#SAMPLESTART:2.140000;
#SAMPLELENGTH:12.000000;
#SELECTABLE:YES;
#DISPLAYBPM:*;
#BPMS:0.000000=128.000000
,68.000000=64.000000
,83.000000=512.000000
,91.000000=128.000000
,135.000000=64.000000
,136.000000=512.000000
,144.000000=128.000000
,221.000000=64.000000
,237.000000=128.000000
,269.000000=32.000000
,273.000000=1024.000000
,394.000000=128.000000
,438.000000=64.000000
,439.000000=512.000000
,447.000000=128.000000
;
#STOPS:156.000000=1.420000,
393.000000=0.400000,
459.000000=1.400000
;
#BGCHANGES:;
#KEYSOUNDS:;
#ATTACKS:;

//---------------dance-single - ----------------
#NOTES:
     dance-single:
     :
     Beginner:
     4:
     0.132940,0.178361,0.025495,0.110480,0.002125,187.000000,6.000000,26.000000,0.000000,0.000000,0.000000,0.132940,0.178361,0.025495,0.110480,0.002125,187.000000,6.000000,26.000000,0.000000,0.000000,0.000000:
0000
0000
0000
0000
,
1000
0000
0100
0000
,
0010
0000
0000
0000
,
0001
0000
0100
0000
,
0010
0000
0000
0000
,
1000
0000
0001
0000
,
1000
0000
1000
0000
,
0001
0000
1000
0000
,
0001
0000
0001
0000
,
1001
0000
0000
0000
,
0100
0000
0100
0000
,
1001
0000
0000
0000
,
0010
0000
0010
0000
,
1001
0000
0000
0000
,
1000
0000
0001
0000
,
1001
0000
0000
0000
,
0001
0000
1000
0000
,
1001
0000
0100
0000
,
0010
0000
0100
0000
,
0001
0001
1000
0000
,
1000
1000
0001
0000
,
0000
0000
0000
0000
,
0000
0000
0000
0000
,
0000
1000
1000
0000
,
0001
0001
0001
0000
,
0000
1000
1000
1000
,
0000
0001
0000
0100
,
0000
0010
0010
0000
,
0100
0100
0100
0000
,
0000
0010
0010
0010
,
0000
0100
0000
0001
,
0000
1000
1000
0000
,
0001
1000
1000
0000
,
0000
1000
0001
0001
,
1000
0000
0000
0000
,
0000
0000
0000
0000
,
0000
0000
0001
1000
,
0000
1000
0001
1000
,
2000
0000
0000
3000
,
0000
0000
0020
0000
,
0000
0030
0200
0000
,
0000
0300
0020
0000
,
0000
0030
0100
0000
,
0100
0000
2000
0000
,
0000
3000
0002
0000
,
0000
0003
1000
0000
,
1000
0000
0001
0000
,
0001
0000
0020
0000
,
0000
0030
0200
0000
,
0000
0300
2000
0000
,
0000
3000
0001
0000
,
0001
0000
0020
0000
,
0000
0030
0200
0000
,
0000
0300
1000
0000
,
0001
0000
1000
0000
,
0001
0002
0000
0000
,
0003
2000
0000
0000
,
3000
0020
0000
0000
,
0030
0200
0000
0000
,
0300
0001
0000
0001
,
0000
1000
0000
0010
,
0000
1000
0000
1000
,
0000
0001
0000
0010
,
0000
0001
0000
0100
,
0000
0010
0000
1000
,
0000
0100
0000
0010
,
0000
0001
0000
1000
,
1000
1000
0000
0000
,
0000
0000
0000
0000
,
0000
0000
0000
0000
,
0000
0000
0000
0000
,
0000
0000
0000
0000
,
0000
0000
0000
0000
,
0000
0000
0000
0000
,
0000
0000
0000
0000
,
0000
0000
0000
0000
,
0000
0000
0000
0000
,
0000
0000
0000
0000
,
0000
0000
0000
0000
,
0000
0000
0000
0000
,
0000
0000
0000
0000
,
0000
0000
0000
0000
,
0000
0000
0000
0000
,
0000
0000
0000
0000
,
0000
0000
0000
0000
,
0000
0000
0000
0000
,
0000
0000
0000
0000
,
0000
0000
0000
0000
,
0000
0000
0000
0000
,
0000
0000
0000
0000
,
0000
0000
0000
0000
,
0000
0000
0000
0000
,
0000
0000
0000
0000
,
0000
0000
0000
0000
,
0000
0000
0000
0000
,
0000
0000
0000
0000
,
0000
0000
0000
0000
,
0000
0000
0000
0000
,
0000
0000
0000
0000
,
1000
1000
0000
0001
,
0001
0001
0000
0000
,
1000
1000
1000
0000
,
0100
0000
0010
0000
,
0100
0100
0000
0010
,
0010
0010
0000
0100
,
0000
0100
0100
0000
,
0010
0000
1000
0000
,
0001
1000
0000
1000
,
0001
0001
0000
0000
,
0001
1000
1000
0000
,
0000
0000
0000
0000
,
0000
0000
0000
0000
,
0000
0100
0010
0000
,
1000
0001
1000
0000
,
0001
0000
1000
0000
,
0000
0200
0000
0000
,
0300
0020
0000
0000
,
0030
0200
0000
0000
,
0300
0010
0000
0010
,
0000
2000
0000
0000
,
3000
0002
0000
0000
,
0003
1000
0000
1000
,
1000
0000
0001
0000
,
0000
0200
0000
0000
,
0300
0020
0000
0000
,
0030
2000
0000
0000
,
3000
0001
0000
0100
,
0000
0002
0000
0000
,
0003
2000
0000
0000
,
3000
0100
0000
0010
,
0000
0100
0000
0010
,
0010
0010
0000
0001
,
0000
0010
0000
0001
,
0000
1000
0000
0100
,
0000
1000
0000
0100
,
0000
0010
0000
0001
,
0000
0100
0000
0010
,
0020
0000
0000
0000
,
0000
0000
0000
0000
,
0030
0000
0000
0000
0000
0000
0000
0000
0000
0000
0000
1001
;

//---------------dance-single - ----------------
#NOTES:
     dance-single:
     :
     Easy:
     8:
     0.310800,0.475630,0.229458,0.135975,0.008498,426.000000,54.000000,32.000000,30.000000,0.000000,0.000000,0.310800,0.475630,0.229458,0.135975,0.008498,426.000000,54.000000,32.000000,30.000000,0.000000,0.000000:
0000
0000
0000
0000
,
1000
1000
0100
0100
,
1000
0010
0100
0001
,
0010
0010
0001
0001
,
0100
0010
0100
0010
,
1000
0100
1000
0001
,
0010
0001
0100
0010
,
1000
0100
0001
0100
,
1000
0010
0100
0100
,
0001
0001
0000
0000
1000
0000
0100
0000
,
0010
0010
0000
0100
0010
0000
0010
0000
,
0001
0001
0000
0000
1000
0000
0100
0000
,
1000
0010
0000
0010
1000
0000
1000
0000
,
0001
0001
0000
0000
0010
0000
0100
0000
,
1000
1000
0000
0001
1000
0000
1000
0000
,
0010
0010
0000
0000
0100
0000
0010
0000
,
1000
0001
0000
0001
1000
0000
0001
0000
,
0010
0000
0100
0100
0000
0010
0010
0000
,
0001
0000
0000
0000
1000
0000
0000
0000
0000
0010
0000
0010
0000
0010
0000
0000
,
0001
1000
0001
0000
1000
0001
1000
0000
,
0010
0100
0010
0020
,
0000
0000
0000
0000
,
0000
0000
0000
0030
,
1000
0000
1100
0000
1100
0000
1000
0001
,
0100
0101
1001
0010
,
0100
0000
0110
0000
0110
0000
1000
0100
,
1000
0000
0001
0100
0001
0000
1000
0000
,
0010
0000
0101
0000
0101
0000
0001
0010
,
0100
1100
0110
0001
,
1000
0000
0100
0000
0001
0000
1000
0010
,
0000
0001
0010
0000
1000
0001
1000
0000
,
0100
0000
0011
0000
1100
0000
0010
0001
,
0100
1010
0101
0010
,
1000
0000
1001
0000
0110
0000
1000
0001
,
2002
0000
0000
0000
,
0000
0000
0000
0000
,
3003
1000
1100
1100
,
0010
0001
1000
0000
1010
0000
0110
0000
,
0001
1000
0100
0001
,
0010
0001
0200
0001
,
0301
0010
0200
1000
,
1300
0010
2000
0001
,
3001
2001
3002
2003
,
3002
1003
0020
0100
,
1030
1000
0200
0010
,
1300
0001
0100
1000
,
0100
0000
0001
0000
0010
0000
1000
0010
,
0100
0000
0001
0000
0010
0000
0100
1000
,
0100
0000
1000
0000
0010
0000
0100
0001
,
0100
0000
0001
0000
0010
0000
0100
1000
,
0001
2000
3200
0320
,
0032
0000
1003
0000
0001
0000
0100
0010
,
0100
0000
0001
0000
1000
0000
0100
0010
,
0100
1000
0010
0001
,
0100
0001
0010
1000
,
0100
0020
0000
0230
,
0000
2300
0000
3002
,
0000
0203
0000
0302
,
0000
2003
0000
3200
,
0000
0000
0310
0000
0010
0000
0001
0100
,
0001
0000
0010
0000
0010
0000
1000
0100
,
1000
0000
0010
0000
0100
0000
0001
0010
,
0100
0000
0010
0000
0100
0000
0010
1000
,
0100
0000
0001
0001
0001
0000
1000
1000
,
1000
0000
0001
0001
0001
0000
1000
1000
,
1000
0001
1000
0010
,
0100
0001
1000
0100
,
0110
1001
0000
0000
,
0000
M000
0000
0000
,
0000
000M
0000
0000
,
0000
M000
0000
0000
,
0000
000M
0000
0000
,
0000
M000
0000
0000
,
0000
000M
0000
0000
,
0000
M000
0000
0000
,
0000
000M
0000
0000
,
0000
M000
0000
0000
,
0000
000M
0000
0000
,
0000
M000
0000
0000
,
0000
000M
0000
0000
,
0000
M000
0000
0000
,
0000
000M
0000
0000
,
0000
M000
0000
0000
,
0000
000M
0000
0000
,
0000
M000
0000
0000
,
0000
000M
0000
0000
,
0000
M000
0000
0000
,
0000
000M
0000
0000
,
0000
M000
0000
0000
,
0000
000M
0000
0000
,
0000
M000
0000
0000
,
0000
000M
0000
0000
,
0000
M000
0000
0000
,
0000
000M
0000
0000
,
0000
M000
0000
0000
,
0000
000M
0000
0000
,
0000
M000
0000
0000
,
0000
000M
0000
0000
,
0000
0000
0000
1000
,
1100
0000
1100
0000
0010
0100
0010
0000
,
0011
1100
0010
0001
,
0101
0000
1010
0000
0100
0001
0100
0000
,
0010
1000
0010
0000
0100
0000
0001
0000
,
0011
0000
1100
0000
0010
0001
0100
0000
,
1010
0101
0010
1000
,
0100
0000
1000
0000
0010
0100
0000
0001
,
1000
0000
0100
0010
0100
0000
1000
0000
,
1010
0000
1010
0000
0100
0001
0010
0000
,
0011
0011
0100
1000
,
1100
0000
0101
0000
1000
0001
2002
0000
,
0000
0000
0000
0000
,
0000
0000
0000
3003
,
0010
0000
0110
0000
1010
0000
0100
0001
,
1000
1100
0011
0001
,
0100
1000
0010
0000
,
1000
0200
0010
0310
,
0001
0200
0010
0310
,
1000
0002
0010
0013
,
1000
0010
0001
0010
,
1000
0002
0100
1003
,
1000
2000
0100
3001
,
1000
0100
0010
0001
,
0100
0010
1000
0001
,
1000
0000
0001
0000
0100
0010
1000
0000
,
0001
0000
1000
0000
0100
0010
0001
0000
,
1000
0000
0010
0000
0100
0001
1000
0000
,
0100
0010
0100
0010
,
0001
0000
1000
0000
0001
0010
0100
0000
,
1000
0000
0001
0000
1000
0010
0100
0000
,
0001
1000
0100
0001
,
1000
0001
1000
0010
,
0001
0101
0000
1100
,
0000
1010
0000
0011
,
0000
0101
0000
0110
,
0000
1010
0000
1001
,
1000
1000
0001
0001
,
0010
0010
0100
0100
,
0020
0000
0000
0000
,
0000
0000
0000
0000
,
0030
0000
0000
0000
0000
0000
0000
0000
0000
0000
0000
1001
;

//---------------dance-single - ----------------
#NOTES:
     dance-single:
     :
     Medium:
     10:
     0.427351,0.505357,0.331440,0.080735,0.155097,607.000000,78.000000,19.000000,121.000000,0.000000,0.000000,0.427351,0.505357,0.331440,0.080735,0.155097,607.000000,78.000000,19.000000,121.000000,0.000000,0.000000:
0000
0000
0000
0000
,
1000
0001
0000
0010
0000
0001
0000
0100
,
0000
0010
0000
1000
0000
0001
1000
0100
,
0010
0001
0000
0100
0010
0100
0010
0100
,
0000
1000
0000
0100
0000
0010
0000
0001
,
1000
0000
0100
0000
0001
0100
0001
0000
,
1000
0000
0100
0000
0010
0001
0010
0000
,
0100
1000
0010
0100
,
0001
0000
1000
0100
0002
0000
2003
0000
,
3001
0001
0000
1000
0000
0001
0001
0000
,
1000
0010
0000
0001
0010
0000
0110
0000
,
1000
1000
0000
0001
0000
1000
1000
0000
,
0010
0100
0000
0001
1000
0100
0010
0001
,
0010
0010
0000
0100
0000
0010
0010
0000
,
0001
0100
0000
1000
0100
0000
0110
0000
,
0001
1000
0000
0100
0000
1000
0001
0000
,
1000
0100
0010
0001
0100
0000
0110
0000
,
1000
0000
0001
0000
1000
0100
1000
0000
0001
0000
1000
0000
0010
0100
0000
0000
,
0001
0000
0010
0000
0100
0000
1000
0000
0010
0100
0000
0100
0000
0100
0000
0100
,
0010
1000
0001
1000
0100
0010
0001
1000
,
0001
0010
0001
0000
1000
0010
1000
0000
0100
0010
0100
0010
0200
0000
0000
0000
,
0000
0000
0000
0000
,
0000
0000
0000
0300
,
0110
0000
0000
0000
0010
0001
0000
0000
0011
0000
0000
0000
1000
0000
0010
0000
,
0100
0001
0000
0000
0001
1000
0000
0000
1001
0000
0000
0000
0001
0000
0000
0000
,
1100
0000
0000
0000
1000
0001
0000
0000
1001
0000
0000
0000
1000
0000
0010
0000
,
1000
0010
0100
0001
0100
0001
1000
0000
,
0110
0000
0000
0000
0001
1000
0000
0000
1001
0000
0000
0000
0010
0000
0100
0000
,
0010
1000
0000
0000
1000
0001
0000
0000
1001
0000
0000
0000
1000
0100
0000
0000
,
0100
0010
0000
0000
0010
0001
0000
0000
0001
1000
0000
0000
1100
0000
0100
0000
,
0000
0101
0100
0010
0000
1001
1000
0000
,
0101
0000
0000
0000
1000
0100
0000
0000
1100
0000
0000
0000
1000
0000
0010
0000
,
0100
0001
0000
0000
0001
1000
0000
0000
1100
0000
0000
0000
0010
0000
0000
0000
,
0110
0000
0000
0000
1000
0100
0000
0000
1100
0000
0000
0000
1000
0001
1000
0001
,
0020
0000
0000
0000
,
0000
0000
0000
0000
,
0030
0000
0000
0000
0011
0000
0000
0000
1000
0100
0000
0000
0011
0000
0000
0000
,
0001
0000
0100
0000
0010
0100
0000
0000
0100
0001
0000
0000
0101
0000
0000
0000
,
1000
0010
0000
0000
0010
0100
0000
0000
0100
0001
0000
0000
0001
1000
0000
0000
,
0010
0000
1001
0000
1000
0100
1000
0100
,
0010
0001
0101
0000
0010
0100
0010
1000
,
0001
0010
0110
0000
0001
0100
1000
0100
,
0001
0010
0021
0000
0100
0000
1000
0000
,
0130
0000
1001
0000
0100
0010
1000
0010
,
0100
0001
0101
0000
1000
0100
0010
0001
,
0100
0010
0120
0000
1000
0000
0001
0000
,
1030
0200
0320
0032
,
2003
0000
0000
0000
3010
0100
0000
0000
0100
0000
0001
0000
0010
0000
0001
0000
,
0100
0000
0010
0000
1000
0001
0000
0000
1000
0000
0100
0000
1000
0000
0010
0000
,
0100
0000
0001
0000
0010
0001
0000
0000
0100
0000
0010
0000
1000
0000
0001
0000
,
1000
0010
0100
0100
0101
0000
0010
0010
,
1010
0000
0000
0000
0100
0010
0000
0000
1000
0000
0001
0000
0010
0000
0001
0000
,
0100
0000
0010
0000
1000
0100
0000
0000
1000
0000
0010
0000
0100
0000
0010
0000
,
0001
0000
0010
0000
0100
1000
0000
0000
1000
0000
0000
0000
0001
0000
0000
0000
,
0100
0010
1000
0100
,
0010
0000
1001
0001
0001
0001
1000
1000
,
1000
1000
0010
0010
0010
0010
0100
0100
,
0100
0100
0001
0020
0000
0030
0200
0000
,
0000
0300
2000
0000
3002
0000
1003
0010
,
0100
0001
1000
0000
1100
0000
0001
0100
,
1000
0000
0001
0000
0101
0000
1000
0100
,
0001
0000
1000
0100
0010
0100
1000
0010
,
0100
0000
0001
0010
0100
0010
0001
0100
,
1000
0000
0000
0000
1000
0100
0000
1000
0000
0000
0000
0000
0001
0100
0000
0001
,
0000
0000
0000
0000
0010
0100
0000
0010
0000
0000
0000
0000
0001
1000
0000
0001
,
0000
0000
1000
0010
0100
0010
1000
0010
,
0100
0010
1000
0100
0010
0001
0100
0010
,
0110
1001
0000
0000
,
0000
M000
000M
M000
,
000M
M000
000M
M000
,
000M
M000
000M
M000
,
000M
M000
000M
M000
,
000M
M000
000M
M000
,
000M
M000
000M
M000
,
000M
M000
000M
M000
,
000M
M000
000M
M000
,
000M
M000
000M
M000
,
000M
M000
000M
M000
,
000M
M000
000M
M000
,
000M
M000
000M
M000
,
000M
M000
000M
M000
,
000M
M000
000M
M000
,
000M
M000
000M
M000
,
000M
M000
000M
M000
,
000M
M000
000M
M000
,
000M
M000
000M
M000
,
000M
M000
000M
M000
,
000M
M000
000M
M000
,
000M
M000
000M
M000
,
000M
M000
000M
M000
,
000M
M000
000M
M000
,
000M
M000
000M
M000
,
000M
M000
000M
M000
,
000M
M000
000M
M000
,
000M
M000
000M
M000
,
000M
M000
000M
M000
,
000M
M000
000M
M000
,
000M
M000
000M
M000
,
000M
M000
0000
0101
,
0010
1000
0000
0000
1100
0000
0000
0000
0010
0000
0001
0000
0100
0001
0000
0000
,
0001
1000
0000
0000
1100
0000
0000
0000
1000
0000
0000
0000
1010
0000
0000
0000
,
0010
0100
0000
0000
0101
0000
0000
0000
0001
0000
0100
0000
0001
0000
0100
0000
,
0010
1000
0010
1000
0100
0000
0011
0000
,
0100
1000
0000
0000
1001
0000
0000
0000
1000
0000
0100
0000
0010
0001
0000
0000
,
0001
0100
0000
0000
0101
0000
0000
0000
0100
0010
0000
0000
0010
1000
0000
0000
,
1000
0001
0000
0000
0001
1000
0000
0000
1100
0000
0100
0000
0000
0000
0101
0000
,
0100
0000
1000
0100
0001
0000
1001
0000
,
1000
0010
0000
0000
0101
0000
0000
0000
0001
0000
0010
0000
0100
1000
0000
0000
,
0001
0100
0000
0000
0110
0000
0000
0000
0100
0000
0000
0000
1001
0000
0000
0000
,
1000
0100
0000
0000
0011
0000
0000
0000
0100
1000
0100
1000
0020
0000
0000
0000
,
0000
0000
0000
0000
,
0000
0000
0000
0030
,
1001
0000
0000
0000
1000
0100
0000
0000
0110
0000
0000
0000
0001
0000
0100
0000
,
0010
1000
0000
0000
0001
0010
0000
0000
0110
0000
0000
0000
0001
0100
0000
0000
,
0100
1000
0000
0000
1000
0010
0000
0000
0010
0001
0000
0000
0100
0000
0000
0000
,
1001
0000
0001
0100
0001
0100
0010
1000
,
1100
0000
1000
0100
0010
0100
0001
0100
,
0110
0000
0100
0001
1000
0100
0010
0001
,
0102
1000
0010
0103
,
0110
0000
0100
0001
1000
0001
0100
0010
,
1010
0000
1000
0100
0010
0001
0100
0010
,
2010
3100
0012
0103
,
0110
1001
0110
1001
,
1100
0000
0010
0001
0100
1000
0100
0001
,
0101
0000
0100
0010
1000
0001
1000
0010
,
0110
0000
1000
0100
0001
0100
1000
0100
,
0010
0001
0100
0001
0010
0001
0100
0001
,
0011
0000
0100
0010
1000
0001
1000
0100
,
0110
0000
0001
0100
1000
0100
0001
0010
,
0110
0001
0110
1000
,
0001
0100
1000
0100
,
0010
0010
0001
0001
,
0100
0100
1000
1000
,
0010
1010
0100
0101
,
0001
0011
1000
1010
,
0100
0001
1000
0001
,
1000
0100
0010
0100
,
0020
0000
0000
0000
,
0000
0000
0000
0000
,
0030
0000
0000
0000
0000
0000
0000
0000
0000
0000
0000
0110
;

//---------------dance-single - ----------------
#NOTES:
     dance-single:
     :
     Hard:
     15:
     0.612495,0.980987,0.373932,0.191215,0.711745,876.000000,88.000000,45.000000,531.000000,0.000000,0.000000,0.612495,0.980987,0.373932,0.191215,0.711745,876.000000,88.000000,45.000000,531.000000,0.000000,0.000000:
0000
0000
0000
0000
,
1000
0100
0010
0100
1000
0010
0100
0010
,
1000
0000
0100
0000
0010
0000
0001
0000
0100
0000
0001
0000
1000
0100
1000
0100
,
0010
0001
0100
0001
1000
1000
0001
0001
,
1000
0100
0010
0100
0001
0100
0010
1000
,
0001
1000
0100
1000
0010
1000
0100
1000
,
0001
0100
0010
0100
0001
1000
0100
1000
,
0001
0100
0010
1000
0001
0001
1000
1000
,
0100
0000
0010
0000
0001
0000
1000
0000
0001
0010
0001
0000
1000
0010
1000
0000
,
1001
1200
0000
0310
0000
0011
1100
0000
,
0201
0000
0010
0000
0300
0000
1200
0000
0010
0000
0300
1000
0001
0000
0000
0000
,
1000
0100
0001
0100
1000
1000
0001
0001
,
1010
0000
1010
0000
0100
0000
0001
0010
0002
0000
0000
0103
0020
0000
0030
0000
,
1010
2010
0000
3100
0000
0011
1100
0000
,
1002
0000
0100
0000
0003
0000
2001
0000
0100
0000
3000
0010
0001
0000
0000
0000
,
1000
0100
0010
0001
0110
0100
1001
0001
,
1000
0000
0010
0000
0001
0000
0010
0001
2000
0000
0100
0000
0020
0000
3030
0000
,
1000
0100
0000
0001
0100
1000
0010
0000
1000
0100
0010
0001
0100
0010
0000
1000
,
0001
0010
0001
0100
0010
0100
0001
1000
0100
0110
0000
0011
0000
1001
0000
1010
,
1000
1000
0001
0001
0010
0010
0001
0001
0100
0100
0010
0010
1000
1000
0001
0001
,
1000
0100
1000
0001
0100
0001
1000
0010
1000
0001
0010
0100
0020
0000
0000
0000
,
0000
0000
0000
000M
,
0000
0000
0000
0000
0000
0000
0000
0000
0000
0000
0000
0000
0031
0100
0010
0000
,
1000
0100
0010
0000
0110
0000
0000
0000
1001
0000
0000
0000
1000
0100
0010
0001
,
1000
0000
0000
0000
1020
0000
0000
0000
0130
0000
0000
0000
1000
0001
0010
0000
,
0001
1000
0010
0000
0110
0000
0000
0000
1001
0000
0000
0000
1000
0100
1000
0000
,
0001
1000
0001
0000
0010
0001
0010
0000
0100
0010
0100
0000
1000
0001
0100
0001
,
1000
0000
0000
0000
0110
0000
0000
0000
1001
0000
0000
0000
1000
0100
0010
0100
,
1000
0000
0000
0000
0102
0000
0000
0000
1003
0000
0000
0000
1000
0100
0010
0000
,
0001
0100
0010
0000
1000
0001
0010
0000
0001
1000
0010
0000
1010
0000
1010
0000
,
0100
0000
0101
0000
0101
0000
0010
0000
0011
0000
1100
0000
1001
0000
1000
0100
,
0010
0000
0001
0000
0101
0000
0000
0000
1010
0000
0000
0000
0100
0001
1000
0100
,
0010
0000
0000
0000
0021
0000
0000
0000
1030
0000
0000
0000
0001
0100
0010
0000
,
1000
0100
0010
0000
0110
0000
0000
0000
1001
0000
0000
0000
1000
0100
0001
0100
,
0020
0000
0000
0000
,
M000
0000
0000
0000
,
1030
0000
0000
0000
1000
0001
0010
0000
0011
0000
0000
0000
1100
0000
0000
0000
,
0010
0001
0100
0010
1000
0000
0000
0000
1100
0000
0000
0000
0101
0000
0000
0000
,
1000
0100
1000
0000
0001
0100
0001
0000
1000
0010
1000
0000
0001
0010
0001
0000
,
0100
0000
0000
0000
1000
0100
0010
0000
0001
0000
0100
0000
1000
0000
0100
0000
,
0001
0000
0100
0000
1000
0100
0010
0000
0010
0000
0001
0000
0010
0000
1000
0000
,
0010
0000
0001
0000
0010
0001
0100
0000
0001
0000
0100
0000
1000
0000
0001
0000
,
1000
0000
0100
0000
0002
0010
0000
0000
0023
0100
0000
0000
0230
1000
0000
0000
,
2300
0001
0000
0000
3001
0100
0010
0000
1000
0000
0100
0000
0001
0000
0100
0000
,
1000
0000
0100
0000
0001
0100
0010
0000
0010
0000
1000
0000
0010
0000
0001
0000
,
0010
1000
0200
0000
0320
0000
0032
0000
,
0203
0000
0000
0000
0320
0000
2030
0000
3002
0000
2003
0000
3001
0000
0001
0100
,
0020
0000
0000
0000
1030
0001
0010
0001
1000
0000
1010
0000
0001
0000
0011
0000
,
1000
0000
1100
0000
0001
0100
0010
0100
0001
0000
0101
0000
0010
0000
1010
0000
,
1000
0000
1100
0000
0010
0001
0010
0100
0010
0000
0011
0000
1000
0100
0010
0100
,
0000
0100
1000
0000
0001
0100
0001
0100
0010
0100
0010
0100
0010
1000
0010
1000
,
0001
1000
0001
1000
0001
0010
0100
0010
0001
0000
0101
0000
0100
0000
0110
0000
,
0010
0000
1010
0000
1000
0100
0010
0100
1000
0000
1010
0000
0010
0000
0110
0000
,
0100
0101
2000
0000
3200
0000
0302
0000
,
0023
0032
0203
0320
,
2030
0000
3001
1000
0001
1000
0001
1000
,
0001
1000
0010
0100
0010
0100
0010
0100
,
0010
0000
0100
0000
0001
1000
0100
0000
0010
0000
0001
0000
0100
0000
0010
0000
,
1000
0000
0010
0000
0100
0000
0001
0000
1000
0000
0001
0000
0100
0010
0100
0010
,
1000
0100
0010
0001
1000
0000
0100
0000
0001
0000
0001
0000
1000
0000
0100
0010
,
0001
0000
1000
0000
0010
0000
0100
0000
0001
0000
0001
0000
0100
0000
0010
1000
,
0001
0000
1000
0000
0100
0000
1000
0000
0001
0000
1000
0000
0100
0000
0010
0100
,
0010
0000
0001
0000
0100
0000
0010
0000
1000
0000
0001
0000
1000
0000
0010
0100
,
0010
0000
1000
0000
0001
0100
0000
0001
0000
0100
0001
0000
1000
0100
0000
1000
,
0000
0100
1000
0000
0010
0100
0000
0001
0000
0100
0010
0000
1000
0100
0000
0010
,
0000
0100
1000
0000
0001
0100
0001
0000
0010
0000
0100
0000
1000
0100
1000
0000
,
0010
0000
0100
0000
0001
1000
0001
1000
0010
0000
0100
0000
0001
0010
0100
1000
,
0010
0000
0000
0000
0000
0000
0000
0000
1001
0000
0000
0000
0000
0000
0000
0000
0000
M000
0000
0000
0000
0000
0000
0000
0000
0000
0000
0000
0000
0000
000M
0000
,
0000
0000
0000
0000
M00M
M00M
M00M
M00M
M00M
M00M
M00M
M00M
M00M
M00M
M00M
M00M
,
M00M
M00M
M00M
M00M
M00M
M00M
M00M
M00M
M00M
M00M
M00M
M00M
M00M
M00M
M00M
M00M
,
M00M
M00M
M00M
M00M
M00M
M00M
M00M
M00M
M00M
M00M
M00M
M00M
M00M
M00M
M00M
M00M
,
M00M
M00M
M00M
M00M
M00M
M00M
M00M
M00M
M00M
M00M
M00M
M00M
M00M
M00M
M00M
M00M
,
M00M
M00M
M00M
M00M
M00M
M00M
M00M
M00M
M00M
M00M
M00M
M00M
M00M
M00M
M00M
M00M
,
M00M
M00M
M00M
M00M
M00M
M00M
M00M
M00M
M00M
M00M
M00M
M00M
M00M
M00M
M00M
M00M
,
M00M
M00M
M00M
M00M
M00M
M00M
M00M
M00M
M00M
M00M
M00M
M00M
M00M
M00M
M00M
M00M
,
M00M
M00M
M00M
M00M
M00M
M00M
M00M
M00M
M00M
M00M
M00M
M00M
M00M
M00M
M00M
M00M
,
M00M
M00M
M00M
M00M
M00M
M00M
M00M
M00M
M00M
M00M
M00M
M00M
M00M
M00M
M00M
M00M
,
M00M
M00M
M00M
M00M
M00M
M00M
M00M
M00M
M00M
M00M
M00M
M00M
M00M
M00M
M00M
M00M
,
M00M
M00M
M00M
M00M
M00M
M00M
M00M
M00M
M00M
M00M
M00M
M00M
M00M
M00M
M00M
M00M
,
M00M
M00M
M00M
M00M
M00M
M00M
M00M
M00M
M00M
M00M
M00M
M00M
M00M
M00M
M00M
M00M
,
M00M
0000
0000
0000
0000
0000
0000
0000
MMMM
0MM0
0MM0
0MM0
0MM0
0MM0
0MM0
0MM0
,
MMMM
0000
0000
0000
0000
0000
0000
0000
MMMM
M000
M000
M000
M000
MMMM
M00M
M00M
,
MMMM
0000
0000
0000
MMMM
0MM0
0MM0
0MM0
0MM0
0MM0
0MM0
0MM0
MMMM
0000
0000
0000
,
M00M
M00M
MMMM
0MM0
0MM0
0MM0
0MM0
0MM0
0MM0
0000
0000
0000
MMMM
M000
M000
M000
,
MMMM
M000
M000
M000
MMMM
0000
0000
0000
0000
0000
0000
0000
M00M
M00M
M00M
M00M
,
M00M
M00M
M00M
M00M
MMMM
0000
0000
0000
MMMM
M00M
M00M
M00M
MMMM
M000
M000
M000
,
M000
0000
0000
0000
,
0000
0000
0000
0000
,
0000
0000
M00M
0000
,
M00M
M00M
0MM0
0000
0000
0000
0000
0000
0000
0000
0000
0000
0000
0000
0000
0000
,
0000
0000
0000
0000
,
0000
0000
0000
0000
,
0000
0000
0000
0000
,
0000
0000
0000
0000
,
0000
0000
0000
0000
,
0000
0000
0000
0000
,
0000
0000
0000
0000
,
0000
0000
0000
0000
,
0000
0000
0000
0000
0000
0000
0000
0000
1000
0100
0010
0000
0001
0100
0010
0000
,
0110
0000
0000
0000
1001
0000
0000
0000
1000
0010
0100
0001
0010
0000
0000
0000
,
0021
0000
0000
0000
0130
0000
0000
0000
0010
0001
1000
0000
0010
1000
0001
0000
,
0110
0000
0000
0000
1001
0000
0000
0000
0010
1000
0010
0000
0100
0001
0100
0000
,
0001
0010
0001
0000
0100
1000
0100
0000
0010
0001
1000
0001
0010
0000
0100
0000
,
1100
0000
0000
0000
0011
0000
0000
0000
1000
0010
0100
0001
0010
0000
0000
0000
,
2001
0000
0000
0000
3100
0000
0000
0000
0001
1000
0100
0000
1000
0001
0100
0000
,
0010
1000
0001
0000
0010
0001
1000
0000
1010
0000
0011
0000
0100
0000
1100
0000
,
0101
0000
1100
0000
0010
0000
1001
0000
0001
0010
0100
0000
1000
0010
0100
0000
,
0101
0000
0000
0000
1010
0000
0000
0000
0100
0001
1000
0001
0100
0000
0000
0000
,
0120
0000
0000
0000
1030
0000
0000
0000
0001
0010
0100
0000
1000
0010
0100
0000
,
0101
0000
0000
0000
1010
0000
0000
0000
1000
0100
0010
0001
2000
0000
0000
0000
,
0000
0000
0000
00M0
,
0000
0000
0000
3010
,
1001
0000
0000
0000
0100
0010
1000
0000
1001
0000
0000
0000
1100
0000
0000
0000
,
0010
0000
0011
0000
0011
0000
0000
0000
1100
0000
0000
0000
0001
0100
0001
0100
,
1000
0100
1000
0100
0010
0001
0100
0010
1000
0001
0010
0100
0010
0000
0000
0000
,
1000
0100
0010
0000
0010
0000
0001
0000
1000
0000
0100
0000
0001
0000
1000
0000
,
0010
1000
0001
0000
1000
0000
0010
0000
0001
0000
1000
0000
0001
0000
0010
0000
,
1000
0100
0010
0000
0001
0000
0100
0000
1000
0000
0100
0000
0001
0000
0010
0000
,
2000
0010
0000
0000
3020
0100
0000
0000
0230
0001
0000
0000
0302
1000
0000
0000
,
1003
0100
0010
0000
0001
0000
0100
0000
1000
0000
0001
0000
1000
0000
0100
0000
,
0001
0010
0100
0000
1000
0000
0010
0000
0001
0000
1000
0000
0001
0000
0010
0000
,
1000
0100
0010
0000
0001
0100
0010
0000
1000
0100
1000
0000
0001
0100
0001
0000
,
1000
0010
0100
0000
0001
0010
0100
0000
1000
0001
1000
0000
0010
0100
0010
0000
,
1000
0100
0010
0000
0001
1000
0001
0000
0001
1000
0001
0000
0001
1000
0001
0000
,
0001
0100
0010
0000
1000
0001
1000
0000
1000
0001
1000
0000
1000
0001
1000
0000
,
0100
0010
0001
0000
0100
0010
1000
0000
0001
0010
0100
0010
0000
0010
0001
0000
,
1000
0010
1000
0010
0100
0001
0100
0001
1000
0100
1000
0100
0010
0001
0010
0001
,
1000
0010
0100
0000
1000
0010
1000
0000
1000
0001
1000
0000
1000
0100
1000
0000
,
0010
0100
0001
0000
0001
0010
0001
0000
0001
1000
0001
0000
0001
0100
0001
0000
,
0001
0010
0100
0010
0001
0100
1000
0100
,
0001
0010
0100
1000
0010
0100
0001
1000
,
0010
0110
1000
1001
,
1000
1100
0001
0101
,
0010
1000
0100
0001
,
0100
1000
0010
0100
,
0001
0001
1000
1000
,
0010
0010
0100
0010
,
0020
0000
0000
0000
,
0000
0000
0000
0000
,
0030
0000
0000
0000
0000
0000
0000
0000
0000
0000
0000
0110
;

//---------------dance-single - ----------------
#NOTES:
     dance-single:
     :
     Challenge:
     17:
     0.827992,1.000000,0.607639,0.186966,1.000000,1177.000000,143.000000,44.000000,412.000000,2.000000,3.000000,0.827992,1.000000,0.607639,0.186966,1.000000,1177.000000,143.000000,44.000000,412.000000,2.000000,3.000000:
// measure 0
0000
0000
0000
0000
,  // measure 1
1000
0100
0001
1000
0001
0100
1000
0001
,  // measure 2
0010
0000
0100
0000
0010
0000
0001
0000
0100
0000
0010
0000
1000
0100
0001
0010
,  // measure 3
1000
0100
1000
0001
0100
0100
0001
0001
,  // measure 4
1000
0100
0001
0010
0001
0100
0010
0010
,  // measure 5
1001
0100
0010
1000
0010
0100
0001
0010
,  // measure 6
0011
0100
1000
0010
1010
0100
0001
1000
,  // measure 7
1100
0010
0001
0100
0001
0001
1000
1000
,  // measure 8
0010
0000
0100
0000
0010
0000
1000
0000
0001
0010
0100
0000
1000
0010
0100
0000
,  // measure 9
0101
0000
0101
0000
1100
0000
0001
0100
1000
0000
1100
0000
1001
0000
0010
0000
,  // measure 10
0011
0000
0000
0000
0000
0000
1010
0000
0000
0000
0000
0000
0100
0000
0000
0000
0000
0000
0100
0000
0000
0001
0000
0000
1000
0000
0000
0000
0000
0000
0100
0000
0010
0000
0100
0000
0010
0000
0000
0000
0000
0000
0011
0000
0000
0000
0000
0000
,  // measure 11
0101
0000
0101
0000
1000
0000
0100
0001
0010
0000
0011
0000
1100
0000
1000
0000
,  // measure 12
1010
0000
0000
0000
0000
0000
1010
0000
0000
0000
0000
0000
0010
0000
0000
0000
0000
0000
1000
0000
0000
0001
0000
0000
0010
0000
0000
0000
0000
0000
0100
0000
1000
0000
0001
0000
0100
0000
0000
0000
0000
0000
0010
0000
0000
0000
0000
0000
,  // measure 13
0020
1030
0020
1030
0001
0000
1000
0000
0100
0000
0022
0033
2200
3300
0001
0000
,  // measure 14
2000
0000
0000
3010
0000
0000
2000
0000
0000
3010
0000
0000
0100
0000
0000
0000
0000
0000
0001
0000
0000
1000
0000
0000
0100
0000
0000
0000
0000
0000
0010
0000
0001
0000
0010
0000
0100
0000
0000
0000
0000
0000
1000
0000
0000
0000
0000
0000
,  // measure 15
0020
0130
0020
0130
0001
0000
1000
0000
0100
0000
0101
0000
1100
0000
0101
0000
,  // measure 16
2000
3100
2000
3100
0010
0000
0001
1000
0040
0000
0000
0000
1000
0000
1000
0000
,  // measure 17
1030
0100
1000
0010
0100
0001
0010
0001
0100
0010
1000
0010
0100
0001
1000
0001
,  // measure 18
0010
0100
0010
0100
1000
0001
1000
0001
0100
0101
0010
1010
1000
1100
0001
0101
,  // measure 19
1000
0100
0001
0100
1000
0010
0001
0010
1000
0100
0010
0001
0100
0010
1000
0001
,  // measure 20
0010
0001
0010
0001
1000
0010
1000
0010
0100
0001
0100
0001
1000
0100
1000
0100
0010
0001
0100
0010
1000
0001
0010
0100
0020
0000
0000
0000
M00M
0000
0000
0000
,  // measure 21
M00M
M00M
M00M
M00M
M00M
M00M
M00M
M00M
,  // measure 22
M00M
0000
M00M
0000
M00M
0000
M00M
0000
M00M
0000
M00M
0000
M13M
1000
0001
0100
,  // measure 23
0010
0000
1000
0000
0001
0000
0000
0000
0010
0001
0010
0000
0100
0000
0000
0000
0010
0100
0010
0000
0001
0000
0000
0000
1000
0000
0010
0000
0100
0000
0001
0000
,  // measure 24
1000
0100
1000
0000
0001
0000
1000
0000
0001
1000
0001
0000
1000
0000
0001
0000
0100
0001
0100
0000
0001
0000
0100
0000
0010
0000
1000
0000
0001
0000
1000
0000
,  // measure 25
0010
0000
0100
0000
0001
0000
0000
0000
1000
0100
1000
0000
0001
0000
0000
0000
0100
0001
0100
0000
0010
0000
0000
0000
1000
0000
0100
0000
1000
0000
0100
0000
,  // measure 26
0001
0000
0000
0100
0000
0000
0001
0000
0000
0100
0000
0000
1000
0000
0000
0100
0000
0000
0010
0100
0000
0000
0000
0000
0110
0000
0000
0000
0000
0000
1001
0000
0000
0000
0000
0000
1000
0000
0000
0100
0000
0000
0001
0000
0000
0100
0000
0000
,  // measure 27
1000
0000
0000
0000
0001
0000
0000
0000
1000
0100
1000
0000
0001
0000
0000
0000
0100
0010
0100
0000
0001
0000
0000
0000
1000
0000
0100
0000
0010
0000
0001
0000
,  // measure 28
1000
0010
1000
0000
0001
0000
1000
0000
0001
0010
0001
0000
1000
0000
0001
0000
1000
0010
1000
0000
0001
0000
1000
0000
0001
0000
0100
0000
0010
0000
1000
0000
,  // measure 29
0001
0010
0100
1000
0001
0010
0100
0010
1000
0010
0100
0010
0001
0000
0101
0000
,  // measure 30
0010
0000
1010
0000
1100
0000
0110
0000
0001
0000
1001
0000
0010
0100
0000
0100
,  // measure 31
0010
0000
1000
0000
0001
0000
0000
0000
1000
0100
1000
0000
0001
0000
0000
0000
1000
0010
1000
0000
0001
0000
0000
0000
1000
0000
0100
0000
0010
0000
0001
0000
,  // measure 32
0100
0001
0100
0000
0010
0000
0100
0000
0010
0100
0010
0000
0100
0000
0010
0000
1000
0010
1000
0000
0010
0000
1000
0000
0001
0000
1000
0000
0100
0000
1000
0000
,  // measure 33
0001
0000
0100
0000
0010
0000
0000
0000
1000
0001
1000
0000
0010
0000
0000
0000
0100
0001
0100
0000
0010
0000
0000
0000
1000
0001
1000
0001
0010
0000
0110
0000
,  // measure 34
2000
0000
0000
0000
,  // measure 35
0004
0000
0000
0000
,  // measure 36
3013
0000
0000
0000
0000
0000
0001
0000
0100
0000
0000
0000
0010
0000
0000
0000
1000
0001
1000
0000
0010
0000
0000
0000
1000
0001
1000
0000
0100
0000
0000
0000
,  // measure 37
0010
0000
0001
0000
0010
0000
0100
0000
1000
0000
0010
0000
0100
0001
0100
0000
0010
0100
0010
0000
1000
0000
0100
0000
0010
0001
0010
0000
0100
0000
1000
0000
,  // measure 38
0001
0100
0010
1000
0001
0010
0100
1000
0010
0100
0001
1000
0100
0010
0001
1000
,  // measure 39
0010
0000
0000
0000
0000
0000
1000
0100
0010
0100
0000
0000
0011
0000
0000
0100
0000
0000
1001
0000
0000
0100
0000
0000
,  // measure 40
1010
0000
0000
0100
0000
0000
0001
1000
0100
1000
0000
0000
1010
0000
0000
0100
0000
0000
1001
0000
0000
0100
0000
0000
,  // measure 41
0011
0000
0000
0100
0000
0000
1000
0001
0100
0010
0000
0000
1010
0000
0000
0100
0000
0000
0101
0000
0000
0010
0000
0000
,  // measure 42
0011
0000
0100
0000
1000
0010
0100
0001
1000
0000
0100
0010
0001
1000
0010
0000
,  // measure 43
0110
0000
0000
1001
0000
0000
0100
0001
1000
0001
0000
0000
0101
0000
0000
0010
0000
0000
1001
0000
0000
0010
0000
0000
,  // measure 44
1100
0000
0000
0010
0000
0000
1000
0100
0010
0100
0000
0000
1100
0000
0000
0010
0000
0000
1001
0000
0000
0010
0000
0000
,  // measure 45
0101
0000
0010
0000
2001
0000
0000
0000
3100
0010
0001
0100
0010
1000
0001
0010
,  // measure 46
0020
0000
0000
0000
0000
0000
0000
0000
0130
0000
1000
0000
0100
0000
1000
0000
0001
0000
0100
0000
0001
0000
0100
0000
0010
0000
1000
0000
0001
0000
0010
0100
,  // measure 47
0020
0000
0000
0000
0000
0000
0031
0100
0010
1000
0000
0000
1100
0000
0000
1100
0000
0000
0101
0000
0000
1100
0000
0000
,  // measure 48
0101
0000
0000
1100
0000
0000
0010
0001
0100
0010
0000
0000
0110
0000
0000
0110
0000
0000
1001
0000
0000
0110
0000
0000
,  // measure 49
1001
0000
0000
0000
0000
0000
0110
0000
0000
0000
0000
0000
1000
0000
0100
0000
0010
0000
0001
0000
0000
0000
0000
0000
0101
0000
0000
0000
0000
0000
1010
0000
0000
0000
0000
0000
1000
0000
0000
0100
0000
0000
0010
0000
0000
0001
0000
0000
,  // measure 50
0000
0100
0010
0000
1000
0001
0010
0001
1000
0010
0100
0010
1000
0100
0010
0001
,  // measure 51
1000
0000
0000
0100
0000
0000
0001
0000
0000
0100
0000
0000
1000
0000
0001
0000
0100
0000
0010
0000
0000
0000
0000
0000
1010
0000
0000
0000
0000
0000
1001
0000
0000
0000
0000
0000
0011
0000
0000
0000
0000
0000
1001
0000
0000
0000
0000
0000
,  // measure 52
1100
0000
0000
1001
0000
0000
1000
0100
0010
0001
0000
0000
0011
0000
0000
1001
0000
0000
1010
0000
0000
1001
0000
0000
,  // measure 53
0101
0000
1001
0000
1000
0100
0010
0001
2000
0000
0010
0000
3200
0000
0010
0000
,  // measure 54
2300
0000
0000
0001
0000
0000
3200
0000
0000
0010
0000
0000
2300
0000
0000
0010
0000
0000
3001
0000
0100
0000
0010
0000
,  // measure 55
1000
0100
0010
0000
1001
0000
0001
0000
1000
0000
0001
0000
1000
0000
1000
0000
,  // measure 56
0001
0000
0000
0000
1000
0100
1000
0100
0010
0000
0000
0000
0011
0000
0000
0000
0001
0000
0000
0000
0001
0000
0000
0000
0200
0000
0000
0000
0310
0000
0000
0000
,  // measure 57
2000
0000
0000
0000
3001
0000
0000
0000
0010
0100
0010
0100
1000
0000
0000
0000
0001
0000
0000
0100
0000
0000
0010
0000
0200
0000
0000
0000
0302
0000
0000
0000
,  // measure 58
2003
0000
3200
0000
0310
0000
0010
0000
0001
0000
0001
0000
1000
0010
0100
0001
,  // measure 59
1000
0100
0010
0001
1000
0000
0001
0010
0100
0000
1000
0000
0001
0100
0010
1000
,  // measure 60
0001
0000
0010
0000
0100
0000
1000
0010
0100
0000
0010
0000
1000
0100
0010
0100
,  // measure 61
1000
0001
0100
0010
1000
0000
0001
0010
0100
0000
0001
0000
0100
0010
1000
0001
,  // measure 62
0100
0000
0010
0000
1000
0000
0100
0000
0001
0000
0100
0000
0010
1000
0001
1000
,  // measure 63
0010
0000
0100
0000
0001
0010
0000
0100
0000
1000
0100
0000
1000
0100
0000
0010
,  // measure 64
0000
0001
0010
0000
0100
1000
0000
0001
0100
0010
1000
0000
0001
0010
0000
0100
,  // measure 65
1000
0010
0100
0000
0011
0000
0010
0000
0011
0000
0001
0000
1001
0000
1000
0000
,  // measure 66
1010
0000
0000
0000
0000
0000
0010
0000
0000
0000
0000
0000
1010
0000
0000
0000
0000
0000
1000
0000
0000
0000
0000
0000
0101
0000
0000
0000
0000
0000
0001
0000
0000
0000
0000
0000
1000
0000
0000
0100
0000
0000
0010
0001
0000
0000
0000
0000
,  // measure 67
0100
0010
0000
0000
0000
0000
0000
0000
0000
0000
0000
0000
1001
0000
0000
0000
0000
0000
0M00
0000
0000
0000
0000
0000
00M0
0000
0000
0000
0000
0000
0M00
0000
0000
0000
0000
0000
00M0
0000
0000
0000
0000
0000
0M00
0000
0000
0000
0000
0000
,  // measure 68
00M0
0M00
000M
M000
0M00
00M0
0M00
M000
,  // measure 69
000M
0M00
00M0
M000
000M
00M0
000M
0M00
,  // measure 70
00M0
M000
0M00
00M0
0M00
M000
000M
0M00
,  // measure 71
00M0
M000
000M
00M0
000M
0M00
M000
0M00
,  // measure 72
000M
M000
0M00
00M0
000M
0M00
M000
0M00
,  // measure 73
000M
M000
0M00
00M0
0M00
M000
00M0
0M00
,  // measure 74
000M
00M0
000M
0M00
00M0
0M00
000M
00M0
,  // measure 75
000M
0M00
00M0
M000
000M
0M00
M000
0M00
,  // measure 76
000M
M000
0M00
00M0
000M
0M00
00M0
M000
,  // measure 77
000M
M000
0M00
M000
00M0
0M00
000M
00M0
,  // measure 78
000M
0M00
00M0
M000
0M00
00M0
0M00
M000
,  // measure 79
00M0
0M00
000M
M000
0M00
00M0
0M00
M000
,  // measure 80
00M0
0M00
000M
00M0
0M00
000M
0000
0M00
,  // measure 81
00M0
000M
M000
0M00
00M0
M000
00M0
0M00
,  // measure 82
M000
000M
0M00
00M0
0M00
000M
M000
0M00
,  // measure 83
M000
000M
0M00
000M
00M0
0M00
00M0
M000
,  // measure 84
000M
M000
00M0
0M00
00M0
M000
000M
00M0
,  // measure 85
000M
0M00
00M0
M000
0M00
00M0
000M
0M00
,  // measure 86
00M0
M000
0M00
00M0
0M00
M000
00M0
0M00
,  // measure 87
MMMM
0000
0000
0000
,  // measure 88
00MM
0M00
M000
M000
M000
0M00
00M0
000M
000M
000M
000M
00M0
MM00
0000
0000
0000
,  // measure 89
00MM
0M00
M000
M000
M000
M000
M000
0000
0M00
00MM
0000
0000
0000
0000
MMMM
M00M
,  // measure 90
M00M
M00M
M00M
MMM0
M000
MM00
M000
M0M0
M000
000M
0000
0000
0000
0000
MMMM
M000
,  // measure 91
M000
M000
M000
MMMM
M000
M000
M000
M000
M000
M000
MMMM
0000
0000
0000
0000
0000
,  // measure 92
MMMM
M00M
M00M
M00M
M00M
M00M
MMMM
M00M
M00M
M00M
M00M
0000
0000
0000
0000
0000
,  // measure 93
M00M
0MM0
MMMM
M00M
M00M
M00M
M00M
M00M
M00M
0000
0000
0000
0000
0000
MMMM
M00M
,  // measure 94
M00M
M00M
M00M
MMMM
M000
M000
MM00
M000
M0M0
M000
M00M
0000
0000
0000
0000
0000
,  // measure 95
MMMM
M00M
M00M
M00M
M00M
M00M
M00M
M00M
M00M
M00M
MMMM
0000
0000
0000
0000
0000
,  // measure 96
M00M
MMMM
MMMM
MMMM
MMMM
MMMM
M00M
M00M
M00M
M00M
M00M
M00M
M00M
M00M
0000
0000
,  // measure 97
0000
0000
0000
0000
,  // measure 98
0000
0000
0000
0000
0MM0
0000
0000
0000
1000
0100
0010
0001
1000
0010
0100
0000
,  // measure 99
0001
0100
0001
0000
0100
0000
0000
0000
0010
1000
0010
0000
1000
0000
0000
0000
0001
0000
0010
0000
0100
0000
1000
0000
0001
0100
0001
0000
0100
0000
0001
0000
,  // measure 100
0100
0010
0100
0000
0010
0000
0100
0000
0010
1000
0010
0000
1000
0000
0010
0000
1000
0000
0100
0000
0010
0000
0100
0000
1000
0000
0001
0000
0100
0000
0000
0000
,  // measure 101
0010
1000
0010
0000
1000
0000
0000
0000
0001
0100
0001
0000
0100
0000
0000
0000
0010
0000
1000
0000
0010
0000
1000
0000
0010
0000
0001
0000
0010
0000
0001
0000
,  // measure 102
0010
0000
0000
1000
0000
0000
0100
1000
0000
0000
0000
0000
0101
0000
0000
0000
0000
0000
1100
0000
0000
0000
0000
0000
0001
0000
0000
0100
0000
0000
1000
0000
0000
0100
0000
0000
0001
0000
0000
0000
0000
0000
1000
0000
0000
0000
0000
0000
,  // measure 103
0001
0010
0001
0000
1000
0000
0000
0000
1000
0010
1000
0000
0001
0000
0000
0000
1000
0000
0100
0000
0010
0000
0001
0000
0100
0001
0100
0000
0010
0000
0100
0000
,  // measure 104
0010
1000
0010
0000
1000
0000
0010
0000
1000
0001
1000
0000
0001
0000
1000
0000
0001
0000
0010
0000
0100
0000
1000
0000
0001
0000
0100
0000
0010
0000
1000
0000
,  // measure 105
0001
0010
0100
0010
0001
0100
0010
1000
0001
0000
0101
0000
0010
0000
1010
0000
,  // measure 106
1001
0000
1010
0000
1000
0000
1100
0000
0001
0100
0000
0100
0001
0010
0100
0000
,  // measure 107
1000
0100
1000
0000
0001
0000
0000
0000
1000
0010
1000
0000
0001
0000
0000
0000
1000
0000
0100
0000
0010
0000
0100
0000
1000
0001
1000
0000
0010
0000
0100
0000
,  // measure 108
0001
1000
0001
0000
0100
0000
0010
0000
1000
0001
1000
0000
0010
0000
0100
0000
0001
0000
0010
0000
0100
0000
0010
0000
0001
0000
0100
0000
0010
0000
0000
0000
,  // measure 109
1000
0100
1000
0000
0010
0000
0000
0000
0100
0001
0100
0000
0010
0000
0000
0000
1000
0001
0010
0100
1000
0000
0110
0000
0002
0000
0000
0000
0000
0000
0000
0000
,  // measure 110
0000
0000
0000
4000
,  // measure 111
0000
0000
0000
0000
0000
0000
0000
0000
0000
0000
0000
0000
3013
0000
0000
1000
,  // measure 112
0100
0000
0000
0000
0010
0000
0000
0000
0001
1000
0001
0000
0010
0000
0000
0000
0001
0100
0001
0000
1000
0000
0000
0000
1000
0000
0100
0000
0010
0000
0001
0000
,  // measure 113
1000
0000
0010
0000
0100
0001
0100
0000
0010
0100
0010
0000
1000
0000
0001
0000
0010
0100
0010
0000
0001
0000
1000
0000
0010
0000
0100
0000
0001
0000
1000
0000
,  // measure 114
0100
0010
0001
1000
0010
0100
0001
1000
0100
0010
0001
1000
0010
0000
0000
0000
,  // measure 115
0010
1000
0100
1000
0000
0000
1010
0000
0000
0100
0000
0000
1001
0000
0000
0100
0000
0000
0011
0000
0000
0100
0000
0000
,  // measure 116
0010
0001
1000
0010
0000
0000
0101
0000
0000
0010
0000
0000
1001
0000
0000
0010
0000
0000
1100
0000
0000
0010
0000
0000
,  // measure 117
0001
1000
0100
1000
0000
0000
1100
0000
0000
1000
0000
0000
0011
0000
0000
0001
0000
0000
0101
0000
0000
0100
0000
0000
,  // measure 118
0010
1000
0001
1000
0010
0100
0001
0100
0010
1000
0100
0010
0001
1000
0100
0010
,  // measure 119
0100
1000
0100
0010
0000
0000
0011
0000
0000
0100
0000
0000
1001
0000
0000
0100
0000
0000
1010
0000
0000
0100
0000
0000
,  // measure 120
0001
1000
0100
0010
0000
0000
1100
0000
0000
0010
0000
0000
1001
0000
0000
0010
0000
0000
0101
0000
0000
0010
0000
0000
,  // measure 121
2001
0000
0000
0000
3100
0010
0001
0100
0010
1000
0001
0010
0020
0000
0000
0000
,  // measure 122
0031
0000
0100
0000
1000
0000
0100
0000
0001
0000
0010
0000
0100
0000
1000
0000
0001
0000
0100
0000
0010
0000
1000
0001
2000
0000
0000
0000
0000
0000
0000
0000
,  // measure 123
3100
0010
0001
0010
0000
0000
1100
0000
0000
1100
0000
0000
0101
0000
0000
1100
0000
0000
0101
0000
0000
1100
0000
0000
,  // measure 124
0010
0001
0100
0001
0000
0000
0011
0000
0000
0011
0000
0000
1010
0000
0000
0011
0000
0000
1010
0000
0000
0011
0000
0000
,  // measure 125
1000
0000
0010
0000
0100
0000
0010
0000
0000
0000
0000
0000
1010
0000
0000
0000
0000
0000
0101
0000
0000
0000
0000
0000
1000
0000
0000
0100
0000
0000
0010
0000
0000
0100
0000
0000
0000
0000
0000
1000
0000
0000
0001
0000
0000
0000
0000
0000
,  // measure 126
0100
0001
1000
0001
0100
0010
1000
0100
0010
0100
1000
0010
0100
0001
1000
0100
,  // measure 127
0010
0001
0010
0100
0000
0000
0011
0000
0000
1001
0000
0000
1010
0000
0000
1001
0000
0000
0101
0000
0000
1001
0000
0000
,  // measure 128
0001
0010
0100
1000
0000
0000
1100
0000
0000
1001
0000
0000
0101
0000
0000
1001
0000
0000
1010
0000
0000
1001
0000
0000
,  // measure 129
1000
0100
0010
0001
2000
0000
0001
0000
3200
0000
0010
0000
2300
0000
0010
0000
,  // measure 130
3200
0001
0320
1000
2030
0100
3200
0010
,  // measure 131
0320
0031
0200
0310
,  // measure 132
2000
3001
0020
0130
,  // measure 133
1000
1010
0100
0101
,  // measure 134
0010
0011
0100
1100
,  // measure 135
0001
0100
1000
0010
,  // measure 136
1000
0100
0001
0010
,  // measure 137
M020
000M
M000
000M
,  // measure 138
M000
000M
M000
000M
,  // measure 139
M030
0000
0000
0000
0000
0000
0000
0000
0000
0000
0000
1MM1
;
