#TITLE:Scatman;
#SUBTITLE:;
#ARTIST:Da Tweekaz;
#TITLETRANSLIT:;
#SUBTITLETRANSLIT:;
#ARTISTTRANSLIT:;
#GENRE:;
#CREDIT:;
#BANNER:scatman-bn.png;
#BACKGROUND:scatman-bg.png;
#LYRICSPATH:;
#CDTITLE:arsa-cd.png;
#MUSIC:Scatman.ogg;
#OFFSET:-0.016000;
#SAMPLESTART:134.830002;
#SAMPLELENGTH:10.000000;
#SELECTABLE:YES;
#DISPLAYBPM:150.000000;
#BPMS:0.000000=150.000000
,224.000000=600.000000
,225.000000=300.000000
,225.500000=150.000000
;
#STOPS:0.000000=5.220000,
225.500000=1.200000
;
#BGCHANGES:;
#KEYSOUNDS:;
#ATTACKS:;

//---------------dance-single - ----------------
#NOTES:
     dance-single:
     :
     Beginner:
     1:
     0.121310,0.146330,0.072786,0.036393,0.000000,122.000000,12.000000,6.000000,0.000000,0.000000,0.000000,0.121310,0.146330,0.072786,0.036393,0.000000,122.000000,12.000000,6.000000,0.000000,0.000000,0.000000:
0000
0000
0000
0000
,
1000
0000
1000
0000
,
0000
0000
1000
0000
,
0001
0000
0001
0000
,
0000
0000
0001
0000
,
0010
0000
0010
0000
,
0000
0000
0010
0000
,
0100
0000
0100
0000
,
0000
0000
0100
0000
,
1000
0000
1000
0000
,
0001
0000
0001
0000
,
1000
0000
1000
0000
,
0001
0000
0001
0000
,
2000
0000
0000
3000
,
0002
0000
0000
0003
,
2000
0000
0000
3000
,
0000
0000
0000
0000
,
0100
0000
0100
0000
,
0100
0000
0000
0000
,
0010
0000
0010
0000
,
0010
0000
0000
0000
,
1000
0000
1000
0000
,
1000
0000
0000
0000
,
0001
0000
0001
0000
,
0001
0000
0000
0000
,
1001
0000
0000
0000
,
1001
0000
0000
0000
,
1001
0000
0000
0000
,
1001
0000
0000
0000
,
0110
0000
0000
0000
,
1001
0000
0000
0000
,
0110
0000
0000
0000
,
1001
0000
0000
0000
,
1000
0000
0001
0000
,
1000
0000
0000
0000
,
0001
0000
1000
0000
,
0001
0000
0000
0000
,
0100
0000
0010
0000
,
0100
0000
0000
0000
,
0010
0000
0100
0000
,
0010
0000
0000
0000
,
1000
0000
0000
0000
,
0100
0000
0000
0000
,
0010
0000
0000
0000
,
0001
0000
0000
0000
,
0001
0000
0000
0000
,
0100
0000
0000
0000
,
0010
0000
0000
0000
,
1000
0000
0000
0000
,
0010
0000
0000
0000
,
0100
0000
0000
0000
,
0010
0000
0000
0000
,
0100
0000
0000
0000
,
0001
0000
0000
0000
,
1000
0000
0000
0000
,
0100
0000
0000
0000
,
0010
0000
1001
0000
,
0000
0000
0000
0000
,
0000
0000
1001
0000
,
0000
0000
0000
0000
,
0000
0000
0110
0000
,
0000
0000
0000
0000
,
0000
0000
0110
0000
,
0000
0000
0000
0000
,
0000
0000
1000
0000
,
1000
0000
1000
0000
,
0000
0000
0001
0000
,
0001
0000
0001
0000
,
0000
0000
1000
0000
,
1000
0000
0001
0000
,
0000
0000
0001
0000
,
0001
0000
1000
0000
,
0000
0000
0100
0000
,
0010
0000
0100
0000
,
0010
0000
0100
0000
,
0010
0000
0100
0000
,
0010
0000
0200
0000
,
0000
0300
0020
0000
,
0000
0030
0200
0000
,
0000
0300
0000
0000
,
0000
0000
1000
0000
,
0001
0000
1000
0000
,
0000
0000
0010
0000
,
0100
0000
0010
0000
,
0000
0000
1000
0000
,
0001
0000
1000
0000
,
0000
0000
0100
0000
,
0010
0000
0100
0000
,
0000
0000
0010
0000
,
0000
0000
1000
0000
,
0000
0000
0010
0000
,
1000
0000
0010
0000
,
0000
0000
0001
0000
,
0010
0000
0001
0000
,
0000
0000
0010
0000
,
0001
0000
0010
0000
,
0000
0000
0100
0000
;

//---------------dance-single - ----------------
#NOTES:
     dance-single:
     :
     Easy:
     6:
     0.276413,0.292660,0.066720,0.157703,0.000000,282.000000,11.000000,26.000000,0.000000,0.000000,0.000000,0.276413,0.292660,0.066720,0.157703,0.000000,282.000000,11.000000,26.000000,0.000000,0.000000,0.000000:
0000
0000
0000
0000
,
1001
0000
0100
0000
,
0000
0000
0100
0000
,
1001
0000
0010
0000
,
0000
0000
0010
0000
,
1001
0000
1000
0000
,
0000
0000
1000
0000
,
1001
0000
0001
0000
,
0000
0000
0001
0000
,
2000
3000
0002
0003
,
0020
0030
0002
0003
,
0200
0300
0020
0030
,
2000
3000
0200
0300
,
2000
0000
0000
3010
,
0002
0000
0000
0013
,
0220
0000
0000
0000
,
0330
0000
0000
0000
,
1000
1000
0100
0100
,
1000
0010
0100
0001
,
0010
0010
0001
0001
,
0100
0010
0200
0300
,
0001
0001
1000
1000
,
0001
1000
0010
1000
,
0100
0010
0001
0010
,
0200
0000
0000
0300
,
2000
0010
3010
0100
,
0001
1000
0001
1000
,
0100
0010
0001
0010
,
0001
0100
0010
1000
,
0002
0010
0013
0100
,
1000
0010
1000
0001
,
1000
0100
0010
0001
,
0100
0100
0100
0100
,
0001
0010
0001
0010
,
0100
1000
0001
1000
,
0100
1000
0100
1000
,
0010
0100
0001
0100
,
0010
1000
0100
0010
,
0001
0100
0001
0010
,
2002
0000
0000
0000
,
3003
0000
0000
0000
,
1000
0000
0100
0010
,
0001
0000
0100
0010
,
1000
0000
0001
1000
,
0010
0000
1000
0001
,
0010
0010
0002
0003
,
0100
0010
0100
0000
,
0020
0000
0030
0000
,
0100
0010
0100
0000
,
1000
0001
1000
0001
,
1000
0100
1000
0100
,
0010
0100
0010
0100
,
0010
0001
0010
0001
,
1000
0100
0010
0100
,
1000
0010
0100
0010
,
1000
0100
0010
0001
,
2000
0000
0000
3000
0110
0000
0000
0000
,
0100
0000
0000
0000
,
0100
0000
0110
0000
,
0010
0000
0000
0000
,
0010
0000
0110
0000
,
1000
0000
0000
0000
,
1000
0000
0110
0000
,
0001
0000
0000
0000
,
0001
0000
1000
1000
,
0100
0100
0000
0100
,
1000
0000
0001
0001
,
0100
0100
0000
0100
,
0001
0000
0010
1000
,
0001
1000
0000
0100
,
0001
0000
0001
0100
,
0010
1000
0002
0000
,
0000
0003
1000
1000
,
0100
0100
0001
0001
,
1000
1000
0001
0001
,
0010
0010
1000
1000
,
0001
0001
1000
0100
,
0010
0100
1000
0010
,
0100
0001
0010
0001
,
0100
0010
2002
0000
,
0000
3003
1000
0100
,
1000
0001
0100
0001
,
0010
0100
0010
0001
,
0010
0100
1000
0100
,
0010
0100
1000
0001
,
1000
0010
0100
0010
,
1000
0100
0010
0001
,
0100
0010
0000
0100
,
0100
0100
0020
0000
,
0000
0030
0001
1000
,
0001
1000
0010
0100
,
0001
0100
0010
1000
,
0001
0010
0100
1000
,
0100
0010
0100
0001
,
0100
0010
1000
0001
,
0010
0100
0020
0000
,
0000
0000
0030
0000
;

//---------------dance-single - ----------------
#NOTES:
     dance-single:
     :
     Medium:
     8:
     0.423718,0.438990,0.236554,0.151637,0.000000,425.000000,39.000000,25.000000,0.000000,0.000000,0.000000,0.423718,0.438990,0.236554,0.151637,0.000000,425.000000,39.000000,25.000000,0.000000,0.000000,0.000000:
0000
0000
0000
0000
,
1001
0100
0010
0100
,
0000
0001
0010
0100
,
1100
1000
0010
0100
,
0000
0001
1000
0100
,
0110
0010
0001
1000
,
0000
0010
1000
0100
,
1001
0100
1000
0010
,
0000
0010
0100
0001
,
1000
0000
0100
1000
0100
0000
1000
0000
,
0010
0000
0100
0001
0100
0000
0001
0000
,
0010
0000
0100
0010
0100
0000
0010
0000
,
0100
0000
1000
0001
1000
0000
0001
0000
,
2000
3010
0002
0013
,
2000
3200
0320
0032
,
1003
0010
1000
0000
0001
0010
0001
0010
,
0000
0000
0100
0010
0100
0000
0110
0000
,
1001
1000
0000
0100
0000
1000
0000
0001
,
0000
0100
0000
0001
0000
0010
0100
0000
,
0010
0001
0000
0100
0000
0001
0000
1000
,
0000
0010
0000
1000
0100
0010
0001
0000
,
1000
0010
0000
0100
0000
0001
0000
0010
,
0000
0001
0000
0100
0100
0010
1000
0010
,
0000
0100
0000
0010
0000
1000
0000
0001
,
0000
0000
0010
0100
0010
0000
0110
0000
,
2001
0000
0100
0000
0010
0000
3100
0010
,
0000
0001
0000
0100
0000
0001
0000
1000
,
0100
1000
0100
0000
0110
0000
0010
0001
,
1000
0010
0001
0100
,
1002
0000
0100
0000
0010
0000
0103
0010
,
0000
1000
0000
0100
0000
1000
0000
0001
,
0100
0001
0100
0000
1000
0100
1000
0010
,
0000
0000
0100
0010
0100
0000
0110
0000
,
2001
0000
3100
0010
0001
0000
1000
0000
,
0001
0000
0100
0010
1000
0000
0001
0000
,
1002
0000
0103
0010
1000
0000
0001
0000
,
1000
0000
0100
0010
0001
0001
0001
0000
,
0120
1000
0100
1030
,
0001
0000
0010
0100
1000
0000
0001
0000
,
0220
0000
0000
0000
,
0330
0000
0010
0100
0010
0000
0110
0000
,
1000
0100
1000
0001
,
0010
0100
1000
0001
,
0100
0010
0001
0100
,
0010
1000
0100
0010
,
1001
0000
0100
0010
1000
0000
0001
0000
,
1000
0100
1000
0001
,
0010
0100
0010
0001
,
0100
0000
0010
0100
0010
0000
0100
0000
,
1000
1000
1000
0001
,
0010
0010
0010
0001
,
0100
0100
0010
0010
,
1000
0001
1000
0001
,
1000
0000
0100
1000
0100
0000
1000
0000
,
0010
0010
0100
0100
,
0001
0000
0100
0001
0100
0000
0001
0000
,
0020
0000
0000
0030
1001
0000
0100
0000
,
0010
0100
0000
0001
,
0010
0100
1001
0100
,
0010
1000
0000
0001
,
1000
0001
0110
1000
,
0100
0010
0000
0010
,
0001
0100
0110
0010
,
1000
0001
0000
1000
,
0100
1000
1001
0001
,
0001
0001
1000
0010
,
0100
0001
1001
1000
,
1000
1000
0100
0010
,
0100
0000
1000
0000
0110
0000
0010
0100
,
0010
1000
0001
0010
,
0001
0000
0100
0000
0110
0000
0100
0010
,
0100
0000
0010
0000
1000
0000
0001
1000
,
0001
1001
1000
0200
,
0310
0002
1003
0020
,
0130
0002
0013
0200
,
1300
0020
0130
0002
,
2003
3200
0310
0001
,
1000
0010
1000
0000
0001
0000
1000
0100
,
0010
0001
1000
0000
0010
0100
0010
0000
,
0100
0010
0100
0010
0000
0000
0100
0010
,
0100
0000
0110
0000
1001
0000
1000
0100
,
0010
0000
0011
0000
0001
0000
0100
0010
,
1000
0000
0001
0000
1001
0000
0001
0100
,
0010
0000
1000
0000
0010
0000
0100
0001
,
1000
0000
1000
0001
0100
0000
0010
1000
,
0100
0000
1100
0000
1000
0000
0010
0100
,
0001
0000
0010
0000
0011
0000
0001
0100
,
0010
0000
1000
0000
0000
0000
0100
0010
,
0100
0000
0110
0000
1001
0000
0010
0010
,
0010
0000
0010
0000
1001
0000
0100
0010
,
1000
0000
0001
0000
1001
0000
0001
0010
,
0100
0000
0010
0000
0001
0000
0100
0010
,
1000
0000
1000
0010
0100
0000
0101
0000
,
0101
0000
0001
0000
1000
0000
0100
1000
,
0001
1000
0100
0000
0010
0000
1000
0001
,
1000
0000
0010
0000
0000
0000
1000
0001
,
0010
2002
3003
0000
;

//---------------dance-single - ----------------
#NOTES:
     dance-single:
     :
     Hard:
     11:
     0.547628,0.497522,0.266882,0.157703,0.163768,562.000000,44.000000,26.000000,0.000000,0.000000,2.000000,0.547628,0.497522,0.266882,0.157703,0.163768,562.000000,44.000000,26.000000,0.000000,0.000000,2.000000:
0000
0000
0000
0000
,
2000
0000
0000
0000
3100
0000
0010
0000
0001
1000
0000
0001
0000
0000
0000
0000
,
0000
0000
0000
0000
1000
0000
0001
0000
1000
0001
0000
1000
0000
0000
0000
0000
,
0020
0000
0000
0000
0130
0000
0001
0000
1000
0001
0000
1000
0000
0000
0000
0000
,
0000
0000
0000
0000
0001
0000
1000
0000
0001
1000
0000
1000
0002
0000
0000
0000
,
2003
0000
0000
0000
3100
0000
0010
0000
0001
1000
0000
0001
0000
0000
0000
0000
,
0000
0000
0000
0000
1000
0000
0001
0000
1000
0001
0000
1000
0000
0000
0000
0000
,
0020
0000
0000
0000
0130
0000
0001
0000
1000
0001
0000
1000
0000
0000
0000
0000
,
0000
0000
0001
0010
0100
0000
1001
0000
,
2000
0100
0010
0001
,
3002
0100
1000
0010
,
2003
0100
3020
0100
,
2030
0001
3200
0010
,
1300
0000
0100
0000
1000
0010
0100
0000
,
0001
0010
0001
0100
0001
0010
0100
0000
,
1000
0001
1000
0001
0100
0010
1000
0001
,
0000
0000
0010
0100
0010
0000
1001
0000
,
1000
0100
0010
0000
1000
0100
0001
0000
,
1000
0010
0100
0001
1000
0001
1001
0000
,
0001
0100
0010
0000
0001
0100
1000
0000
,
0001
0100
0010
1000
0010
0010
1001
0000
,
1000
0001
0010
0000
0001
1000
0010
0000
,
1000
0100
0010
0001
0100
0010
0110
0000
,
0001
1000
0100
0000
1000
0001
0100
0010
,
0000
0000
0100
0010
0100
0000
1001
0000
,
4000
0000
0000
0000
0000
3000
0000
0010
,
0100
0001
1000
0000
0100
0010
0001
0000
,
1100
0000
1001
0000
0101
0000
0100
0010
,
0000
1000
0001
0010
0100
1000
0001
0000
,
0004
0000
0000
0000
0000
0003
0000
0100
,
0010
1000
0001
0000
0010
0100
1000
0000
,
0101
0000
1001
0000
1100
0000
0100
0010
,
0000
0000
0010
0100
0010
0000
1001
0000
,
0100
0001
1000
0010
0100
0001
1000
0000
,
1000
0001
0100
0010
1000
0001
0100
0000
,
0100
0001
0010
0001
0100
0001
0010
0000
,
0100
0100
0100
1000
0001
0001
0001
0000
,
1000
0100
0010
0000
0001
0100
0010
0000
,
1000
0001
0010
0000
0001
1000
0010
0000
,
0001
0010
0100
1000
0010
0100
0001
1000
,
0010
0000
0100
0001
1000
0000
0110
0000
,
1000
0100
0000
1000
0000
0100
0000
1000
,
0000
0001
0000
1000
0000
0001
0000
0100
,
0000
0001
0000
0100
0000
0001
0000
0010
,
0000
0100
0000
1000
0000
0001
0000
0100
,
0010
0000
0000
0000
1000
0000
0001
0000
1000
0001
0000
1000
0000
0000
0000
0000
,
0001
0100
0001
0000
1000
0100
1000
0000
,
0020
0000
0030
0000
0001
1000
0001
0000
,
0010
0000
0100
0000
1000
0001
1000
0000
,
0100
0010
0001
0010
0100
0010
0001
0010
,
0100
1000
0001
1000
0100
1000
0001
1000
,
0100
0010
0001
0100
0010
1000
0100
0010
,
0100
1000
0010
0100
0001
0010
0100
1000
,
0001
0100
0010
0100
0001
0100
0010
0100
,
0001
0010
0100
0010
0001
0010
0100
0010
,
0001
0100
0001
1000
0100
1000
0010
0100
,
0020
0000
0000
0030
0200
0000
0301
1000
,
0100
1000
0000
0100
0000
0000
0000
0000
0000
0000
0000
0000
1000
0000
0001
0000
,
0100
0001
0000
0100
0000
0000
0000
0000
0200
0000
0000
0000
0301
0000
1000
0000
,
0100
1000
0000
0100
0000
0000
0000
0000
0000
0000
0000
0000
1000
0000
0100
0000
,
1000
0001
0000
0001
2000
0000
0000
0000
3002
0000
0000
0000
0103
0000
0010
0000
,
1000
0001
0000
1000
0000
0000
0000
0000
0000
0000
0000
0000
0010
0000
0100
0000
,
0001
1000
0000
0001
0000
0000
0000
0000
0200
0000
0000
0000
0310
0000
1000
0000
,
0001
1000
0000
0001
0000
0000
0000
0000
0000
0000
0000
0000
1000
0000
0100
0000
,
0010
0100
0000
0100
0020
0000
0000
0000
0032
0000
0000
0000
1003
0000
0010
0000
,
0100
0001
0000
1000
0000
0000
0001
1000
0000
0000
0001
0000
1000
0000
0001
0000
,
0100
0010
0000
1000
0000
0000
0000
0000
0002
0000
0000
0000
1003
0000
0100
0000
,
0010
0001
0000
1000
0000
0000
0001
1000
0000
0000
0001
0000
1000
0000
0001
0000
,
0010
0100
0000
0100
0020
0000
0000
0000
0032
0000
0000
0000
1003
0000
0010
0000
,
0100
0010
0000
1000
0000
0000
0001
0010
0000
0000
0010
0000
0001
0000
1000
0000
,
0001
0100
0000
0010
0000
0000
0000
0000
2000
0000
0000
0000
3100
0000
0010
0000
,
0001
1000
0000
0010
0000
0000
0000
0000
0000
0000
0000
0000
0100
0000
0010
0000
,
1000
0000
1001
0000
1000
0100
1000
0100
,
1000
0010
1000
0010
0100
0010
0100
0010
,
0100
0001
0100
0001
1000
0001
1000
0100
,
1000
0001
0010
0001
1000
0001
0100
0010
,
1000
0100
0010
0001
1000
0000
0100
0000
,
1000
0010
0100
0000
0001
0010
0001
0100
,
0001
0010
0100
0000
1000
0001
1000
0010
,
1000
0100
0010
0001
0000
0000
0100
0010
,
1000
0000
0110
0000
1001
0000
1000
0100
,
0010
0000
0011
0000
1100
0000
0010
0001
,
0100
0010
1000
0000
1010
0000
0010
0100
,
0001
0000
0011
0000
0110
0000
1000
0001
,
0010
0001
1000
0010
0110
0000
0100
0001
,
1000
0000
1100
0000
0011
0000
0001
0100
,
0010
0000
0110
0000
1001
0000
0100
0010
,
1000
0000
1100
0000
0000
0000
0110
0110
,
0110
0000
1001
0000
1000
0000
0001
1000
,
0010
0100
0000
0010
0000
0100
0010
0000
1001
0000
0000
0000
1000
0000
0100
0000
,
0010
0001
0100
0000
0101
0000
0010
1000
,
0100
0000
1100
0000
0011
0000
0001
0100
,
1000
0100
0001
0010
0110
0000
0001
1000
,
0010
0000
1010
0000
0101
0000
1000
0100
,
0001
0100
1000
0000
1010
0000
0110
0110
,
0100
0010
0000
0110
0000
0000
0000
0000
0000
0000
0000
0000
1000
0000
0001
0000
,
0010
2002
3003
0000
;

//---------------dance-single - ----------------
#NOTES:
     dance-single:
     :
     Challenge:
     14:
     0.694066,0.936512,0.400323,0.139506,0.448847,712.000000,66.000000,23.000000,8.000000,0.000000,3.000000,0.694066,0.936512,0.400323,0.139506,0.448847,712.000000,66.000000,23.000000,8.000000,0.000000,3.000000:
// measure 0
0000
0000
0000
0000
,  // measure 1
0020
0000
0000
0000
1030
0000
0001
0000
0010
0001
0000
1000
0000
0000
0000
0000
,  // measure 2
0000
0000
0000
0000
0100
0000
0010
0000
0001
0010
0000
0100
0000
0000
0000
0000
,  // measure 3
2000
0000
0000
0000
3010
0000
0100
0000
0001
1000
0000
0010
0000
0000
0000
0000
,  // measure 4
0000
0000
0000
0000
1000
0000
0100
0000
0010
0001
0000
0010
0100
1000
0100
1000
,  // measure 5
0200
0000
0000
0000
1300
0000
0010
0000
0100
0001
0000
1000
0000
0000
0000
0000
,  // measure 6
0000
0000
0000
0000
0100
0000
1000
0000
0001
1000
0000
0100
0000
0000
0000
0000
,  // measure 7
0020
0000
0000
0000
0031
0000
0100
0000
0010
1000
0000
0001
0000
0000
0000
0000
,  // measure 8
M00M
0000
1000
0100
0010
0000
1001
0000
,  // measure 9
0001
0100
0010
0010
1000
0100
0010
0010
,  // measure 10
0001
1000
0010
0010
1000
0001
0010
0010
,  // measure 11
0001
0100
0010
1000
0001
1000
0010
0100
,  // measure 12
0001
1000
0100
1000
0001
0100
0010
1000
,  // measure 13
0001
0010
0000
0010
0001
0010
0001
0000
0100
0010
0100
0000
0001
0000
1000
0000
,  // measure 14
0100
0010
0100
0010
0001
0010
0001
0010
0001
1000
0001
1000
0010
1000
0010
1000
,  // measure 15
0010
1000
0001
1000
0010
1000
0001
1000
0010
0100
0001
0100
0010
1000
0100
0010
,  // measure 16
0001
0000
1000
0001
0010
0M00
1001
0000
,  // measure 17
0001
1000
0100
1000
0001
1000
0100
1000
,  // measure 18
0001
1000
0010
0100
0001
0010
0110
0000
,  // measure 19
1000
0001
0100
0001
1000
0001
0100
0001
,  // measure 20
1000
0010
0100
0001
0011
0010
0110
0100
,  // measure 21
1100
0001
1100
0000
0101
1000
0101
0000
,  // measure 22
1010
0010
0110
0100
0200
0001
0010
0310
,  // measure 23
1000
0001
0010
0001
1000
0010
0100
0001
,  // measure 24
0010
0000
0100
1000
0010
0000
1001
0000
,  // measure 25
4000
0100
0000
0100
0000
0100
3000
1010
,  // measure 26
0000
0101
0000
0011
0000
1100
0000
0010
,  // measure 27
0110
0000
1001
0000
0110
0000
2000
3001
,  // measure 28
1000
0001
0100
1000
0100
0001
0010
0000
,  // measure 29
0004
0100
0000
0100
0000
0100
0003
0101
,  // measure 30
0000
1010
0000
0101
0000
1100
0000
0010
,  // measure 31
0011
0010
0110
0100
1100
1000
0002
0103
,  // measure 32
1000
0000
0001
0000
0100
0100
1001
0000
,  // measure 33
0110
0000
0100
0000
0001
0000
0100
0000
0010
0100
0000
0001
0000
0100
0010
0000
,  // measure 34
1000
0000
0100
0000
0001
0000
0100
0000
1000
0100
0000
1000
0000
0001
0100
0000
,  // measure 35
0001
0100
0010
1000
0001
0010
0100
0010
,  // measure 36
1000
0100
0010
0001
0100
0100
0100
0010
,  // measure 37
1000
0000
0001
0000
0010
0000
0001
0000
1000
0010
0000
0100
0000
0010
1000
0000
,  // measure 38
0001
0000
1000
0000
0100
0000
1000
0000
0001
0100
0000
0010
0000
1000
0001
0000
,  // measure 39
0010
0100
0010
0100
0010
0100
0010
0100
0010
0100
0010
0100
0010
0100
0010
0100
,  // measure 40
0010
0000
0001
1000
0010
0000
1001
0000
,  // measure 41
2000
0100
0010
0001
,  // measure 42
0010
0000
0000
0000
0100
0000
0000
0000
0010
0000
0000
0000
3001
1000
0001
1000
,  // measure 43
0002
0100
0010
1000
,  // measure 44
0010
0100
0010
1000
,  // measure 45
2003
0000
0000
0000
3001
0000
0100
0000
0010
1000
0000
0001
0000
0000
0000
0000
,  // measure 46
1000
0100
0010
0000
0001
0100
0010
0000
,  // measure 47
1200
0010
0001
0310
,  // measure 48
1000
0000
0001
0100
1000
0000
1001
0000
,  // measure 49
1000
0100
0001
0100
1000
0100
0001
0100
,  // measure 50
1000
0010
0001
0010
1000
0010
0001
0010
,  // measure 51
1000
0100
0010
0100
1000
0010
0100
0010
,  // measure 52
0100
0001
0010
0100
0010
0001
0100
0010
,  // measure 53
1000
0001
0010
0001
1000
0010
1000
0100
,  // measure 54
0010
0100
1000
0001
1000
0100
0010
0001
,  // measure 55
1000
0010
1000
0100
1000
0010
0100
0001
,  // measure 56
0020
0000
0000
0030
0200
0000
1300
0001
,  // measure 57
0010
0001
0000
1000
0000
0000
0000
0000
0000
0000
0000
0000
0010
0000
1000
0000
,  // measure 58
0001
1000
0000
0010
0000
0000
0000
0000
2000
0000
0000
0000
3100
0000
0010
0000
,  // measure 59
0001
0010
0000
0100
0000
0000
0000
0000
0000
0000
0000
0000
1000
0000
0001
0000
,  // measure 60
1000
0010
0000
0100
0001
0100
0010
0100
0001
0000
0000
0000
1000
0000
0001
0000
,  // measure 61
1000
0100
0000
0001
0000
0000
0000
0000
0000
0000
0000
0000
0001
0000
1000
0000
,  // measure 62
0001
0100
0000
1000
0000
0000
0000
0000
0020
0000
0000
0000
1030
0000
0100
0000
,  // measure 63
1000
0010
0000
0100
0000
0000
0000
0000
0000
0000
0000
0000
0001
0000
1000
0000
,  // measure 64
0100
0010
0000
0001
0010
0100
1000
0100
0010
0000
0001
0000
0100
0000
0001
0000
,  // measure 65
0010
0100
0000
0100
1000
0000
1000
0010
0000
0010
1000
0000
0100
0000
0010
0000
,  // measure 66
0001
0010
0000
0010
0001
0000
0000
0000
0200
0000
0000
0000
0310
0000
1000
0000
,  // measure 67
0001
0010
0000
0010
0001
0000
0001
0100
0000
0100
0001
0000
1000
0000
0100
0000
,  // measure 68
0010
0001
0000
0010
0100
1000
0100
0010
0100
0000
1000
0000
0010
0000
0100
0000
,  // measure 69
0001
1000
0000
1000
0100
0000
0100
0010
0000
0010
0001
0000
1000
0000
0001
0000
,  // measure 70
0100
0010
0000
0010
1000
0000
0000
0000
0002
0000
0000
0000
1003
0000
0100
0000
,  // measure 71
1000
0010
0000
0100
0000
0000
0000
0000
M00M
0000
0000
0000
1000
0000
0100
0000
,  // measure 72
0010
0000
1001
0000
0001
1000
0100
0100
,  // measure 73
1000
0001
0100
0100
0001
1000
0100
0100
,  // measure 74
1000
0001
0100
0100
0001
0010
0100
1000
,  // measure 75
0010
0100
0010
1000
0100
0010
0001
0100
,  // measure 76
0010
0000
0100
0000
0001
0000
0010
0000
0100
1000
0000
1000
0100
1000
0100
0000
,  // measure 77
0010
0001
0010
0000
0100
0000
1000
0000
0001
0100
0001
0100
0010
1000
0010
1000
,  // measure 78
0100
1000
0100
1000
0010
0100
0010
0100
0001
0010
0001
0100
0001
0010
0001
0100
,  // measure 79
0010
1000
0001
0010
0100
1000
0010
0100
0001
0000
0000
0000
1000
0000
0100
0000
,  // measure 80
0001
0M00
1001
0000
1100
0000
0110
0100
,  // measure 81
1100
0000
0101
0000
1000
0100
1000
0001
,  // measure 82
0100
0010
0000
1000
0001
0000
0000
0000
0110
0000
0000
0000
1001
0000
1000
0000
,  // measure 83
1100
0000
0011
0000
0001
0100
0010
1000
,  // measure 84
0001
0010
0000
0001
0100
0001
0100
0001
0100
0000
0000
0000
1100
0000
1000
0000
,  // measure 85
1010
0000
0101
0000
1000
0010
0100
0001
,  // measure 86
0010
0100
0000
1000
0100
0000
0000
0000
0011
0000
0000
0000
1100
0000
1000
0000
,  // measure 87
1001
0000
0101
0000
M00M
0000
0110
0110
,  // measure 88
0110
0000
1001
0000
0220
0000
0000
0330
,  // measure 89
1000
0001
0000
1000
0002
0000
0103
0000
0110
0000
0000
0000
1010
0000
1000
0000
,  // measure 90
1100
0100
0110
0001
1001
0000
1010
1000
,  // measure 91
1100
0000
0000
0000
0101
0000
0004
0003
1001
0000
0000
0000
1001
0000
0100
0000
,  // measure 92
0010
1000
0000
0001
0010
0100
1000
0001
0100
0000
0000
0000
0110
0000
0100
0000
,  // measure 93
0001
1000
0000
0200
0010
0000
0010
0000
0310
0000
0000
0000
0011
0000
0001
0000
,  // measure 94
0100
0010
0000
1000
0001
0000
0000
0000
1000
0100
1000
0100
1000
0001
1000
0001
,  // measure 95
1000
0010
0100
0001
1000
0010
0100
0001
1000
0000
0000
0000
0010
0000
0100
0000
,  // measure 96
0010
2002
3003
0000
;
