#TITLE:Passacaglia;
#SUBTITLE:;
#ARTIST:Synthwulf;
#TITLETRANSLIT:;
#SUBTITLETRANSLIT:;
#ARTISTTRANSLIT:;
#GENRE:;
#CREDIT:;
#BANNER:passacaglia-bn.png;
#BACKGROUND:passacaglia-bg.png;
#LYRICSPATH:;
#CDTITLE:arsa-cd.png;
#MUSIC:Passacaglia.ogg;
#OFFSET:-0.271000;
#SAMPLESTART:66.099998;
#SAMPLELENGTH:12.000000;
#SELECTABLE:YES;
#BPMS:0.000000=175.000000
;
#STOPS:
;
#BGCHANGES:;
#KEYSOUNDS:;
#ATTACKS:;

//---------------dance-single - ----------------
#NOTES:
     dance-single:
     :
     Beginner:
     2:
     0.141998,0.140741,0.000000,0.017593,0.000000,111.000000,0.000000,2.000000,0.000000,0.000000,0.000000,0.141998,0.140741,0.000000,0.017593,0.000000,111.000000,0.000000,2.000000,0.000000,0.000000,0.000000:
0000
0000
0000
0000
,
0000
0000
0000
0000
,
0000
0000
0000
0000
,
0000
0000
0000
0000
,
0000
0000
0000
0000
,
0000
0000
0000
0000
,
0000
0000
0000
0000
,
0000
0000
0000
0000
,
0010
0010
0000
0000
,
1000
0000
1000
0000
,
0001
0001
0000
0000
,
0100
0000
0100
0000
,
0010
0010
0000
0000
,
1000
1000
0000
0000
,
0001
0000
1000
0000
,
0001
0000
0000
0000
,
1000
0000
0000
0001
,
0000
0000
0000
1000
,
0000
0000
0000
0001
,
0000
0000
0000
1000
,
0000
0001
0000
0001
,
0000
0000
0000
0010
,
0000
0000
0000
0100
,
0000
0000
0000
1000
,
0000
0000
0010
0000
,
0010
0000
0010
0000
,
1000
0000
0000
0000
,
0001
0000
0000
0000
,
0000
0000
0100
0000
,
0100
0000
0100
0000
,
0100
0000
0000
0000
,
0010
0000
0000
0000
,
2000
0000
0000
0000
,
3000
0000
0000
0000
,
0002
0000
0000
0000
,
0003
0000
0000
0000
,
0100
0000
0000
0000
,
0010
0000
0000
0000
,
1000
0000
0001
0000
,
1000
0000
0001
0000
,
0010
0010
0000
0000
,
0010
0010
0000
0000
,
0010
0010
0000
0000
,
0010
0010
0000
0000
,
0010
0000
0100
0000
,
0010
0000
0100
0000
,
0010
0000
0100
0000
,
0010
0000
0000
0000
,
1000
0000
0001
0000
,
1000
0000
0000
0000
,
0001
0000
1000
0000
,
0001
0000
0000
0000
,
0100
0000
0010
0000
,
0100
0000
0000
0000
,
0010
0000
1000
0000
,
0001
0000
0000
0000
,
1000
0000
0100
0000
,
0010
0000
0000
0000
,
0001
0000
0100
0000
,
0010
0000
0000
0000
,
1000
0000
0001
0000
,
0010
0000
0000
0000
,
0001
0000
1000
0000
,
0010
0000
0000
0000
,
1000
0000
0000
0100
,
0100
0000
0000
0000
,
0001
0000
0000
0010
,
0010
0000
0000
0000
,
1000
0000
0000
0001
,
0001
0000
0000
0000
,
1000
0000
0001
0000
,
1000
0000
0000
0000
,
0000
0001
0000
0001
,
0001
0000
1000
0000
,
0000
1000
0000
1000
,
1000
0000
0001
0000
,
0000
0010
0000
0010
,
0010
0000
0100
0000
,
1000
0000
0001
0000
,
1000
0000
0001
0000
,
1000
0000
0000
0000
;

//---------------dance-single - ----------------
#NOTES:
     dance-single:
     :
     Easy:
     8:
     0.395834,0.457408,0.158334,0.272686,0.008796,266.000000,18.000000,31.000000,0.000000,0.000000,0.000000,0.395834,0.457408,0.158334,0.272686,0.008796,266.000000,18.000000,31.000000,0.000000,0.000000,0.000000:
0000
0000
0000
0000
,
0000
0000
0000
0000
,
0000
0000
0000
0000
,
0000
0000
0000
0000
,
0000
0000
0000
0000
,
0000
0000
0000
0000
,
0000
0000
0000
0000
,
0000
0000
0000
0000
,
0010
0110
0000
1001
,
0000
0110
0010
1000
,
0001
1001
0000
0110
,
0000
1001
0001
1000
,
0100
1100
0000
0101
,
0000
1100
1000
0001
,
0010
0100
1000
0001
,
0020
0000
0200
0330
,
1000
0001
0100
0001
,
1000
0001
0010
0001
,
1000
0010
0100
0001
,
1000
0100
0010
0001
,
0000
1000
0100
1000
,
0001
1000
0100
1000
,
0010
0100
0001
0010
,
0001
0100
0010
1000
,
0001
0000
1001
0000
,
0010
0100
0110
0000
,
1000
0100
0010
0100
,
1000
0001
0100
0010
,
1000
0000
0110
0000
,
0001
1000
1001
0000
,
1000
0100
0001
0100
,
1000
0010
0100
0001
,
0020
0000
0000
0030
,
0200
0000
0000
0300
,
2000
0000
0000
3000
,
0002
0000
0000
0003
,
0200
0300
0020
0030
,
2000
3000
0002
0003
,
2000
3100
0002
0103
,
2000
0000
0001
3001
,
0100
0010
0100
0001
,
1000
0100
0010
0001
,
0010
0100
0010
0001
,
1000
0010
0100
0001
,
1000
0100
0001
0100
,
1000
0010
0001
0010
,
1000
0100
0010
0001
,
1000
0001
1000
0001
2000
0000
3000
0000
,
0101
0100
0010
1000
,
0200
0010
1000
0310
,
0001
0100
1000
0100
,
0002
0100
0010
0103
,
0010
1000
0100
1000
,
0020
1000
0100
1030
,
0001
0100
1000
0010
,
1000
0100
0010
0001
2000
0000
3000
0000
,
0010
0100
0001
0000
0010
0000
0100
0000
,
2000
0100
0010
3100
,
1000
0010
0100
0000
0001
0000
1000
0000
,
0020
0100
0001
0130
,
1000
0001
0010
0000
0001
0000
1000
0000
,
0100
1000
0010
0100
,
0001
0010
0100
1000
,
0020
0000
0000
0030
,
1000
0001
0100
0000
0001
0000
1000
0000
,
2100
3001
0102
1003
,
0010
1000
0001
0000
0010
0000
0001
0000
,
2010
3001
0012
1003
,
0010
0100
0001
0000
0010
0000
0100
0000
,
2000
3020
0230
0302
,
1003
0100
1000
0000
0001
0000
0100
0000
,
0020
0000
0200
0330
,
0000
0001
0010
0100
1000
0000
0001
0000
,
0100
1000
0010
1000
,
0000
1000
0100
0010
0001
0000
1000
0000
,
0100
0001
0010
0001
,
0000
0100
0010
1000
0001
0000
0100
0000
,
0010
0010
1000
1000
,
0001
0010
1000
0100
,
0001
0000
0000
1000
0000
0000
0001
0000
0000
1000
0000
0000
0001
0000
1000
0000
,
0010
0000
0000
0000
;

//---------------dance-single - ----------------
#NOTES:
     dance-single:
     :
     Medium:
     12:
     0.560451,0.562964,0.131945,0.211112,0.008796,407.000000,15.000000,24.000000,0.000000,0.000000,0.000000,0.560451,0.562964,0.131945,0.211112,0.008796,407.000000,15.000000,24.000000,0.000000,0.000000,0.000000:
0000
0000
0000
0000
,
0000
0000
0000
0000
,
0000
0000
0000
0000
,
0000
0000
0000
0000
,
0000
0000
0000
0000
,
0000
0000
0000
0000
,
0000
0000
0000
0000
,
0000
0000
0000
0000
,
1000
0000
1100
0000
0000
0001
0100
0000
,
0001
0000
0101
0000
0000
1000
0100
0000
,
1000
0000
1100
0000
0000
0001
0100
0000
,
0001
0000
0101
0000
0100
0010
1000
0000
,
0001
0000
0011
0000
0000
0001
0010
0000
,
1000
0000
1010
0000
1000
0010
0100
0000
,
0001
0010
0001
0100
0010
1000
0100
1000
,
0020
0000
0200
0330
,
0001
1000
0100
0000
1000
0000
0001
0000
,
1000
0001
0010
0000
0001
0000
0100
0000
,
0010
1000
0001
0000
0010
0000
0001
0000
,
0100
0010
1000
0000
0100
0010
0001
0100
,
0010
1001
1000
0100
,
0001
0010
0100
0000
0010
0000
0001
0000
,
0100
0010
1000
0000
0001
0000
1000
0000
,
0100
0001
0010
0001
0010
0100
1000
0001
,
0010
0100
1001
0000
,
1000
0010
0100
0010
1001
0000
0000
0000
,
1000
0100
0001
0000
0001
0100
1000
0000
,
0010
0100
0001
0000
0010
0100
1000
0000
,
0001
1000
0110
0000
,
0001
0010
0100
0010
1001
0000
0000
0000
,
1000
0010
0100
0000
0001
0010
0100
0000
,
1000
0001
1000
0000
0010
0000
0010
0000
,
1000
0100
0000
1000
0000
0100
0000
1000
,
0000
0001
0000
0100
0000
0001
0000
0100
,
0000
0010
0000
1000
0000
0100
0000
1000
,
0000
0010
0000
0001
0000
0100
0000
0001
,
2000
3200
0320
0032
,
0203
0320
2030
3002
,
1003
0100
0010
0000
0001
0100
0010
0000
,
0200
0302
2003
3100
,
0010
0001
0010
0000
0001
0100
0001
0000
,
0010
1000
0010
1000
0010
0000
0100
0000
,
0001
1000
0001
0000
1000
0001
1000
0000
,
0010
0100
0010
0100
0010
0000
1000
0000
,
0001
0010
0001
0010
0100
1000
0100
1000
,
0010
0100
0010
0100
0001
1000
0001
1000
,
0001
0010
0100
1000
0010
0100
0001
1000
,
0010
0100
0010
0100
0020
0000
0030
0000
,
1000
0100
0001
0100
1000
0010
0200
0000
,
0010
1000
0010
0301
,
1000
0100
0010
0100
1000
0001
0020
0000
,
0100
1000
0100
0031
,
1000
0001
0010
0001
1000
0010
0200
0000
,
0010
0001
0010
1300
,
0001
0010
1000
0010
0001
0100
0010
1000
,
0010
0010
0100
0100
0020
0000
0030
0000
,
1000
0100
0010
0100
1000
0001
0010
0001
,
0100
0010
0100
0010
1000
0001
1000
0000
,
0001
0010
0001
1000
0010
0100
0001
1000
,
0100
0010
0100
0010
0001
1000
0001
0000
,
1000
0010
0001
1000
0100
0001
1000
0010
,
0100
0001
0100
0001
1000
0010
1000
0000
,
0001
0010
0100
1000
0010
0100
0001
1000
,
0020
0000
0000
0030
,
1000
0100
0001
0100
1000
0000
1200
0000
,
0010
0001
0010
1300
,
0001
0100
0010
0100
0001
0000
1002
0000
,
0100
0010
0100
1003
,
1000
0010
0001
0010
1000
0000
1200
0000
,
0010
1000
0001
1300
,
0001
0100
0010
1000
0001
0010
0100
1000
,
0020
0000
0200
0330
,
1000
0100
0010
0100
1000
0010
0100
0010
,
1000
0100
1000
0100
0010
0001
0010
0000
,
0001
0100
0010
0100
0001
0010
0100
0010
,
0001
0100
0001
0100
0010
1000
0010
0000
,
1000
0100
0001
1000
0010
0001
0100
0010
,
1000
0100
0001
0100
1000
0010
0001
0000
,
1000
0100
0010
0001
0100
0010
1000
0001
,
0010
0000
0000
0100
0000
0000
0010
0000
0000
0100
0000
0000
0010
0000
0100
0000
,
1001
0000
0000
0000
;

//---------------dance-single - ----------------
#NOTES:
     dance-single:
     :
     Hard:
     15:
     0.762766,0.844446,0.167130,0.175926,0.488195,568.000000,19.000000,20.000000,14.000000,0.000000,0.000000,0.762766,0.844446,0.167130,0.175926,0.488195,568.000000,19.000000,20.000000,14.000000,0.000000,0.000000:
0000
0000
0000
0000
,
0000
0000
0000
0000
,
0000
0000
0000
0000
,
0000
0000
0000
0000
,
0000
0000
0000
0000
,
0000
0000
0000
0000
,
0000
0000
0000
0000
,
0000
0000
0000
0000
,
1000
0000
1100
0000
0000
0010
0011
0000
,
0001
0000
0101
0000
0000
0010
1010
0000
,
0010
0000
0110
0000
0000
1000
1001
0000
,
0100
0000
0000
0000
0110
0000
0000
0100
0000
0000
1000
0000
1001
0000
0000
0000
,
0010
0000
1010
0000
0000
0100
0101
0000
,
0010
0000
0000
0000
1001
0000
0000
0100
0000
0000
0010
0000
1001
0000
0000
0000
,
1000
0100
0010
0001
0100
0010
1000
0001
,
0010
0100
0010
0100
0020
0000
0030
0000
,
0001
0000
0100
0000
1000
0000
0000
0010
0000
0100
0000
0001
1000
0000
0100
0000
,
0010
0000
0001
0000
0010
0000
0000
0100
0000
1000
0000
0001
0100
0000
0010
0000
,
1000
0000
0001
0000
0010
0000
0000
0001
0000
1000
0000
0010
0100
0000
0001
0000
,
1000
0000
0010
0000
0100
0000
0001
0010
0000
0001
0000
0100
0010
0000
1000
0000
,
MMMM
0000
0000
0000
0110
0000
0000
0100
0000
0001
0000
1000
0100
0000
0010
0000
,
0001
0000
0010
0000
1000
0000
0000
0001
0000
0100
0000
0010
1000
0000
0001
0000
,
0100
0000
0010
0000
1000
0000
0000
0100
0000
0010
0000
0100
0010
0000
0001
0000
,
1000
0000
0010
0000
0100
0000
0001
0010
0000
0001
0000
0100
0010
0000
1000
0000
,
0001
0010
1001
0MM0
,
1000
0100
1000
0000
0001
0100
0001
0000
0010
0000
0000
0000
M00M
0000
0000
0000
,
1000
0000
0100
0000
0001
0000
0000
0100
0000
0010
0000
1000
0001
0000
0010
0100
,
0010
0000
0001
0000
1000
0000
0000
0010
0000
0100
0000
0001
1000
0000
0100
0010
,
0001
1000
0110
M00M
,
1000
0100
1000
0000
0001
0100
0001
0000
0010
0000
0000
0000
M00M
0000
0000
0000
,
1000
0100
0010
0001
0100
0010
1000
0001
,
1000
0000
1000
0000
0010
0100
0000
0000
0110
0000
0000
0101
0000
0000
1001
0000
,
2000
0100
0000
0010
0000
0100
0000
0010
,
3002
0100
0000
0010
0000
0100
0000
1000
,
0203
0010
0000
0001
0000
1000
0000
0010
,
0302
1000
0000
0010
0000
1000
0000
0100
,
0023
1000
0000
1000
0230
0010
0000
0010
,
0302
1000
0000
1000
0023
0100
0000
0100
,
0032
0013
2000
3010
0002
0103
2000
3100
,
0020
0000
0000
0000
0130
0000
0000
0000
0100
0000
1000
0001
1000
0000
0010
0000
,
0100
0100
0001
0001
0010
0010
0100
0100
,
1000
0000
1000
0000
0010
0000
0010
0000
0100
0000
0001
1000
0001
0000
0010
0100
,
0010
0010
1000
1000
0001
0001
0100
0100
,
0010
0000
0010
0000
1000
0000
1000
0000
0001
0000
0010
0100
0010
0000
0001
0000
,
0100
0010
0100
0010
0100
0000
0001
0000
0010
0001
0010
0001
0010
0000
1000
0000
,
0010
0100
0010
0100
0010
0000
1000
0000
0100
0010
0100
0010
0001
0000
1000
0000
,
0010
0100
0010
1000
0001
1000
0100
0010
0100
0010
0001
1000
,
0010
0010
0100
0100
0020
0000
M13M
0000
,
1001
0001
0100
0010
1000
0001
0010
0001
,
1000
0010
0100
0000
0001
0010
0100
0000
1000
0001
0100
0000
0001
1000
0100
0000
,
0010
0001
0001
0100
0001
1000
0100
0010
,
0001
1000
0010
0000
1000
0001
0010
0000
0001
1000
0100
0000
1000
0001
0100
0000
,
0010
1000
1000
0100
0010
0001
1000
0100
,
0001
0100
0010
0000
1000
0100
0010
0000
0001
1000
0010
0000
1000
0001
0010
0000
,
1000
0100
0001
0100
1000
0010
0001
0010
,
1000
1000
0001
0001
0200
0000
0320
0000
,
1030
0000
0001
0010
0001
0000
0100
0000
0010
0000
1000
0000
0001
0000
1000
0000
,
0001
0010
0100
0000
1000
0010
0100
0000
0001
1000
0100
0000
1000
0001
0100
0000
,
0010
0000
1000
0001
1000
0000
0010
0000
0100
0000
0001
0000
1000
0000
0100
0000
,
0010
0001
1000
0000
0010
1000
0001
0000
0100
0001
1000
0000
0100
1000
0001
0000
,
0100
0000
0010
1000
0010
0000
0100
0000
0001
0000
1000
0000
0100
0000
0010
0000
,
0001
0010
0100
0000
1000
0010
0100
0000
0001
1000
0100
0000
1000
0001
0100
0000
,
0010
1000
0100
1000
0010
0001
0100
0001
,
0020
0000
0000
0030
,
0001
0000
0100
0010
1000
0000
0001
0000
0010
0000
0001
0000
0100
0000
0010
0000
,
1000
0100
0001
1000
0010
0001
0100
0010
,
1000
0000
0001
0010
0100
0000
1000
0000
0001
0000
0100
0000
1000
0000
0010
0000
,
0100
0001
0010
0100
1000
0010
0100
0001
,
1000
0000
0100
0010
0001
0000
0100
0000
0010
0000
1000
0000
0001
0000
1000
0000
,
0010
0100
0001
1000
0100
0001
1000
0010
,
0100
0001
0010
0100
1000
0010
0100
0001
,
0020
0000
0200
0330
,
0000
0000
1000
0010
0100
0001
0100
0010
1000
0000
0100
0000
0010
0000
0001
0000
,
0100
0000
0100
1000
0001
0000
0100
0001
1000
0000
0100
0000
0010
0000
0001
0000
,
0000
0000
1000
0010
0100
0010
1000
0001
0010
0000
0100
0000
1000
0000
0001
0000
,
0010
0000
0010
1000
0001
0000
0010
0001
1000
0000
0010
0000
0100
0000
0010
0000
,
0000
0000
0100
0010
1000
0100
0010
0001
0100
0000
0001
0000
1000
0000
0010
0000
,
1000
0000
0010
1000
0100
0000
0010
0001
0100
0000
0010
0000
1000
0000
0001
0000
,
0010
0100
0010
0001
1000
0001
0100
0010
,
1000
0100
0000
0100
0010
0000
0010
0001
0000
0001
0100
0000
0010
1000
0001
0010
,
0100
0000
0000
0000
;

//---------------dance-single - ----------------
#NOTES:
     dance-single:
     :
     Challenge:
     17:
     0.926126,1.000000,0.334260,0.140741,0.919215,683.000000,38.000000,16.000000,24.000000,0.000000,0.000000,0.926126,1.000000,0.334260,0.140741,0.919215,683.000000,38.000000,16.000000,24.000000,0.000000,0.000000:
// measure 0
0000
0000
0000
0000
,  // measure 1
0000
0000
0000
0000
,  // measure 2
0000
0000
0000
0000
,  // measure 3
0000
0000
0000
0000
,  // measure 4
0000
0000
0000
0000
,  // measure 5
0000
0000
0000
0000
,  // measure 6
0000
0000
0000
0000
,  // measure 7
0000
0000
0000
0000
,  // measure 8
1000
0001
1001
0000
0000
0010
0110
0000
,  // measure 9
1000
0100
1100
0000
0000
0001
0101
0000
,  // measure 10
0001
0100
0101
0000
0000
1000
1100
0000
,  // measure 11
0010
0000
0100
0000
0110
0000
0000
1001
0000
0010
0100
0000
1001
0000
0000
0000
,  // measure 12
1000
0100
0110
0000
0000
0001
1001
0000
,  // measure 13
0001
0000
0100
0000
0110
0000
0000
1001
0000
0010
0100
0000
1001
0000
0000
0000
,  // measure 14
0100
0010
1000
0001
0010
0100
1000
0001
,  // measure 15
0010
0100
0010
0100
0020
0000
0030
0000
,  // measure 16
0001
1000
0001
1000
0001
0000
0010
0100
0000
1000
0000
0010
0100
0000
0001
0000
,  // measure 17
1000
0010
1000
0010
1000
0000
0100
0010
0000
0001
0000
0010
0100
0000
1000
0000
,  // measure 18
0010
0100
0001
0100
0010
0000
1000
0001
0000
0010
0000
0001
1000
0000
0010
0000
,  // measure 19
1000
0100
0010
0100
1000
0000
0010
0100
0000
0001
0000
0010
0100
0000
1000
0001
,  // measure 20
MMMM
0000
0000
0000
1001
0000
0000
0100
0000
0010
0000
1000
0001
0000
0010
0000
,  // measure 21
0100
1000
0100
0010
0100
0000
1000
0010
0000
0100
0000
0001
1000
0000
0100
0000
,  // measure 22
0010
0001
0010
0100
1000
0000
0001
0100
0000
0010
0000
0100
0001
0000
1000
0000
,  // measure 23
0100
0010
0001
0100
0010
0000
1000
0001
0000
1000
0000
0100
0010
0000
0001
1000
,  // measure 24
0010
0100
1001
MMMM
,  // measure 25
1000
0100
1000
0000
0001
0100
0001
0000
1001
0000
0000
0000
MMMM
0000
0000
0000
,  // measure 26
1000
0100
0010
0100
1000
0000
0001
0100
0000
0010
0000
1000
0001
0000
1000
0000
,  // measure 27
0100
0010
0001
0010
0100
0000
1000
0001
0000
0010
0000
0001
1000
0000
0010
0100
,  // measure 28
0001
1000
0110
MMMM
,  // measure 29
1000
0010
1000
0000
0001
0010
0001
0000
1001
0000
0000
0000
MMMM
0000
0000
0000
,  // measure 30
0001
0010
0100
0010
0001
0000
1000
0010
0000
0100
0000
0001
1000
0000
0010
0000
,  // measure 31
0100
0000
0100
0000
0010
0100
0000
0000
1001
0000
0000
0101
0000
0000
0110
0000
,  // measure 32
2010
0100
0000
0010
0000
0100
0000
0010
,  // measure 33
3002
0100
0000
0010
0000
0100
0000
0010
,  // measure 34
2003
0001
0000
0100
0000
0001
0000
0100
,  // measure 35
3020
0001
0000
0100
0000
0001
0000
0100
,  // measure 36
2030
0001
0000
0010
3200
0001
0000
0010
,  // measure 37
2300
0100
0000
0010
3002
0100
0000
1000
,  // measure 38
0023
0130
0002
1003
0200
0310
0002
1003
,  // measure 39
0010
0000
0100
0000
0010
0000
0000
0000
1001
0000
0010
0100
0010
0000
1001
0000
,  // measure 40
1000
1000
0100
0100
0001
0001
0010
0010
,  // measure 41
0001
0000
0001
0000
0100
0000
0100
0000
0010
0000
1000
0001
1000
0000
0010
0001
,  // measure 42
1000
1000
0100
0100
0001
0001
0100
0100
,  // measure 43
1000
0000
1000
0000
0010
0000
0010
0000
0001
0000
0001
0000
1000
0100
0010
0001
,  // measure 44
0100
0010
0100
0010
1000
0001
1000
0001
0010
0100
0010
0100
1000
0001
1000
0001
,  // measure 45
0010
0001
0100
0010
1000
0100
0010
0001
0100
0010
1000
0100
1000
0010
0100
0001
,  // measure 46
0010
0100
0010
0001
1000
0001
0100
0010
1000
0001
0010
0001
,  // measure 47
1000
0000
1000
0000
0001
0000
0001
0000
0100
0010
0100
0010
0100
0000
0000
0000
,  // measure 48
0001
0010
0100
1000
0001
0000
0100
0000
0010
0000
1000
0000
0001
0000
1000
0000
,  // measure 49
1010
1000
0011
0001
0110
0100
1001
0001
,  // measure 50
1000
0010
0100
0001
0010
0000
0001
0000
0100
0000
0010
0000
1000
0000
0001
0000
,  // measure 51
0011
0001
1010
1000
0110
0100
1001
1000
,  // measure 52
0010
0100
0001
1000
0010
0000
0100
0000
0001
0000
1000
0000
0100
0000
1000
0000
,  // measure 53
0110
0010
1001
0001
1010
1000
0011
0001
,  // measure 54
0100
0010
1000
0001
0010
0100
1000
0001
,  // measure 55
0010
0000
0010
0000
0010
0000
0010
0000
0001
1000
0001
1000
0001
1000
0001
1000
,  // measure 56
0001
0000
1000
0100
0010
0001
0100
0010
1000
0000
0001
0000
0010
0000
1000
0000
,  // measure 57
0001
0010
0100
0000
1000
0010
0100
0000
0001
1000
0100
0000
1000
0001
0100
0000
,  // measure 58
0010
0000
1000
0001
0010
0001
1000
0010
0100
0000
0001
0000
1000
0000
0100
0000
,  // measure 59
0010
0001
0100
0000
0010
1000
0100
0000
0001
0100
1000
0000
0010
0100
0001
0000
,  // measure 60
1000
0000
0100
0010
0001
0010
0100
1000
0010
0000
0100
0000
0001
0000
1000
0000
,  // measure 61
0100
0010
0001
0000
0100
0010
1000
0000
0001
0010
0100
0000
1000
0010
0100
0000
,  // measure 62
0001
1000
0100
0001
0100
1000
0010
0001
,  // measure 63
0020
0000
0000
0030
,  // measure 64
1000
0100
1000
0100
0010
0001
0010
0000
0100
0010
0100
0010
1000
0100
0010
0000
,  // measure 65
1000
0000
0010
1000
0010
0000
0100
0001
0100
0000
0001
0010
0100
0000
0010
0000
,  // measure 66
0001
0100
0001
0100
0010
1000
0010
0000
0001
0010
0001
0010
0100
1000
0100
0000
,  // measure 67
0010
0000
0001
1000
0010
0000
1000
0001
0010
0000
0001
0100
0010
0000
1000
0000
,  // measure 68
0001
0100
0001
0100
0010
0100
0010
0000
0010
1000
0010
1000
0001
0010
0100
0000
,  // measure 69
0001
0000
1000
0010
0100
0000
0010
1000
0100
0000
0010
0001
1000
0000
0010
0000
,  // measure 70
0100
0001
0010
0100
1000
0010
0100
0001
,  // measure 71
0020
0000
0200
0330
,  // measure 72
MMMM
0000
0100
0010
0001
0100
0010
1000
0001
0010
0001
1000
0010
0100
0001
0010
,  // measure 73
0100
1000
0100
1000
0001
0100
0001
0100
0010
1000
0010
1000
0001
0010
0001
0010
,  // measure 74
0100
0000
1000
0001
0010
0001
1000
0010
0100
0001
0010
0100
0010
0001
0100
0010
,  // measure 75
1000
0100
1000
0100
0010
0001
0010
0001
0100
0010
0100
0010
1000
0001
1000
0001
,  // measure 76
0010
0000
0100
1000
0100
0010
0100
1000
0010
0100
0001
0010
0001
0100
0010
1000
,  // measure 77
0001
0010
0001
0010
0100
1000
0100
1000
0010
0100
0010
0100
0001
0010
0001
0010
,  // measure 78
0100
1000
0100
1000
0100
0000
0010
0000
0001
1000
0010
0000
1000
0000
0100
0000
,  // measure 79
0010
0001
0000
1000
0010
0000
0100
0001
0000
1000
0100
0000
0010
0001
0100
0010
,  // measure 80
1001
0000
0000
0000
;
