#TITLE:PUT YOUR HANDS UP;
#SUBTITLE:;
#ARTIST:RiraN;
#TITLETRANSLIT:;
#SUBTITLETRANSLIT:;
#ARTISTTRANSLIT:;
#GENRE:;
#CREDIT:;
#BANNER:put-your-hands-up-bn.png;
#BACKGROUND:put-your-hands-up-bg.png;
#LYRICSPATH:;
#CDTITLE:arsa-cd.png;
#MUSIC:PUT YOUR HANDS UP.ogg;
#OFFSET:-0.928000;
#SAMPLESTART:90.134003;
#SAMPLELENGTH:10.000000;
#SELECTABLE:YES;
#BPMS:0.000000=175.000000
,228.000000=174.000000
,260.000000=175.000000
;
#STOPS:
;
#BGCHANGES:;
#KEYSOUNDS:;
#ATTACKS:;

//---------------dance-single - ----------------
#NOTES:
     dance-single:
     :
     Beginner:
     2:
     0.125885,0.143014,0.014446,0.014446,0.000000,118.000000,2.000000,2.000000,0.000000,0.000000,0.000000,0.125885,0.143014,0.014446,0.014446,0.000000,118.000000,2.000000,2.000000,0.000000,0.000000,0.000000:
0000
0000
0000
0000
,
0000
0000
0000
0000
,
0000
0000
0000
0000
,
0000
0000
0000
0000
,
0000
0000
0000
0000
,
0010
0000
0000
0000
,
0010
0000
0000
0000
,
0010
0000
0000
0000
,
0010
0000
0000
0000
,
1001
0000
0000
0000
,
0100
0000
0000
0000
,
0010
0000
0000
0000
,
0100
0000
0000
0000
,
1000
0000
1000
0000
,
1000
0000
0000
0000
,
0001
0000
0001
0000
,
0001
0000
0000
0000
,
0110
0000
0000
0000
,
1000
0000
0001
0000
,
1000
0000
0000
0000
,
0001
0000
1000
0000
,
0001
0000
0000
0000
,
0010
0000
0100
0000
,
0010
0000
0000
0000
,
0100
0000
0010
0000
,
0100
0000
0000
0000
,
1000
0000
1000
0000
,
0001
0000
0000
0000
,
0001
0000
0001
0000
,
1000
0000
0000
0000
,
0010
0000
0100
0000
,
0001
0000
0000
0000
,
0010
0000
0100
0000
,
1000
0000
0000
0000
,
0000
0000
0001
0000
,
0001
0000
0000
0000
,
0000
0000
0010
0000
,
0010
0000
0000
0000
,
0000
0000
0100
0000
,
0100
0000
0000
0000
,
0000
0000
1000
0000
,
1000
0000
1000
0000
,
0010
0000
0000
0000
,
0001
0000
0001
0000
,
0010
0000
0000
0000
,
1000
0000
0100
0000
,
1000
0000
0000
0000
,
0001
0000
0100
0000
,
0001
0000
0000
0000
,
0010
0000
0000
0000
,
0010
0000
0000
0000
,
0010
0000
0000
0000
,
0010
0000
0000
0000
,
1000
0000
0000
0000
,
0001
0000
0000
0000
,
1000
0000
0000
0000
,
0001
0000
0000
0000
,
0010
0000
0000
0000
,
0010
0000
0010
0000
,
0010
0000
0000
0000
,
0010
0000
0010
0000
,
0020
0000
0000
0000
,
0000
0000
0000
0000
,
0000
0000
0000
0000
,
0030
0000
0000
0000
,
1000
0000
0001
0000
,
0010
0000
0000
0000
,
0001
0000
1000
0000
,
0010
0000
0000
0000
,
1000
0000
0001
0000
,
0100
0000
0000
0000
,
0001
0000
1000
0000
,
0100
0000
0000
0000
,
0010
0000
0100
0000
,
0010
0000
0000
0000
,
0100
0000
0100
0000
,
0100
0000
0000
0000
,
1000
0000
0001
0000
,
1000
0000
0000
0000
,
0001
0000
0001
0000
,
0001
0000
0000
0000
,
1000
0000
0000
0010
,
0000
0000
0000
0000
,
0001
0000
0000
0010
,
0000
0000
0000
0000
,
1000
0000
0000
0100
,
0000
0000
0000
0000
,
0001
0000
0000
0100
,
0000
0000
0000
0000
,
1000
0000
1000
1000
,
0000
0000
0000
0000
,
0001
0000
0001
0001
,
0000
0000
0000
0000
,
0100
0000
0100
0100
,
0000
0000
0000
0000
,
0010
0000
0010
0010
,
0000
0000
0000
0000
,
0020
0000
0000
0000
,
0000
0000
0000
0000
,
0030
0000
0000
0000
;

//---------------dance-single - ----------------
#NOTES:
     dance-single:
     :
     Easy:
     6:
     0.311618,0.286028,0.000000,0.079452,0.000000,291.000000,0.000000,11.000000,0.000000,0.000000,0.000000,0.311618,0.286028,0.000000,0.079452,0.000000,291.000000,0.000000,11.000000,0.000000,0.000000,0.000000:
0000
0000
0000
0000
,
0000
0000
0000
0000
,
0000
0000
0000
0000
,
0000
0000
0000
0000
,
0000
0000
0000
0000
,
1000
0000
1000
0000
,
0001
0000
0001
0000
,
1000
0000
0001
0000
,
1000
0000
0001
0000
,
0010
0010
0010
0000
,
0100
0000
0010
0000
,
0100
0100
0100
0000
,
0010
0000
0100
0000
,
0001
0001
1000
1000
,
0001
0001
1000
1000
,
0001
1000
0001
1000
,
0020
0000
0000
0030
,
1000
0000
0001
0000
,
1000
0100
0010
0100
,
1000
0000
0001
0000
,
0100
0010
1000
0010
,
0100
0000
1000
0000
,
0001
0100
0010
0100
,
0001
0000
1000
0000
,
0001
0010
0100
0010
,
0001
1000
0001
0000
,
2000
0000
3100
0000
,
0001
1000
0001
0000
,
0002
0000
0103
0000
,
1000
0100
0010
0000
,
0020
0000
0031
0000
,
0100
0010
0100
0010
,
1000
0001
0010
0100
,
1000
0000
0000
0000
,
0001
0100
2000
0000
,
3100
0000
0010
0001
,
0010
0001
0020
0000
,
0031
0000
0100
1000
,
0100
0010
0002
0000
,
0103
0000
0010
1000
,
0010
0100
0020
0000
,
0130
0100
0010
0010
,
0100
0100
0010
0010
,
1000
0001
1000
0001
,
0010
0010
0010
0010
,
0001
0000
1000
0100
,
0001
0100
2000
0000
,
3010
0000
0001
0010
,
1000
0000
1000
0010
,
0001
0001
1000
0000
,
0100
0000
0100
0000
,
1000
1000
0001
0000
,
0010
0000
0010
0000
,
1000
0100
1000
0000
,
0010
0000
0100
0000
,
0001
0010
0001
0000
,
0100
0000
0010
0000
,
1000
0000
1000
0000
,
0001
0000
0100
0000
,
1000
0000
0010
0000
,
0001
0000
0010
0000
,
1000
0100
0010
0001
,
1000
0010
0100
0001
,
1000
0100
0010
0100
,
0020
0000
0000
0030
,
1000
1000
0001
0100
,
0010
0100
0001
0000
,
0010
0010
0100
1000
,
0001
1000
0100
0000
,
0001
0001
0100
0010
,
1000
0001
0010
0000
,
1000
1000
0100
0010
,
0001
1000
0010
0000
,
1000
0100
1000
0100
,
0001
0100
0001
0000
,
1000
0010
1000
0010
,
0001
0010
0001
0000
,
0100
0010
1000
0001
,
0010
0100
1000
0000
,
0010
0100
0001
1000
,
0100
0010
0100
0010
,
1000
1000
0001
0010
,
0001
0100
0001
0100
,
0010
0010
1000
0100
,
1000
0010
1000
0010
,
0100
0001
0010
0001
,
0100
0010
1000
0100
,
1000
0010
0001
0010
,
1000
1000
0001
0001
,
1000
0100
0010
0100
,
1000
1000
0010
0100
,
0001
0010
0100
0010
,
0001
0001
0100
0010
,
1000
0001
1000
0010
,
0001
1000
0001
0100
,
1000
0100
0010
0001
,
0100
0010
1000
0001
,
0020
0000
0000
0000
,
0000
0000
0000
0000
,
0030
0000
0000
0000
;

//---------------dance-single - ----------------
#NOTES:
     dance-single:
     :
     Medium:
     8:
     0.508701,0.500549,0.404484,0.231134,0.000000,405.000000,56.000000,32.000000,0.000000,0.000000,0.000000,0.508701,0.500549,0.404484,0.231134,0.000000,405.000000,56.000000,32.000000,0.000000,0.000000,0.000000:
0000
0000
0000
0000
,
0000
0000
0000
0000
,
0000
0000
0000
0000
,
0000
0000
0000
0000
,
0000
0000
0000
0000
,
0010
0010
0100
0010
,
1000
0100
0001
0010
,
0001
0001
0100
1000
,
0010
0100
0010
0100
,
1001
0010
1001
0100
,
1000
0100
0001
0100
,
1001
0100
1001
0010
,
0001
0010
1000
0010
,
0100
0001
0100
0000
0010
0000
1000
0000
,
0100
1000
0100
0000
0010
0000
0001
0000
,
0100
0010
0100
0000
0010
0100
0010
0000
,
2000
3020
0230
0301
,
1100
1100
1000
0010
,
0200
0001
0010
0301
,
0010
0011
0011
0001
,
2000
0010
0100
3010
,
1010
1010
1000
0100
,
0020
0100
0001
0130
,
0001
1001
1001
0001
,
0200
0010
1000
0310
,
1000
0101
1100
0001
,
0020
0230
2300
3002
,
0103
0110
1001
0010
,
2000
3200
0320
0032
,
1003
0011
1010
0001
,
2000
3002
0203
0320
,
1030
1000
0001
0001
,
0110
1001
0110
1001
,
0110
0000
0000
0000
,
1000
0100
0002
0000
,
0013
0000
0000
0000
0100
1000
0100
0000
,
0010
0010
0002
0000
,
1003
0000
0000
0000
0010
0100
0010
0000
,
1000
0001
0020
0000
,
0130
0000
1000
0001
,
0010
0001
0200
0000
,
0310
0010
1000
1000
,
0001
0001
0010
0010
,
0200
1300
0002
0103
,
0020
1000
0001
1030
,
0100
0010
0001
0100
,
0001
0010
0100
1000
,
0010
0000
1000
0000
0001
0100
0001
0000
,
0010
0000
0001
0000
1000
0100
1000
0000
,
0010
0000
0100
0000
0010
0000
1000
0001
,
0000
0010
0000
0001
0000
1000
0010
1000
,
0010
0000
0100
0000
0001
0000
0010
0100
,
0000
0001
0000
0010
0000
0001
1000
0001
,
1000
0000
0010
0000
0100
0000
0001
0010
,
0000
0001
0000
0100
0000
0010
1000
0010
,
0100
0000
1000
0000
0001
0000
0010
0100
,
0000
0010
0000
0001
0000
1000
0010
0000
,
0110
0100
0100
0100
,
0002
0013
2000
3010
,
0001
1000
0010
1000
,
0001
0010
0100
0110
,
1000
0001
1000
0000
0001
1000
0001
0000
,
0010
0100
0010
0000
0100
0010
0100
0000
,
1000
0001
1000
0001
1000
0001
1000
0000
,
0110
1001
0110
1001
,
0110
0000
0100
0000
0001
0000
0010
0001
,
0010
0100
1000
0010
,
1000
0000
0001
0000
0010
0100
0010
0100
,
0010
1000
0001
0100
,
0010
0000
1000
0000
0001
0000
0010
0100
,
1000
0010
0100
0010
,
1000
0000
0001
0000
0010
0001
0100
0001
,
0000
0010
0000
0010
0000
0010
0010
0000
,
1100
1000
0101
0001
,
1010
0011
1010
0001
,
0011
0001
1010
1000
,
0011
0000
1000
0100
0010
0001
1000
0000
,
0101
0100
0110
0010
,
1010
1001
1100
0100
,
0001
0010
0001
0000
1000
0010
1000
0000
,
0110
1001
0110
1001
,
0100
0010
0001
0000
0100
0010
1000
0000
,
0100
0010
0001
1000
,
0010
0100
0001
0000
0010
0100
1000
0000
,
0010
0100
0010
0100
,
1000
0100
0010
0000
0001
0100
0010
0000
,
1000
0100
0001
0010
,
0001
0100
0010
0000
1000
0100
0010
0000
,
0001
0010
1000
0100
,
0001
1000
0100
1000
0001
0000
0100
0000
,
0020
1000
0100
1030
,
0001
0010
0100
0010
0001
0000
0100
0000
,
2000
0100
0010
3100
,
0011
1100
1010
0101
,
0001
0000
0010
0000
1000
0001
1000
0001
,
1000
1000
0001
0001
,
0110
1001
0110
1001
,
0220
0000
0000
0000
,
0000
0000
0000
0000
,
0330
0000
0000
0000
;

//---------------dance-single - ----------------
#NOTES:
     dance-single:
     :
     Hard:
     11:
     0.614981,0.572056,0.686178,0.216688,0.039726,471.000000,95.000000,30.000000,0.000000,0.000000,6.000000,0.614981,0.572056,0.686178,0.216688,0.039726,471.000000,95.000000,30.000000,0.000000,0.000000,6.000000:
0000
0000
0000
0000
,
0000
0000
0000
0000
,
0000
0000
0000
0000
,
0000
0000
0000
0000
,
0000
0000
0000
0000
,
0001
0000
1000
0000
0100
0010
0001
0010
,
0000
0100
0000
1000
0000
0010
0100
0000
,
0001
0000
1000
0000
0100
1000
0001
1000
,
0000
0100
0000
0010
0000
0001
1000
0010
,
0110
0110
1001
1001
,
0002
0023
0230
1300
,
1001
1001
0110
0110
,
2000
3020
0230
0301
,
1000
0100
0010
0000
0001
0100
0010
0000
,
1000
0001
0010
0000
0001
1000
0010
0000
,
1000
0100
0010
0001
0100
0010
1000
0001
,
0110
1010
1100
0011
,
0101
0101
1100
0101
,
2000
3200
0302
0203
,
1300
1100
1100
0101
,
2000
3020
0032
0023
,
1030
1010
0101
0011
,
1200
0010
0001
0010
,
1300
1100
1001
0101
,
1020
0100
0031
0110
,
1001
0010
1001
0100
,
4000
0040
0000
0000
0000
0000
3030
0000
0000
0001
0000
0001
,
0010
0100
1001
0010
,
0004
0040
0000
0000
0000
0000
0033
0000
0000
1100
0000
0000
,
1001
0100
1001
0010
,
0004
4000
0000
0000
0000
0000
3003
0000
0000
0010
0000
0010
,
0100
0001
0010
0100
1000
0010
0100
0001
,
0110
1010
1100
0011
,
0201
0000
0010
0000
,
1000
0010
0001
0000
,
0320
0000
1000
0100
,
1000
0100
1000
0000
,
2030
0000
0100
0010
,
0001
0100
0010
0000
,
3002
0000
0100
0010
,
0100
0010
0100
0000
,
1003
0010
1000
0000
0100
1000
0100
0000
,
0010
0001
0100
0001
0010
0000
0100
0000
,
1000
0001
1000
0000
0001
1000
0001
0000
,
0010
1000
0100
1000
0010
0000
0100
0000
,
0001
1000
0100
0000
1000
0001
0100
0000
,
1000
0100
0001
0100
1000
0000
0010
0000
,
0100
0000
0010
0000
1000
0001
1000
0001
,
0010
0000
0001
0000
1000
0001
1000
0001
,
0110
0000
0100
0000
0001
0000
0010
0200
,
0000
1000
0000
0001
0000
0010
0310
0100
,
1000
0000
0001
0000
0100
0010
1000
0002
,
0000
0100
0000
0010
0000
1000
1003
0010
,
0100
0000
1000
0000
0010
0000
0100
0020
,
0000
0100
0000
1000
0000
0100
0130
0001
,
0010
0000
0100
0000
1000
0001
0010
0001
,
0100
0100
0010
0010
,
1001
1001
1001
1001
,
1200
0310
0201
0310
,
1001
0000
1001
0000
0100
0010
0100
0010
,
0200
2300
3002
0013
,
0100
1000
0100
1000
0010
0100
0010
0100
,
0001
0010
0001
0010
0100
1000
0100
1000
,
0010
0100
0001
0010
0100
1000
0010
0100
,
1001
1010
1100
0011
,
0101
0000
1001
0000
1100
0000
0010
1000
,
0100
0010
0000
0100
0000
0010
0001
0100
,
0101
0000
0110
0000
1000
0001
0010
0001
,
0000
0100
0000
0010
0000
1000
0100
0010
,
0110
0000
1001
0000
0110
0000
0100
0010
,
1000
0001
0000
0010
0000
0001
0100
0010
,
1010
0000
1100
0000
0100
0010
0001
0010
,
0000
0100
0000
1000
0000
0001
0010
0100
,
1100
1000
0101
0001
,
0011
0010
1100
0100
,
0110
1001
0110
1001
,
1100
0000
0010
0001
0100
0010
1001
0000
,
1100
1000
1010
0010
,
0101
0001
1100
1000
,
0110
1000
0001
1000
0110
0001
1000
0001
,
1001
1010
1100
0011
,
0101
0000
0000
0100
0000
0000
0010
0000
1000
0000
0001
0000
1000
0000
0010
0000
,
0000
0010
0100
0000
0001
0010
1000
0000
,
0011
0000
0000
0001
0000
0000
0100
0000
1000
0000
0100
0000
0001
0000
0100
0000
,
0000
0000
0100
0000
0000
1000
0000
0000
0010
0000
0100
0000
0001
0000
0000
0000
,
1100
0000
0000
0100
0000
0000
1000
0000
0001
0000
0100
0000
0001
0000
1000
0000
,
0000
1000
0100
0000
0001
0100
1000
0000
,
0101
0000
0000
0100
0000
0000
0001
0000
0010
0000
0100
0000
1000
0000
0010
0000
,
0100
0010
0100
0010
1000
0001
1001
0000
,
1000
0100
0010
0100
1000
0010
0100
0001
,
0000
0001
0010
0000
0100
1000
0001
0000
,
0100
0001
0010
0001
0100
0010
1000
0100
,
0000
0100
1000
0010
0100
0010
0100
0000
,
0110
0000
0000
1001
0000
0000
0110
0000
0100
0000
0001
0000
1000
0000
0100
0000
,
0000
0100
0010
0001
0010
0100
1000
0000
,
0010
0100
0010
0100
0001
0010
0100
1000
,
0110
1010
1100
0011
,
0202
0000
0000
0000
,
0000
0000
0000
0000
,
0303
0000
0000
0000
;

//---------------dance-single - ----------------
#NOTES:
     dance-single:
     :
     Challenge:
     14:
     0.730548,0.715070,0.758407,0.173350,0.249191,579.000000,105.000000,24.000000,0.000000,0.000000,0.000000,0.730548,0.715070,0.758407,0.173350,0.249191,579.000000,105.000000,24.000000,0.000000,0.000000,0.000000:
// measure 0
0000
0000
0000
0000
,  // measure 1
0000
0000
0000
0000
,  // measure 2
0000
0000
0000
0000
,  // measure 3
0000
0000
0000
0000
,  // measure 4
0000
0000
0000
0000
,  // measure 5
0010
0000
1000
0000
0100
0010
0001
0010
,  // measure 6
0000
0100
0000
1000
0000
0001
0100
1000
,  // measure 7
0010
0000
1000
0000
0001
1000
0001
1000
,  // measure 8
0000
0010
0000
0100
0000
0010
0100
0010
,  // measure 9
1001
0110
1010
0101
,  // measure 10
1200
0001
1000
0301
,  // measure 11
1100
0110
0011
1010
,  // measure 12
0120
1000
0031
0110
,  // measure 13
1001
0100
0010
0100
1001
0001
0010
0100
,  // measure 14
1100
1000
0010
0100
0101
0001
0010
0100
,  // measure 15
0100
1000
0100
0001
0100
1000
0010
0001
,  // measure 16
1001
0110
1001
0110
,  // measure 17
1100
0011
0101
1010
,  // measure 18
1000
0000
1000
0100
0000
0100
0001
0000
0001
0010
0000
0010
,  // measure 19
1000
0000
0000
1100
0000
0000
0101
0000
0000
1000
0001
0010
,  // measure 20
0001
0000
0000
0000
0001
0000
0100
0000
0000
0000
0100
0000
0010
0000
0000
0000
0010
0000
1000
0000
0000
0100
0000
0000
,  // measure 21
0001
1100
0101
1000
,  // measure 22
0001
0000
0001
0010
0000
0010
1000
0000
1000
0100
0000
0100
,  // measure 23
0001
0011
1010
0001
,  // measure 24
1000
0000
1000
0100
0000
0100
0001
0000
0000
0110
0000
0000
,  // measure 25
1100
1000
0101
0001
,  // measure 26
1000
0100
1000
0100
0010
0100
0010
0001
0010
0001
1000
0001
,  // measure 27
1000
0000
0000
0110
0000
0000
1001
0000
0000
0010
0100
0010
,  // measure 28
1000
0000
0000
0000
0100
0000
0000
0000
1000
0000
0000
0000
0001
0000
0000
0000
0000
0000
0100
0000
0000
0000
0000
0000
1000
0000
0000
0000
0000
0000
0010
0000
0000
0100
0000
0000
0010
0000
0000
0000
0000
0000
0000
0000
0000
0000
0000
0000
,  // measure 29
1001
1000
0110
0010
,  // measure 30
0001
0010
0001
0010
0100
0010
0100
1000
0100
1000
0001
1000
,  // measure 31
0010
0010
0100
0100
0001
1000
0001
1000
,  // measure 32
0110
1001
0110
1001
,  // measure 33
0120
0000
0000
0000
,  // measure 34
1000
0100
0001
0001
,  // measure 35
0100
0000
0000
0000
1000
1000
1000
0000
,  // measure 36
0100
1000
0100
1000
,  // measure 37
0230
0000
0000
0000
0001
0001
0001
0000
,  // measure 38
0320
2030
3002
0010
,  // measure 39
2003
0000
0000
0000
0100
0000
0001
0001
,  // measure 40
3002
2000
3003
1001
,  // measure 41
0110
0100
1001
0001
,  // measure 42
0011
0010
1100
0100
,  // measure 43
0101
1100
0101
1100
,  // measure 44
0201
1000
0001
1300
,  // measure 45
0001
0000
0010
0000
0100
1000
0010
1000
,  // measure 46
0100
0000
0010
0000
0001
1000
0010
0100
,  // measure 47
0001
0000
1000
0000
0100
0001
0010
0001
,  // measure 48
0100
0000
1000
0000
0100
0001
0010
0001
,  // measure 49
0102
0000
0010
0000
0103
0000
1000
0200
,  // measure 50
0000
0010
0000
1000
0000
0010
0310
0100
,  // measure 51
1002
0000
0100
0000
0013
0000
1000
0020
,  // measure 52
0000
0100
0000
1000
0000
0100
0130
0001
,  // measure 53
0120
0000
1000
0000
0130
0000
1000
0002
,  // measure 54
0000
1000
0000
0100
0000
1000
1003
0100
,  // measure 55
2100
0000
0001
0000
3100
0010
1000
0001
,  // measure 56
0010
0100
0000
0100
0000
0100
0010
0100
,  // measure 57
0110
0110
1001
1001
,  // measure 58
1020
0130
0002
0013
,  // measure 59
2000
0000
0100
0000
3001
0010
0100
1000
,  // measure 60
0110
1010
1001
0101
,  // measure 61
1000
0100
0001
0100
1000
0010
0001
0010
,  // measure 62
1000
0100
0001
1000
0010
0001
0100
0010
,  // measure 63
1000
0001
0010
0001
0100
0010
1000
0001
,  // measure 64
0110
1001
0110
1001
,  // measure 65
0110
0010
1000
0010
0100
0010
1000
1001
,  // measure 66
0000
0011
0000
1100
0000
0101
0100
0010
,  // measure 67
1000
0001
0010
0001
1000
0010
0100
0101
,  // measure 68
0000
1010
0000
1100
0000
0011
0001
0100
,  // measure 69
0010
1000
0010
0100
0010
1000
0100
0110
,  // measure 70
0000
1001
0000
0110
0000
1001
0001
0100
,  // measure 71
0001
0010
0100
1000
0100
0010
0100
1000
,  // measure 72
0010
0100
0010
0100
1000
0001
1001
0000
,  // measure 73
0011
0001
0100
0000
1010
1000
0100
0000
,  // measure 74
0110
0100
1000
0000
0110
0100
0001
0000
,  // measure 75
1000
0100
0001
0100
1000
0010
0001
0010
,  // measure 76
1000
0000
0100
0000
0010
0000
0010
0000
0010
0000
0100
0010
0100
0000
0000
0000
,  // measure 77
1001
0001
0100
0000
1001
1000
0100
0000
,  // measure 78
0110
0010
0001
0100
0101
0010
1000
0000
,  // measure 79
0001
0001
1000
1000
0001
0010
0100
1000
,  // measure 80
0110
1001
0110
1001
,  // measure 81
0110
0000
0100
0010
0000
0010
0100
0000
0001
0000
1000
0100
1000
0000
0001
0000
,  // measure 82
1000
0000
0100
0000
0001
0000
0100
0000
1000
0001
1000
0001
1000
0000
0100
0000
,  // measure 83
0010
0000
0001
0010
0000
0010
0001
0000
0100
0000
0010
1000
0010
0000
0100
0000
,  // measure 84
0001
0000
0010
0000
0000
1000
0000
0000
0001
0000
0100
0000
0010
0000
0100
0000
,  // measure 85
0001
0000
1000
0100
0000
0100
1000
0000
0010
0000
0100
0010
0100
0000
0001
0000
,  // measure 86
1000
0000
0100
0000
0010
0000
0100
0000
1000
0010
1000
0010
1000
0000
0100
0000
,  // measure 87
0010
0000
0001
1000
0000
1000
0001
0000
0100
0000
0010
0100
0010
0000
1000
0000
,  // measure 88
1000
0100
0010
0001
0100
0010
1000
0001
,  // measure 89
1000
0000
0010
0100
0000
0100
0010
0000
1000
0000
0001
0010
0001
0000
0100
0000
,  // measure 90
0010
0000
1000
0000
0010
0000
1000
0000
0010
0100
0010
0100
0010
0000
1000
0000
,  // measure 91
0001
0000
0010
0100
0000
0100
0010
0000
0001
0000
1000
0010
1000
0000
0001
0000
,  // measure 92
0010
0100
1000
0010
0100
0010
1001
0000
,  // measure 93
0011
0000
0000
0110
0000
0000
1100
0000
1001
0000
0001
1000
0001
0000
1000
0000
,  // measure 94
0000
0000
0001
0000
0000
0010
0000
0000
1000
0100
0010
0100
2000
0000
3001
0000
,  // measure 95
0100
0000
1000
0000
0100
0000
0001
0000
0010
0100
0010
0100
0010
0000
0100
0000
,  // measure 96
0110
1001
0110
1001
,  // measure 97
0220
0000
0000
0000
,  // measure 98
0000
0000
0000
0000
,  // measure 99
0330
0000
0000
0000
;
