#TITLE:Music Lives On;
#SUBTITLE:(ft. S3RL);
#ARTIST:Vau Boy;
#TITLETRANSLIT:;
#SUBTITLETRANSLIT:;
#ARTISTTRANSLIT:;
#GENRE:;
#CREDIT:;
#BANNER:music-lives-on-bn.png;
#BACKGROUND:music-lives-on-bg.png;
#LYRICSPATH:;
#CDTITLE:arsa-cd.png;
#MUSIC:Music Lives On.ogg;
#OFFSET:-0.032000;
#SAMPLESTART:70.620003;
#SAMPLELENGTH:12.000000;
#SELECTABLE:YES;
#BPMS:0.000000=170.000000
;
#STOPS:
;
#BGCHANGES:;
#KEYSOUNDS:;
#ATTACKS:;

//---------------dance-single - ----------------
#NOTES:
     dance-single:
     :
     Beginner:
     2:
     0.122983,0.139777,0.000000,0.023142,0.000000,181.000000,0.000000,5.000000,0.000000,0.000000,0.000000,0.122983,0.139777,0.000000,0.023142,0.000000,181.000000,0.000000,5.000000,0.000000,0.000000,0.000000:
0000
0000
0000
0000
,
0000
0000
0000
0000
,
0000
0000
0000
0000
,
0000
0000
0000
0000
,
0000
0000
0000
0000
,
0000
0000
0000
0000
,
0000
0000
0000
0000
,
0000
0000
0000
0000
,
0000
0000
0000
0000
,
0100
0000
0000
0000
,
0010
0000
0000
0000
,
0100
0000
0000
0000
,
0010
0000
0000
0000
,
1000
0000
0000
0000
,
0001
0000
0000
0000
,
1000
0000
0000
0000
,
0001
0000
0000
0000
,
1000
0000
0000
0000
,
0010
0000
0000
0000
,
1000
0000
0000
0000
,
0010
0000
0000
0000
,
0100
0000
0000
0000
,
0001
0000
0000
0000
,
0100
0000
0000
0000
,
0001
0000
0000
0000
,
0010
0000
0010
0000
,
0010
0000
0000
0000
,
1000
0000
0000
0000
,
0001
0000
0000
0000
,
0100
0000
0100
0000
,
0100
0000
0000
0000
,
1000
0000
0000
0000
,
0001
0000
0000
0000
,
1000
0000
1000
0000
,
1000
0000
0000
0000
,
0001
0000
0001
0000
,
0001
0000
0000
0000
,
0010
0000
0000
0000
,
0100
0000
0000
0000
,
0010
0000
0000
0000
,
0100
0000
0000
0000
,
0020
0000
0000
0000
,
0030
0000
0000
0000
,
0200
0000
0000
0000
,
0300
0000
0000
0000
,
1000
0000
0001
0000
,
1000
0000
0000
0000
,
0001
0000
1000
0000
,
0001
0000
0000
0000
,
0010
0000
0000
0000
,
1000
0000
1000
0000
,
1000
0000
0000
0000
,
0001
0000
0001
0000
,
0001
0000
0000
0000
,
1000
0000
0001
0000
,
1000
0000
0000
0000
,
0001
0000
1000
0000
,
0001
0000
0000
0000
,
0010
0000
0010
0000
,
0010
0000
0000
0000
,
0100
0000
0100
0000
,
0100
0000
0000
0000
,
0010
0000
0100
0000
,
0010
0000
0000
0000
,
0100
0000
0010
0000
,
0100
0000
0000
0000
,
0020
0000
0000
0000
,
0030
0000
0010
0000
,
0010
0010
0000
0000
,
1000
1000
0000
0000
,
0001
0001
0000
0000
,
0100
0100
0000
0000
,
0000
0010
0000
0010
,
0000
1000
0000
1000
,
0000
0001
0000
0001
,
0000
0010
0000
0010
,
0000
1000
1000
0000
,
0000
0001
0001
0000
,
0000
1000
1000
0000
,
0001
0000
0001
0000
,
0000
1000
1000
0000
,
0000
0001
0001
0000
,
0000
1000
1000
0000
,
0010
0000
0000
0000
,
0010
0000
0000
0000
,
0000
0000
0000
0000
,
1000
0000
0000
0000
,
0001
0000
0000
0000
,
1000
0000
0000
0000
,
0001
0000
0000
0000
,
0001
0000
0000
0000
,
1000
0000
0000
0000
,
0001
0000
0000
0000
,
1000
0000
0000
0000
,
0010
0000
0000
0000
,
0100
0000
0000
0000
,
0010
0000
0000
0000
,
0100
0000
0000
0000
,
0001
0000
0000
0000
,
1000
0000
0000
0000
,
0001
0000
0000
0000
,
1000
0000
0000
0000
,
0010
0000
0000
0000
,
0001
0000
0000
0000
,
0010
0000
0000
0000
,
0001
0000
0000
0000
,
1000
0000
0000
0000
,
0100
0000
0000
0000
,
1000
0000
0000
0000
,
0100
0000
0000
0000
,
1000
0000
1000
0000
,
1000
0000
0000
0000
,
0010
0000
0000
0000
,
0100
0000
0000
0000
,
0001
0000
0001
0000
,
0001
0000
0000
0000
,
0010
0000
0000
0000
,
0100
0000
0000
0000
,
0010
0000
0010
0000
,
0010
0000
0000
0000
,
0100
0000
0000
0000
,
0010
0000
0000
0000
,
0100
0000
0100
0000
,
0100
0000
0000
0000
,
0010
0000
0000
0000
,
0100
0000
0000
0000
,
0020
0000
0000
0000
,
0030
0000
0000
0000
,
0200
0000
0000
0000
,
0300
0000
0000
0000
,
1000
0000
0001
0000
,
1000
0000
0000
0000
,
0001
0000
1000
0000
,
0001
0000
0000
0000
,
0010
0000
0000
0000
,
1000
0000
1000
0000
,
1000
0000
0000
0000
,
0001
0000
0001
0000
,
0001
0000
0000
0000
,
0010
0000
0010
0000
,
0010
0000
0000
0000
,
0100
0000
0100
0000
,
0100
0000
0000
0000
,
1000
0000
0010
0000
,
1000
0000
0000
0000
,
0001
0000
0010
0000
,
0001
0000
0000
0000
,
1000
0000
0100
0000
,
1000
0000
0000
0000
,
0001
0000
0100
0000
,
0001
0000
0000
0000
,
0010
0000
0000
0000
;

//---------------dance-single - ----------------
#NOTES:
     dance-single:
     :
     Easy:
     6:
     0.283654,0.349443,0.060169,0.120338,0.000000,390.000000,13.000000,26.000000,0.000000,0.000000,0.000000,0.283654,0.349443,0.060169,0.120338,0.000000,390.000000,13.000000,26.000000,0.000000,0.000000,0.000000:
0000
0000
0000
0000
,
0000
0000
0000
0000
,
0000
0000
0000
0000
,
0000
0000
0000
0000
,
0000
0000
0000
0000
,
0000
0000
0000
0000
,
0000
0000
0000
0000
,
0000
0000
0000
0000
,
0000
0000
0000
0000
,
2000
0000
3000
0000
,
0002
0000
0003
0000
,
0010
0000
0100
0000
,
0010
0000
0000
0000
,
0002
0000
0003
0000
,
2000
0000
3000
0000
,
0100
0000
0010
0000
,
0100
0000
0000
0000
,
0020
0000
0000
0000
,
0030
0000
0100
0000
,
0200
0000
0000
0000
,
0300
0000
0000
0000
,
0001
0000
1000
0000
,
0001
0000
1000
0000
,
0010
0000
0010
0000
,
0100
0000
0010
0000
,
1000
1000
0001
0000
,
0001
0001
1000
0000
,
0010
0100
0010
0100
,
0010
0010
0010
0010
,
0100
0100
0010
0000
,
0010
0010
0100
0000
,
0001
1000
0001
1000
,
0100
0010
0100
0010
,
0001
1000
0001
0000
,
1000
0100
1000
0000
,
0001
0010
0100
1000
,
0010
1000
0010
1000
,
0001
1000
0100
0000
,
1000
0001
0100
0000
,
0001
1000
0001
1000
,
0010
0100
0010
0100
,
0010
0000
0100
0000
,
1001
0000
0000
0000
,
0100
0000
0100
0000
,
0100
0000
0000
0000
,
1000
0000
0100
0000
,
0010
0000
0001
0000
,
0100
0000
0010
0000
,
1000
0001
1000
0001
,
0020
0000
0000
0030
,
0100
0100
0010
0001
,
1000
1000
0010
0100
,
0001
0010
0001
0100
,
0010
1000
0100
1000
,
0001
0001
0100
0010
,
1000
1000
0100
0010
,
0001
1000
0100
1000
,
0001
0100
0010
1000
,
0001
1001
1000
0100
,
0010
0100
0001
0100
,
1000
0100
0010
0001
,
1000
0001
0010
0100
,
1000
1000
0010
0100
,
0001
0001
0010
0100
,
0010
0001
0100
0010
,
1000
0001
1000
0010
,
0200
0000
0000
0000
,
0300
0000
0110
0110
,
2000
3100
0002
0103
,
1000
0010
0001
0010
,
2000
3010
0002
0013
,
1000
0100
0010
0100
,
1000
0001
0000
0001
,
1000
0001
0000
0010
,
0100
0010
0000
0001
,
0100
0010
0000
1000
,
0100
0100
0020
0030
,
0001
1000
0001
1000
,
0010
0100
0020
0030
,
2000
3100
0002
0103
,
1000
0100
0002
0003
,
0100
1000
0010
0100
,
0001
0100
2000
3000
,
0020
0000
0000
0030
,
1001
0000
0000
0000
,
0000
0000
0000
0000
,
1000
0000
1000
0000
,
0001
0000
0001
0000
,
1000
0000
0001
0000
,
1000
0000
0001
0000
,
0100
0000
0100
0000
,
0010
0000
0010
0000
,
0100
0000
0010
0000
,
0100
0000
0010
0000
,
2000
0000
3000
0000
,
0020
0000
0030
0000
,
0100
0000
0001
0000
,
0100
0000
0000
0000
,
0002
0000
0003
0000
,
0020
0000
0030
0000
,
0100
0000
1000
0000
,
0100
0000
0000
0000
,
0020
0000
0000
0000
,
0030
0000
0100
0000
,
0200
0000
0000
0000
,
0300
0000
0000
0000
,
0001
0000
1000
0000
,
0001
0000
1000
0000
,
0100
0000
0100
0000
,
0010
0000
0100
0000
,
0001
0001
1000
0000
,
1000
1000
0001
0000
,
0010
0100
0001
1000
,
0010
0010
0010
0010
,
1000
1000
0001
0000
,
0001
0001
1000
0000
,
0100
0001
1000
0001
,
0100
0010
0100
0010
,
1000
0100
1000
0000
,
0001
0100
0001
0000
,
0010
0100
0010
0100
,
0010
0001
0010
0001
,
1000
0100
0010
0000
,
0001
0100
0010
0000
,
1000
0100
1000
0100
,
0001
0100
0001
0100
,
0010
0000
0100
0000
,
1001
0000
0000
0000
,
0100
0000
0100
0000
,
0100
0000
0000
0000
,
1000
0000
1000
0000
,
0001
0000
0001
0000
,
0010
0000
0100
0000
,
1000
0100
0010
0001
,
0200
0000
0000
0300
,
0010
0010
1000
0001
,
0100
0100
0001
1000
,
0100
0010
0001
0010
,
0100
1000
0010
0100
,
0001
0001
1000
0100
,
1000
1000
0001
0100
,
0001
0010
0001
0100
,
0010
1000
0100
1000
,
0010
0100
0110
0010
,
0110
0100
0010
0100
,
1000
0001
1001
1000
,
1001
0001
0100
0010
,
0100
1000
1100
0001
,
0101
0100
0010
0100
,
0001
1000
0100
1000
,
0010
0100
0001
0010
,
1001
0000
0000
0000
;

//---------------dance-single - ----------------
#NOTES:
     dance-single:
     :
     Medium:
     10:
     0.524991,0.559109,0.194392,0.212906,0.046284,706.000000,42.000000,46.000000,0.000000,0.000000,0.000000,0.524991,0.559109,0.194392,0.212906,0.046284,706.000000,42.000000,46.000000,0.000000,0.000000,0.000000:
0000
0000
0000
0000
,
0000
0000
0000
0000
,
0000
0000
0000
0000
,
0000
0000
0000
0000
,
0000
0000
0000
0000
,
0000
0000
0000
0000
,
0000
0000
0000
0000
,
0000
0000
0000
0000
,
0000
0000
0000
0000
,
1000
0000
0000
0010
0100
0000
0100
0000
,
0001
0000
0000
0010
0001
0000
0001
0000
,
0100
0000
0000
0010
0100
0000
0100
0000
,
2000
0000
3002
0000
,
1003
0000
0000
0010
0100
0000
0001
0000
,
1000
0100
0010
0001
,
1000
0000
0000
0010
1000
0000
0001
0000
,
0020
0000
0230
0000
,
1300
0000
0001
0010
0001
0000
0100
0000
,
0020
0000
1030
1000
,
0001
0000
1000
0100
1000
0000
0001
0000
,
0200
0000
0310
0010
,
1000
0000
0001
0010
0001
0000
0100
0000
,
0010
0000
1000
0001
1000
0000
0010
0000
,
0100
0001
1000
0010
,
1000
0100
0010
0001
0100
0010
1000
0000
,
0001
0010
0001
0010
0100
0000
0100
0000
,
1000
0010
1000
0010
0100
0000
0100
0000
,
0001
0010
0100
0010
0001
0000
0100
0000
,
2000
3020
0230
0302
,
1003
0100
0010
0100
1000
0000
0001
0000
,
1000
0010
0100
0001
0010
0000
0010
0000
,
0100
1000
0001
1000
0100
0000
0100
0000
,
0020
0032
2003
3020
,
1030
0100
0001
0100
1000
0000
0010
0000
,
0200
0301
0020
0000
,
0031
0100
1000
0100
0001
0000
0010
0000
,
0200
1300
0020
0130
,
1000
0100
0010
0000
0001
0000
0100
0000
,
0001
0010
0100
0000
1000
0000
0010
0000
,
1000
0001
0100
0001
1000
0000
0100
0000
,
0110
0000
1000
0001
0000
0001
1000
0000
,
0110
0000
0000
0000
0000
0000
0000
0000
1001
0000
0000
0010
0000
0000
0100
0000
,
1001
0000
0000
0000
,
0100
0100
0100
0100
,
0100
0000
0000
0000
,
0011
0001
0100
0010
,
1001
0100
0010
1000
,
1100
1000
0101
0001
,
0110
1001
0110
1001
,
0220
0330
1001
1001
,
1000
0000
0001
0000
1000
0000
0000
0000
0001
0000
0000
0010
0000
0000
0001
0000
,
0100
0000
0010
0000
0100
0000
0000
0000
1000
0000
0000
0100
0000
0000
1000
0000
,
0001
0000
0100
0000
0001
0000
0000
0000
1000
0000
0000
0010
0000
0000
0100
0000
,
0001
0000
0010
0000
0001
0000
0000
0000
0100
0000
0000
0010
0000
0000
1000
0000
,
0100
0000
0010
0000
0100
0000
0000
0000
1000
0000
0000
0001
0000
0000
1000
0000
,
0010
0000
0100
0000
0010
0000
0000
0000
1000
0000
0000
0100
0000
0000
0010
0000
,
0001
0000
0100
0000
0001
0000
0000
0000
1000
0000
0000
0001
0000
0000
1000
0000
,
0100
0000
0010
0000
0100
0000
0000
0000
1000
0000
0000
0010
0000
0000
0100
0000
,
0001
0001
0001
0000
1000
0100
0010
0001
,
0100
0010
0100
0000
0001
0010
0001
0100
,
0001
0010
0001
0000
1000
0100
1000
0010
,
1000
0100
1000
0000
0010
0100
0010
0100
,
0001
1000
0001
0000
0100
0010
0100
0010
,
1000
0001
1000
0000
0010
0100
0001
0100
,
0010
1000
0100
0000
0100
1000
0100
0010
,
0001
0100
0020
0000
2030
0000
3001
0000
,
0220
0000
0000
0000
,
0330
0000
1001
1001
,
1000
0100
1000
0000
0001
0100
0001
0000
,
0010
0100
0010
0000
0001
1000
0001
0000
,
1000
0010
0100
0000
0001
0010
0100
0000
,
1000
0001
0100
0000
0001
1000
0100
0000
,
0010
0100
0010
0000
0010
0100
0010
0000
,
0001
1000
0001
0000
0001
1000
0001
0100
,
0010
1000
0010
0000
0010
1000
0010
0000
,
1000
0100
1000
0000
1000
0100
1000
0001
,
0100
0010
0100
0010
1000
0001
0010
0000
,
0010
0100
0010
0100
1000
0001
0100
0010
,
0000
1000
0001
1000
0001
1000
0010
0000
,
1000
0100
0010
0000
0001
0100
0010
1000
,
0000
0001
0100
0001
0100
0001
0010
0000
,
0100
1000
0100
1000
0010
0100
0010
0100
,
0000
0001
1000
0001
1000
0010
0100
0000
,
0001
0000
0000
1000
0000
0000
0001
0000
0000
1000
0000
0000
0001
0000
0000
0000
,
0110
0000
0000
0000
,
0000
0000
0000
0000
,
1000
0100
1000
0100
,
0001
0100
0001
0100
,
1000
0010
0100
0001
,
0010
0100
1000
0001
,
0010
0100
0010
0100
,
1000
0001
1000
0001
,
0010
0001
0100
0001
,
0010
1000
0100
1000
,
0010
1000
0100
0010
0100
0000
0000
0000
,
0010
0001
0100
0010
0100
0000
0100
0000
,
0001
1000
0100
1000
0001
0000
0000
0000
,
1000
0001
0100
0001
1000
0000
0100
0000
,
0010
0001
0010
0100
0010
0000
0000
0000
,
0010
1000
0010
0100
0010
0000
0010
0000
,
1000
0001
0010
0100
1000
0000
0000
0000
,
0001
1000
0100
1000
0001
0000
0001
0000
,
0100
0000
0010
0100
0010
0000
1000
0000
,
0002
0000
0103
0100
,
0010
0000
1000
0001
1000
0000
0010
0000
,
0002
1000
1003
1000
,
0100
0000
0010
0001
0010
0000
0100
0000
,
1000
0000
0010
1000
0010
0000
0100
0000
,
0001
1000
0100
0001
,
1000
0100
0010
0001
0100
0010
1000
0000
,
0001
0010
0100
1000
0010
0000
0010
0000
,
1000
0100
0010
0001
0100
0000
0100
0000
,
0001
0010
0100
0010
0001
0000
0001
0000
,
2000
3020
0230
0302
,
1003
0010
0100
0010
1000
0000
1000
0000
,
0001
0010
0100
0010
0001
0000
0001
0000
,
1000
0010
0100
0001
0010
0000
0010
0000
,
0200
2300
3002
0023
,
0031
0100
0010
0100
0010
0000
0010
0000
,
2000
3100
0020
0000
,
0031
1000
0010
1000
0010
0000
0001
0000
,
0020
0130
2000
3001
,
0100
0010
1000
0000
0010
0000
0100
0000
,
0001
0010
0100
0000
0010
0000
0001
0000
,
0100
0010
1000
0001
0100
0000
0010
0000
,
1001
0000
0010
0100
0000
0100
0010
0000
,
1001
0000
0000
0000
1001
0000
0000
0000
1001
0000
0000
0010
0000
0000
0100
0000
,
1001
0000
0000
0000
,
0100
0100
0100
0100
,
0100
0000
0000
0000
,
1100
0100
0010
0001
,
0110
0100
0001
1000
,
1001
0010
1001
0100
,
1001
0110
1001
0110
,
2002
3003
0110
0110
,
1000
0000
0100
0000
0001
0000
0000
0000
1000
0000
0000
0010
0000
0000
0100
0000
,
0001
0000
0010
0000
0001
0000
0000
0000
0100
0000
0000
0010
0000
0000
1000
0000
,
0100
0000
0010
0000
0100
0000
0000
0000
1000
0000
0000
0001
0000
0000
0010
0000
,
0001
0000
1000
0000
0001
0000
0000
0000
0100
0000
0000
0010
0000
0000
1000
0000
,
0010
0000
0100
0000
0010
0000
0000
0000
0100
0000
0000
0010
0000
0000
1000
0000
,
0001
0000
0010
0000
0001
0000
0000
0000
1000
0000
0000
0001
0000
0000
1000
0000
,
0001
0000
0010
0000
0001
0000
0000
0000
0100
0000
0000
0010
0000
0000
1000
0000
,
0001
0010
0001
0010
0100
0000
0100
0000
,
1000
1000
1000
0000
0110
0000
0001
1000
,
0002
0023
0130
1100
,
0010
0100
0010
0000
1001
0000
0100
0010
,
0200
0302
0013
0011
,
0100
1000
0100
0000
0011
0000
0100
1000
,
0200
0320
0031
1010
,
0100
0000
0001
0000
0010
0000
0100
0000
1000
0000
0000
0010
0000
0000
0100
0000
,
0001
0000
0010
0100
0000
0100
0010
0000
,
1001
0000
0000
0000
;

//---------------dance-single - ----------------
#NOTES:
     dance-single:
     :
     Hard:
     13:
     0.673100,0.698886,0.319359,0.356386,0.148108,872.000000,69.000000,77.000000,0.000000,0.000000,0.000000,0.673100,0.698886,0.319359,0.356386,0.148108,872.000000,69.000000,77.000000,0.000000,0.000000,0.000000:
// measure 0
0000
0000
0000
0000
,  // measure 1
0000
0000
0000
0000
,  // measure 2
0000
0000
0000
0000
,  // measure 3
0000
0000
0000
0000
,  // measure 4
0000
0000
0000
0000
,  // measure 5
0000
0000
0000
0000
,  // measure 6
0000
0000
0000
0000
,  // measure 7
0000
0000
0000
0000
,  // measure 8
0000
0000
0000
0000
,  // measure 9
0020
0000
1030
0001
,  // measure 10
0200
0000
0301
1000
,  // measure 11
0002
0000
1003
0100
,  // measure 12
0020
0032
0203
0320
,  // measure 13
2030
0000
3100
0010
,  // measure 14
0200
0000
1300
0001
,  // measure 15
2000
0000
3010
0100
,  // measure 16
0020
0230
0302
2003
,  // measure 17
3100
0010
0001
1000
0010
0000
0010
0000
,  // measure 18
1000
0100
0010
0100
1000
0000
1000
0000
,  // measure 19
0010
0100
0001
0100
0010
0000
0010
0000
,  // measure 20
1000
0100
0010
0001
0100
0000
0010
0000
,  // measure 21
1000
0001
0010
0001
1000
0000
0001
0000
,  // measure 22
1000
0001
0010
0001
1000
0000
0001
0000
,  // measure 23
1000
0010
0000
0010
0000
0010
0000
0010
,  // measure 24
1000
0100
0010
0001
1000
0010
0100
0001
,  // measure 25
0010
0100
1000
0100
0010
0100
1000
0010
,  // measure 26
0100
0001
0010
0001
0100
0000
0100
0000
,  // measure 27
0001
0010
0100
0010
0001
0010
0100
0010
,  // measure 28
0001
0100
0110
0000
1010
0000
1001
0000
,  // measure 29
1000
0001
0010
0001
1000
0001
0010
0001
,  // measure 30
1000
0010
0100
0001
0010
0000
0010
0000
,  // measure 31
0100
1000
0100
0010
0100
1000
0100
0010
,  // measure 32
0100
1000
0002
0000
0203
0000
0320
0000
,  // measure 33
1030
0010
0100
0001
0010
0100
1000
0010
,  // measure 34
0100
0010
0100
0010
0200
0000
0310
0000
,  // measure 35
0001
0010
0100
1000
0010
0100
0001
1000
,  // measure 36
0100
0010
1001
0000
0011
0000
0110
0000
,  // measure 37
1000
0010
0100
0001
0010
0001
0100
0000
,  // measure 38
0100
0001
0010
0001
0100
0010
1000
0000
,  // measure 39
0100
0010
0001
0100
0020
0000
1030
0000
,  // measure 40
1001
0000
0010
1000
0000
0010
0001
0000
,  // measure 41
0110
0000
0000
0000
0100
0000
0000
0000
0001
0000
0000
0010
0000
0100
1000
0000
,  // measure 42
2002
0000
3003
0000
,  // measure 43
0100
0000
0000
0000
0100
0000
0000
0000
0100
0000
0000
0100
0000
0000
0100
0000
,  // measure 44
0100
0000
0000
0000
,  // measure 45
1100
0010
0100
0010
,  // measure 46
0101
0000
0010
0000
0100
0000
0010
1000
,  // measure 47
1010
0100
0011
0100
,  // measure 48
1001
0110
1001
0110
,  // measure 49
2002
0000
0000
0000
3003
0000
0000
0000
0010
0100
0000
0010
0100
0000
0000
0000
,  // measure 50
1000
0000
0100
0000
0010
0000
0001
0000
0100
0000
0001
0010
0000
0001
0010
0000
,  // measure 51
0100
0000
1000
0000
0001
0000
1000
0000
0100
0000
0010
0001
0000
0010
0001
0000
,  // measure 52
0100
0000
0010
0000
1000
0000
0010
0000
0100
0000
0001
1000
0000
0001
1000
0000
,  // measure 53
0010
0000
0100
0000
0010
0000
1000
0000
0001
0000
0010
0100
0000
0010
0100
0000
,  // measure 54
1000
0000
0100
0000
0001
0000
0100
0000
1000
0000
0001
1000
0000
0001
1000
0000
,  // measure 55
1000
0000
0010
0000
0001
0000
0010
0000
1000
0000
0001
1000
0000
0001
1000
0000
,  // measure 56
0100
0000
0010
0000
0001
0000
0100
0000
0010
0000
1000
0100
0000
1000
0100
0000
,  // measure 57
0010
0000
0001
0000
1000
0000
0001
0000
0010
0000
0100
1000
0000
0100
1000
0000
,  // measure 58
0010
0000
0010
0000
0010
0000
0100
0000
0001
0000
1000
0010
0000
1000
0010
0000
,  // measure 59
0100
0000
0001
0000
0010
0000
0001
0000
0100
0000
0010
1000
0000
0010
1000
0000
,  // measure 60
0100
0000
0010
0000
0100
0000
1000
0000
0001
0000
0100
0010
0000
0100
0010
0000
,  // measure 61
1000
0000
0001
0000
0010
0000
0001
0000
1000
0000
0010
0100
0000
0010
0100
0000
,  // measure 62
0001
0000
0100
0000
0010
0000
0100
0000
0001
0000
1000
0100
0000
1000
0100
0000
,  // measure 63
0010
0000
0001
0000
1000
0000
0001
0000
0010
0000
0100
1000
0000
0100
1000
0000
,  // measure 64
0010
0000
0100
0000
0001
0000
0010
0000
0001
0000
0100
0010
0000
0100
0010
0000
,  // measure 65
0001
0010
0100
1000
0010
0100
0001
0010
,  // measure 66
2002
0000
0000
0000
,  // measure 67
3003
0000
0000
0000
0010
0010
0010
0000
,  // measure 68
1000
0100
1000
0000
0002
0000
0003
0000
0100
0010
0100
0000
0020
0000
0030
0000
,  // measure 69
1000
0001
1000
0000
0020
0000
0030
0000
0100
0001
0100
0000
0010
0000
1000
0000
,  // measure 70
0100
0000
0010
0001
0020
0000
0030
0000
0001
0100
0001
0000
0020
0000
0030
0000
,  // measure 71
0100
1000
0100
0000
2000
0000
3000
0000
0010
0100
0010
0000
1000
0000
0001
0000
,  // measure 72
0010
0100
1001
0000
1000
0100
1100
0000
,  // measure 73
0001
0100
0101
0000
0010
1000
1100
0010
,  // measure 74
0001
0100
0101
0000
1000
0100
0011
0000
,  // measure 75
0001
0100
1010
0000
0010
0100
0110
0010
,  // measure 76
1000
0100
0001
0100
1000
0010
0200
0000
,  // measure 77
0301
0010
0001
0100
0010
0100
0001
0010
,  // measure 78
0100
1000
0010
0100
0010
1000
0002
0000
,  // measure 79
1003
0010
1010
0000
0001
0010
0011
0000
,  // measure 80
1000
0010
0100
0010
1000
0001
0020
0000
,  // measure 81
0130
1000
0001
1000
0100
0010
0001
0100
,  // measure 82
0010
0100
0010
1000
0001
0010
0001
0000
,  // measure 83
0110
0000
0000
0101
0000
0000
1010
0000
0000
1100
0000
0000
0011
0000
0000
0000
,  // measure 84
1001
0000
0000
0000
,  // measure 85
0000
0000
0000
0000
,  // measure 86
2000
3200
2300
3002
,  // measure 87
0203
0302
0023
0032
,  // measure 88
0203
0320
2030
3002
,  // measure 89
0023
0230
2300
3002
,  // measure 90
0203
0320
2030
3020
,  // measure 91
0230
0302
0203
0320
,  // measure 92
2030
3002
0023
0230
,  // measure 93
2300
3002
0203
0320
,  // measure 94
1030
0100
0010
0100
1000
0000
0001
0000
,  // measure 95
0100
0010
1000
0001
0010
0000
0100
0000
,  // measure 96
0010
0001
0100
0010
1000
0000
0001
0000
,  // measure 97
1000
0100
0010
0100
1000
0000
0001
0000
,  // measure 98
0100
0010
1000
0010
0100
0000
0001
0000
,  // measure 99
0010
0001
0010
0100
1000
0000
0001
0000
,  // measure 100
1000
0010
0100
0001
0010
0000
0010
0000
,  // measure 101
0001
0100
0020
0000
2030
0000
3200
0000
,  // measure 102
0301
0010
0100
0010
0001
0000
0100
0000
,  // measure 103
0010
1000
0100
1000
0010
0000
0100
0000
,  // measure 104
0001
1000
0100
1000
0001
0000
0100
0000
,  // measure 105
0010
1000
0100
0010
0001
0000
0100
0000
,  // measure 106
0010
1000
0001
1000
0010
0000
0100
0000
,  // measure 107
0001
0010
0100
1000
0010
0000
0100
0000
,  // measure 108
0200
0000
0000
0000
,  // measure 109
0301
0010
0100
1000
0010
0100
0001
1000
,  // measure 110
0010
0100
0001
0100
0010
0100
0001
0100
,  // measure 111
0010
1000
0100
1000
0010
0000
0010
0000
,  // measure 112
1000
0100
0010
0100
1000
0100
0010
0100
,  // measure 113
1000
0010
1010
0000
1001
0000
0101
0000
,  // measure 114
0001
0010
0100
0010
0001
0010
0100
0010
,  // measure 115
0001
0100
0010
1000
0001
0000
0001
0000
,  // measure 116
1000
0010
0100
0010
1000
0010
0100
0010
,  // measure 117
1000
0100
0020
0000
0032
0000
2003
0000
,  // measure 118
3001
0100
0010
0100
0001
1000
0010
1000
,  // measure 119
0001
0010
0100
1000
0020
0000
0130
0000
,  // measure 120
1000
0100
0010
0100
1000
0001
0010
0001
,  // measure 121
0100
0010
1010
0000
1001
0000
0101
0000
,  // measure 122
1000
0100
0010
0001
0010
0100
1000
0000
,  // measure 123
0001
0100
0010
1000
0010
0100
0001
0000
,  // measure 124
0010
0100
0010
0100
0020
0000
0130
0000
,  // measure 125
1001
0000
0010
0001
0000
0010
1000
0000
,  // measure 126
1001
0000
0000
0000
0110
0000
0000
0000
1001
0000
0000
0110
0000
1000
0001
0000
,  // measure 127
0110
0000
0000
0000
,  // measure 128
0100
0000
0000
0000
0100
0000
0000
0000
0100
0000
0000
0100
0000
0000
0100
0000
,  // measure 129
0100
0000
0000
0000
,  // measure 130
1100
0010
0100
0010
,  // measure 131
0011
0100
0010
0100
,  // measure 132
0101
0010
1100
0010
,  // measure 133
0110
1001
0110
1001
,  // measure 134
0220
0000
0000
0000
0330
0000
0000
0000
1000
0001
0000
1000
0001
0000
0000
0000
,  // measure 135
0100
0000
0010
0000
1000
0000
0010
0000
0100
0000
0001
0010
0000
0001
0010
0000
,  // measure 136
0100
0000
1000
0000
0001
0000
1000
0000
0100
0000
0010
0001
0000
0010
0001
0000
,  // measure 137
0100
0000
0010
0000
1000
0000
0001
0000
0010
0000
0100
1000
0000
0100
1000
0000
,  // measure 138
0010
0000
0100
0000
0001
0000
0010
0000
0100
0000
1000
0001
0000
1000
0001
0000
,  // measure 139
0100
0000
0010
0000
1000
0000
0001
0000
0010
0000
0001
0010
0000
0001
0010
0000
,  // measure 140
0100
0000
1000
0000
0001
0000
1000
0000
0100
0000
0010
0001
0000
0010
0001
0000
,  // measure 141
0100
0000
0010
0000
1000
0000
0001
0000
0100
0000
0010
1000
0000
0010
1000
0000
,  // measure 142
0110
0000
1000
0001
0010
0001
1000
0000
,  // measure 143
0100
0100
0100
0010
1010
1000
0100
0010
,  // measure 144
0011
0001
0100
0010
1000
0001
1001
0000
,  // measure 145
1010
1000
0100
0010
0110
0010
0001
0100
,  // measure 146
0101
0010
1000
0001
1000
0010
0110
0000
,  // measure 147
0101
0100
0010
1000
1010
0010
0100
0010
,  // measure 148
0110
0100
0010
0001
0100
0010
1000
0001
,  // measure 149
1000
0010
0100
0010
1000
0001
0010
0100
,  // measure 150
1001
0000
0010
1000
0000
0010
0001
0000
,  // measure 151
0110
0000
0000
0000
;
