#TITLE:Lose Your Mind;
#SUBTITLE:;
#ARTIST:Dr. Peacock & The Sickest Squad;
#TITLETRANSLIT:;
#SUBTITLETRANSLIT:;
#ARTISTTRANSLIT:;
#GENRE:;
#CREDIT:;
#BANNER:lose-your-mind-bn.png;
#BACKGROUND:lose-your-mind-bg.png;
#LYRICSPATH:;
#CDTITLE:arsa-cd.png;
#MUSIC:Lose Your Mind.ogg;
#OFFSET:-0.153000;
#SAMPLESTART:81.800003;
#SAMPLELENGTH:12.000000;
#SELECTABLE:YES;
#BPMS:0.000000=50.000000
,36.000000=200.000000
,121.000000=100.000000
,123.000000=200.000000
,151.000000=100.000000
,153.000000=200.000000
,338.000000=100.000000
,370.000000=200.000000
,426.000000=100.000000
,428.000000=50.000000
,429.000000=200.000000
,476.000000=100.000000
,477.000000=200.000000
,501.000000=100.000000
,505.000000=200.000000
,569.000000=50.000000
;
#STOPS:92.000000=2.100000,
273.000000=2.099999,
445.000000=4.500003
;
#BGCHANGES:;
#KEYSOUNDS:;
#ATTACKS:;

//---------------dance-single - ----------------
#NOTES:
     dance-single:
     :
     Beginner:
     3:
     0.126676,0.236872,0.012316,0.114947,0.000000,185.000000,3.000000,28.000000,0.000000,0.000000,0.000000,0.126676,0.236872,0.012316,0.114947,0.000000,185.000000,3.000000,28.000000,0.000000,0.000000,0.000000:
0000
0000
0000
0000
,
1000
1000
1000
1000
,
0001
0001
0001
0001
,
1000
1000
0001
0001
,
0010
0010
0100
0100
,
0020
0030
0200
0300
,
0020
0030
0200
0300
,
2000
3000
0002
0003
,
2000
0000
0000
3000
,
0100
0000
0000
0000
,
0100
0000
0000
0000
,
0010
0000
0000
0000
,
0100
0000
0000
0000
,
0001
0000
0000
0000
,
1000
0000
0000
0000
,
0001
0000
0000
0000
,
1000
0000
0000
0000
,
0010
0000
0000
0000
,
0010
0000
0000
0000
,
0100
0000
0000
0000
,
0100
0000
0000
0000
,
0010
0000
0000
0000
,
0100
0000
0000
0000
,
0010
0100
0000
0100
,
0000
0100
0000
0000
,
0000
0010
0000
0010
,
0000
0010
0000
0000
,
0000
1000
0000
1000
,
0000
1000
0000
0000
,
0000
0001
0000
0001
,
0000
0002
0003
1000
,
0000
0100
0000
1000
,
0000
0000
0000
0100
,
0000
1000
0000
0100
,
0000
0000
0000
0001
,
0000
0100
0000
0001
,
0000
0000
0000
0020
,
0000
0000
0000
0030
,
0000
1000
0000
0000
,
0000
1000
0000
0000
,
0000
0001
0000
0000
,
0000
0001
0000
0000
,
0000
1000
0000
0000
,
0000
0001
0000
0000
,
0000
1000
0000
0000
,
0000
0002
0000
0000
,
0003
0100
0000
0000
,
0000
0100
0000
0000
,
0000
0010
0000
0000
,
0000
0010
0000
0000
,
0000
0100
0000
0000
,
0000
0010
0000
0000
,
0000
0100
0000
0000
,
0000
0010
0000
0000
,
0000
1001
0000
0000
,
0000
0000
0000
0000
,
0000
0010
0000
0000
,
0000
0000
0000
0000
,
0000
0100
0000
0000
,
0000
0000
0000
0000
,
0000
1000
0000
0000
,
0000
0001
0000
0000
,
0000
0010
0000
0000
,
0000
0000
0000
0000
,
0000
0010
0000
0000
,
0000
1000
0000
0000
,
0000
0100
0000
0000
,
0000
0000
0000
0000
,
0000
0010
0100
0000
,
0100
0000
0100
0000
,
0000
0000
0010
0000
,
0010
0000
0010
0000
,
0000
0000
0001
0000
,
0001
0000
0001
0000
,
0000
0000
1000
0000
,
1000
0000
1000
0000
,
0000
0000
0010
0000
,
0100
0000
0010
0000
,
0000
0000
0100
0000
,
0010
0000
0100
0000
,
0000
0000
0001
0000
,
1000
0000
0001
0000
,
0000
0000
1000
0000
,
0001
0000
1000
0000
,
0000
0000
0020
0000
,
0030
0000
0200
0300
,
0020
0030
2000
0000
,
0000
3000
0002
0003
,
0200
0300
0020
0000
,
0000
0030
2000
3000
,
0200
0300
2000
0000
,
0000
3000
0020
0030
,
0200
0300
0010
0000
,
0010
0000
0000
0000
,
0000
0000
0001
0000
,
0001
0000
0000
0000
,
0000
0000
1000
0000
,
1000
0000
0000
0000
,
0000
0000
0020
0000
,
0030
0000
0200
0000
,
0300
0000
0010
0000
,
0010
0000
0000
0000
,
0000
0000
1000
0000
,
1000
0000
0000
0000
,
0000
0000
0001
0000
,
0001
0000
0000
0000
,
0000
0000
0100
0000
,
0010
2002
0000
0000
,
0000
0000
0000
0000
,
0000
0000
0000
0000
,
0000
0000
0000
3003
,
0000
1001
0100
0000
,
0100
0000
0100
0000
,
0000
0000
0010
0000
,
0010
0000
0010
0000
,
0000
0000
0100
0000
,
0010
0000
0100
0000
,
0000
0000
0010
0000
,
0100
0000
0010
0000
,
0000
1000
0000
1000
,
0000
1000
0000
0000
,
0000
0001
0000
0001
,
0000
0001
0000
0000
,
0000
1000
0000
0001
,
0000
1000
0000
0000
,
0000
0020
0030
0200
,
0300
1000
0000
1000
,
0000
0100
0000
0000
,
0000
0001
0000
0001
,
0000
0100
0000
0000
,
0000
1000
0000
1000
,
0000
0010
0000
0000
,
0000
0001
0000
0001
,
0000
0010
0000
0000
,
0000
1000
0000
0000
,
0000
0010
0000
0000
,
0000
0100
0000
0000
,
0000
0001
0000
0000
,
0000
0010
0000
0000
,
0000
0100
0000
0000
,
0000
1000
0000
0000
,
0000
0001
0000
0000
,
0000
0010
0000
0000
,
0000
0000
0000
0000
,
0000
0010
0000
0000
;

//---------------dance-single - ----------------
#NOTES:
     dance-single:
     :
     Easy:
     7:
     0.287367,0.266482,0.016421,0.127263,0.000000,455.000000,4.000000,31.000000,0.000000,0.000000,0.000000,0.287367,0.266482,0.016421,0.127263,0.000000,455.000000,4.000000,31.000000,0.000000,0.000000,0.000000:
0000
0000
0000
0000
,
1000
0001
1000
0001
,
0010
0100
0010
0100
,
1000
0010
0100
0001
,
0010
0100
1000
0010
,
2000
3000
0002
0003
,
2000
3000
0002
0003
,
0020
0030
0200
0300
,
0020
0000
0000
0030
,
1000
0000
0001
0000
,
0010
0010
0010
0000
,
1000
0000
0001
0000
,
0100
0100
0100
0000
,
1000
0000
0100
0000
,
0010
0001
0010
0000
,
0001
0000
0100
0000
,
0010
1000
0010
0000
,
1000
1000
0001
0000
,
0001
0001
1000
0000
,
0010
0010
0100
0000
,
0100
0100
0010
0000
,
1000
0001
1000
0001
,
0010
0100
0010
0100
,
0010
1000
1000
1000
,
1000
0100
0010
0001
,
0010
0001
0001
0001
,
0001
0100
0010
1000
,
0001
0100
0010
1000
,
0010
0100
0001
0010
,
0001
0100
0010
1000
,
0001
0020
0000
0031
,
0001
1000
1000
0010
,
0100
0010
0100
0001
,
0001
1000
1000
0100
,
0010
0001
1000
0010
,
0100
0001
0100
1000
,
0100
0001
0100
1000
,
0100
0010
0001
2000
,
3000
0001
0100
0001
,
0010
1000
0100
1000
,
0010
0001
0100
0001
,
0100
1000
0100
1000
,
0100
0010
0001
0100
,
0001
0010
1000
0100
,
1000
0010
0100
0001
,
0100
0010
0010
0010
,
0010
1000
0100
0001
,
0100
1000
0010
0100
,
0001
0010
0001
0100
,
0001
0010
0100
1000
,
0010
1000
1000
0100
,
0010
0001
0001
0100
,
0010
1000
0100
1000
,
0010
0100
0001
0010
,
0001
0110
0000
0000
,
0000
0000
0000
0000
,
0000
1000
0000
0000
,
0000
0001
0000
0000
,
0000
0010
0000
0010
,
0000
0100
0000
0000
,
0000
1000
0000
1000
,
0000
0001
0000
0000
,
0000
2000
0000
0000
,
0000
3000
0000
0000
,
0000
0002
0000
0000
,
0003
0200
0000
0000
,
0300
0020
0000
0000
,
0000
0030
0000
0000
,
0000
0100
0010
0010
,
0010
0010
1000
1000
,
1000
1000
0001
0001
,
1000
1000
0100
0100
,
0010
0010
0001
0001
,
0001
0001
1000
1000
,
1000
1000
0010
0010
,
1000
1000
0001
0001
,
0010
0010
0100
1000
,
0010
1000
0100
0010
,
0001
0100
0001
0010
,
0001
0010
1000
0010
,
1000
0010
0001
0100
,
0001
0001
1000
0100
,
1000
1000
0010
0100
,
0001
0100
0010
0000
,
0000
0000
2002
0000
,
0000
3003
0200
0300
,
0020
0030
2000
0000
,
0000
3000
0002
0003
,
2000
3000
0220
0000
,
0000
0330
2000
3000
,
0200
0300
0020
0000
,
0000
0030
0002
0003
,
0200
0300
0010
0000
,
1000
0000
0100
0000
,
1000
0000
0001
0000
,
0100
0000
0001
0000
,
0010
0000
0100
0000
,
0010
0000
0001
0000
,
0100
0000
0010
0000
,
1000
0000
0001
0000
,
0010
0000
1000
1000
,
0001
0001
1000
1000
,
0001
0001
0010
0100
,
0010
0100
1000
0001
,
1000
0001
0100
0100
,
0010
0010
1000
1000
,
0001
0001
0020
0030
,
0100
0010
0010
0010
,
0100
0100
0100
0100
,
1000
1000
1000
1000
,
0001
0001
0001
0001
,
0001
0110
1000
1000
,
0010
0100
0001
0001
,
0010
0001
0100
0010
,
1000
0001
1000
0100
,
0010
0100
1000
1000
,
0010
0100
0001
0001
,
0010
0001
0100
0010
,
1000
0001
0010
0100
,
1000
0001
0010
0001
,
0010
1000
0010
1000
,
0010
0001
0100
0001
,
0100
1000
0100
1000
,
0100
0010
0001
0100
,
0001
0100
1000
0100
,
1000
0020
0030
0200
,
0300
0001
0001
0001
,
0001
0100
1000
0100
,
1000
0010
0010
0010
,
0010
1000
0001
1000
,
0001
0010
0100
1000
,
0100
0010
0001
0010
,
0100
0001
0100
0010
,
1000
0100
0010
0001
,
1000
0010
0100
0001
,
0100
0010
1000
0100
,
1000
0010
0100
0010
,
0100
0001
1000
0001
,
1000
0100
0010
0001
,
0100
0010
1000
0001
,
1000
0010
0100
0001
,
1000
0100
0010
0001
,
1000
0020
0000
0000
,
0000
0000
0000
0030
,
0000
0010
0000
0000
;

//---------------dance-single - ----------------
#NOTES:
     dance-single:
     :
     Medium:
     11:
     0.463306,0.473745,0.299683,0.192946,0.024631,670.000000,73.000000,47.000000,0.000000,0.000000,0.000000,0.463306,0.473745,0.299683,0.192946,0.024631,670.000000,73.000000,47.000000,0.000000,0.000000,0.000000:
0000
0000
0000
0000
,
1000
0000
0001
0001
0000
1000
1000
0000
0001
0001
0000
1000
,
0010
0000
0010
0100
0000
0100
0001
0000
0001
1000
0000
1000
,
0100
0000
0000
0010
0000
0000
0001
0000
0000
1000
0001
1000
,
0001
0000
0000
0010
0000
0000
0100
0000
0000
1000
0001
1000
,
0002
0013
2000
3010
,
0002
0103
2000
3100
,
0002
0010
2003
0010
,
3002
0000
0000
0000
2000
0000
0000
3003
,
0100
0000
0010
0000
1000
0100
1000
0000
,
0010
0000
0100
0000
0001
1000
0001
0000
,
0010
0000
0001
0000
0100
0010
0100
0000
,
0001
0000
0010
0000
0100
1000
0100
0000
,
0010
0000
0001
0000
1000
0010
0100
0000
,
0001
0000
1000
0000
0100
0010
0001
0000
,
1000
0000
0001
0000
1000
0010
0100
0000
,
0001
0000
1000
0000
0001
0010
0100
0000
,
1100
0000
0100
0000
0010
0001
0100
0000
,
0101
0000
0100
0000
0010
1000
0100
0000
,
0110
0000
0010
0000
0001
1000
0010
0000
,
0110
0000
0100
0000
0001
1000
0100
0000
,
1100
0000
1000
0000
0010
0100
0001
0000
,
0101
0000
0100
0000
0010
1000
0100
0010
,
0001
1100
1100
1001
,
0101
0020
1000
0100
,
1030
0011
0011
1001
,
1010
0200
0001
0010
,
0301
0001
0010
0000
1100
0000
1001
0000
,
1010
2000
0100
0001
,
3010
1010
1001
0011
,
1001
0000
0201
0010
1000
0310
0001
0000
,
0101
0000
1000
0100
0010
0000
1000
0000
,
1010
0000
1000
0100
0010
0000
0001
0000
,
0101
0000
1000
0100
0001
0000
1000
0000
,
1100
0000
0001
0100
1000
0000
0010
0000
,
0110
0000
1000
0001
0010
0000
0001
0000
,
1001
0000
1000
0010
0100
0000
0001
0000
,
0001
1000
1000
0020
,
0030
0000
1000
0100
1000
0100
1000
0000
,
0010
0000
0100
0001
0100
0001
0100
0000
,
0010
0000
1000
0001
1000
0001
0010
0000
,
0001
0000
1000
0001
1000
0001
0010
0000
,
0001
0000
1000
0010
0100
0010
1000
0000
,
0010
0000
1000
0010
0100
0001
0010
0000
,
0001
0000
0100
0001
0010
0100
1000
0000
,
0010
0100
0001
0010
,
1000
0000
0001
0010
0001
0010
0001
0010
,
0001
0000
1000
0010
1000
0010
1000
0010
,
1000
0000
0100
0010
0100
0010
0100
0010
,
0100
0000
1000
0001
1000
0001
1000
0001
,
1000
0000
0010
0100
0010
0000
0001
1000
,
0001
0000
0010
0100
0010
0000
0001
1000
,
0001
0000
0010
0100
1000
0000
0010
0100
,
0001
0000
1000
0100
1000
0100
0010
0001
,
0010
0001
2000
0000
0000
0000
0000
0000
,
0000
0000
0000
0000
,
0000
0020
0000
0000
,
3000
0200
0000
0000
,
0030
0002
0000
0000
,
0000
0000
0000
0000
,
0303
2000
0000
0000
,
0000
0002
0000
0000
,
3003
0220
0000
0000
,
0000
0000
0000
0000
,
0330
2000
0000
0000
,
3000
0002
0000
0000
,
0003
0020
0000
0000
,
0000
0100
0000
0100
,
0130
0010
1100
1100
,
1100
1100
1010
1010
,
0010
1000
0010
0000
0101
0000
0101
0000
,
0101
0101
0011
0011
,
0010
0001
0010
0000
0100
0000
1000
0000
,
0010
1000
0010
0000
0100
0000
0001
0000
,
0010
0001
0010
0000
0100
0000
1000
0000
,
0001
1000
0001
0000
0100
0000
0001
0000
,
1000
0001
1000
0000
0010
0100
0010
0100
,
0010
0000
0100
0000
0001
1000
0001
1000
,
0001
0000
1000
0000
0001
0010
0001
0010
,
0001
0000
0010
0000
0100
1000
0100
1000
,
0100
0000
1000
0000
0010
0100
0001
0100
,
0010
0000
1000
0000
0001
0010
0100
0010
,
0001
0000
1000
0000
0010
0100
0001
0010
,
0100
1000
0010
1000
,
0100
0001
0020
0000
,
0000
0030
0002
0000
,
0203
0000
2300
0000
,
0000
3000
0020
0000
,
0230
0300
2002
0000
,
0000
3003
0002
0000
,
0023
0000
2030
0000
,
0000
3000
0200
0000
,
0320
0000
0031
0100
,
0010
1000
0100
1000
,
0010
0100
0001
0010
,
0001
0100
0010
1000
,
0100
0000
0010
0000
0001
0100
0001
0000
,
0010
0100
1000
0010
,
1000
0000
0001
0000
1000
0010
1000
0000
,
0001
0010
0001
0001
,
0100
0000
0100
0000
0010
1000
0010
0000
,
1000
0010
1000
0000
0010
0100
0010
0000
,
0100
0010
0100
0000
0001
0000
0010
0000
,
1000
0100
0010
0100
,
1000
0001
0100
0100
,
0010
0010
1000
1000
,
0001
0001
0020
0000
,
0230
0000
0310
0001
0010
0001
1000
0010
,
1000
0010
0100
0001
0100
0001
1000
0100
,
1000
0100
0010
0001
0100
0010
1000
0100
,
0010
0001
0100
0010
1000
0100
1000
0010
,
0100
0001
0010
0000
1100
0000
1001
0000
,
1010
1001
0101
1001
,
0011
0000
1001
0000
0100
0010
0100
0000
,
1000
0001
1000
0000
0010
1000
0010
0000
,
0100
0001
0100
0000
1010
0000
1100
0000
,
0011
0101
0110
1001
,
0110
0000
1001
0000
0010
1000
0100
0000
,
0010
0001
0100
0000
0010
1000
0100
1000
,
0020
0000
0130
0100
0001
0000
0011
0000
,
1100
1010
1010
0011
,
0011
0000
0100
0010
0100
0000
0001
1000
,
0001
0000
0010
0100
0010
0100
0010
0000
,
0001
1010
1010
1100
,
1100
0101
0101
0011
,
0011
2002
3003
0200
,
0300
0000
1000
0100
1000
0000
0010
1000
,
0010
0000
0100
0001
0100
0000
0001
0010
,
0001
0000
0010
0100
1000
0000
0010
0100
,
0001
0000
1000
0100
0010
0000
0001
0100
,
0010
0000
1000
0100
1000
0000
0100
1000
,
0100
0000
0001
0100
0001
0000
0100
0001
,
0100
0000
0010
1000
0001
0000
0010
0001
,
1000
0000
0010
1000
0100
0000
0010
0001
,
0100
0000
0010
1000
0010
1000
0010
1000
,
0010
0000
0100
0001
0100
0001
0100
0001
,
0100
0000
0010
0001
0010
0001
0010
0001
,
0010
0000
0100
1000
0100
1000
0100
1000
,
0100
0000
0010
1000
0100
1000
0010
1000
,
0100
0000
0010
0001
0100
0001
0010
0001
,
0100
0000
0010
1000
0010
1000
0001
0010
,
0001
0010
0100
1000
0010
1000
0100
0010
,
0001
0100
0020
0000
0030
0000
2000
0000
,
3000
0002
0003
0200
,
0300
0010
0000
0000
;

//---------------dance-single - ----------------
#NOTES:
     dance-single:
     :
     Hard:
     14:
     0.595847,1.000000,0.139578,0.114947,0.166262,954.000000,34.000000,28.000000,123.000000,3.000000,0.000000,0.595847,1.000000,0.139578,0.114947,0.166262,954.000000,34.000000,28.000000,123.000000,3.000000,0.000000:
0000
0000
0000
0000
,
1000
0100
0010
1000
0100
0010
0001
0100
0010
0001
0100
0010
,
0001
1000
0010
1000
0001
0010
0001
0100
0010
1000
0100
0010
,
0001
0100
0001
0100
0001
0100
0010
1000
0010
1000
0010
1000
,
0100
0010
0100
1000
0001
1000
0010
1000
0010
0100
0001
0100
,
0010
0000
1000
0001
1000
0000
0010
0000
0100
0000
0001
0000
0010
0000
0100
1000
0100
0000
0010
0000
0001
0000
1000
0000
,
0010
0000
0100
0010
0100
0000
0001
0000
1000
0000
0100
0000
0010
0000
0001
1000
0001
0000
0010
0000
0100
0000
1000
0000
,
0001
0000
0100
0001
0100
0001
0100
0000
0010
1000
0010
1000
0010
0000
0100
0001
0100
0001
0010
0000
0100
1000
0100
1000
,
0010
0000
1000
0001
1000
0001
0010
0000
0001
1000
0001
1000
0020
0000
0000
0000
0000
0000
0000
0000
0000
0030
0000
0000
,
1000
0000
1000
0010
0100
0001
0010
0000
,
0001
0000
0001
0010
0100
1000
0010
0000
,
1000
0000
1000
0100
0010
0001
0100
0000
,
0001
0000
0001
0100
0010
1000
0100
0000
,
0100
0000
0100
1000
0100
0010
0100
0000
,
0001
0000
0010
0100
1000
0100
0010
0000
,
0001
1000
0010
1000
0001
0010
0100
1000
,
0100
0001
0010
0001
1000
0010
0100
0001
,
0101
0000
1000
0100
0010
0001
0100
0001
,
0010
0000
0100
1000
0010
1000
0100
0010
,
0001
0000
1000
0010
0100
0010
1000
0100
,
0010
0000
0001
0100
0001
0010
0100
0010
,
0001
1000
0010
1000
0001
1000
0100
1000
,
0010
0100
0010
0100
0001
0010
0100
1000
,
0110
0000
1001
MMMM
1001
MMMM
1001
MMMM
,
1001
MMMM
1100
0000
1001
0000
0101
0000
,
1001
0000
0110
MMMM
0110
MMMM
0110
MMMM
,
0110
MMMM
1010
0000
1100
0000
0011
0000
,
0101
0100
001M
1000
010M
1000
001M
1000
,
010M
1000
M010
0100
M001
0100
M010
0100
,
M001
0100
001M
1000
01M0
0010
0M01
0100
,
M010
0000
1000
0000
0001
1000
0001
1000
0001
1000
0001
1000
0001
0000
0000
0000
,
M101
0000
0001
1000
0100
0010
0001
0000
,
01M1
0000
0010
1000
0100
1000
0010
0000
,
101M
0000
1000
0100
0010
0100
1000
0000
,
M110
0000
0001
0010
0100
0010
0001
0100
,
0010
000M
1000
0100
1000
0100
0010
0001
,
0100
M000
0001
0100
0001
0100
0010
0000
,
0100
1000
0001
0200
,
0300
0000
1000
0100
1000
0010
0100
0001
,
0010
0001
0100
0001
0100
0010
1000
0001
,
1000
0100
0010
0001
0010
0100
1000
0010
,
0100
0010
1000
0001
0010
0001
0100
0010
,
0100
1000
0100
0010
0001
0100
1000
0100
,
0001
0010
0100
1000
0010
0001
0010
1000
,
0001
0010
1000
0010
1000
0100
0010
0001
,
0100
0001
0010
0100
0010
0100
1000
0001
,
1000
0001
0100
0010
1000
0001
0010
0001
,
0100
0010
1000
0100
1000
0010
1000
0100
,
0010
0001
0100
0001
0010
0001
0100
0010
,
1000
0100
1000
0010
1000
0100
0010
0100
,
0010
0001
0100
0010
1000
0010
0100
0001
,
0010
0001
1000
0010
0001
0010
1000
0100
,
0010
0001
0100
1000
0100
0001
0010
0100
,
1000
0010
0100
0010
0100
0010
1000
0001
,
1000
0001
2M02
0000
00M0
0000
0M00
0000
,
00M0
0M00
00M0
0M00
,
30M3
0000
0M01
0001
0001
0000
10M0
1000
,
1000
0000
001M
0010
0010
0000
M100
0100
,
0100
0000
1000
0010
1000
0010
1000
0010
,
1000
0000
0001
0010
0001
0010
0001
0010
,
0001
0000
0100
0010
0100
0000
0001
0000
,
0010
0000
0100
1000
0100
0000
0010
0000
,
0001
M220
000M
M000
,
000M
M000
000M
M000
,
033M
2000
0M00
0M00
,
3M00
0002
00M0
00M0
,
00M3
0020
0000
0000
,
0000
0100
0000
0100
,
0100
0000
0000
0000
0000
0000
0000
0000
0000
0000
0000
0000
0000
0000
0000
0000
M10M
0030
0000
0000
0000
0000
0000
0000
0000
0000
0000
0000
0000
0000
0000
0000
0001
0000
0000
0000
0000
0000
0000
0000
0100
0000
0000
0000
0000
0000
0000
0000
0001
0000
0000
0000
0000
0000
0000
0000
0100
0000
0000
0000
0000
0000
0000
0000
,
0010
1000
0010
1000
0100
0010
0100
0010
,
0001
1000
0001
1000
0010
1000
0100
1000
,
0010
0100
0001
0010
0001
0100
0010
1000
,
0001
0010
0001
0100
0010
1000
0010
1000
,
0001
0010
0001
0010
0100
1000
0100
1000
,
0001
0100
0001
0100
0010
1000
0100
0010
,
0001
0100
0010
0100
0001
0010
0100
1000
,
0010
0100
0001
1000
0100
1000
0100
1000
,
0100
0001
0100
0001
0010
1000
0010
1000
,
0010
0001
0010
0001
1000
0100
0010
0100
,
1000
0010
0100
0010
1000
0100
0010
0001
,
0100
0000
0010
1000
0010
0000
0100
0000
0010
0000
0100
0000
0010
0000
0100
0000
,
0010
0001
0010
0001
1000
0010
1000
0010
,
0100
0001
0100
0001
1000
0100
0010
0100
,
0001
0100
0010
0100
1000
0000
0100
0000
,
0001
0100
2MM1
0000
,
0000
0000
0MM2
0000
,
0M10
0003
02MM
0000
,
0000
3000
M02M
0000
,
100M
0300
MM32
0000
,
0000
0000
M2M0
0000
,
M010
0303
2MMM
0000
,
0000
0000
3M2M
0000
,
M20M
0330
0001
0010
,
0001
0100
0010
1000
,
0100
1000
0010
0010
,
0100
0100
0001
0001
,
1000
0000
1000
0000
010M
0010
0001
0000
,
0100
0000
0010
0000
M100
0010
1000
0000
,
0100
1000
0010
0100
,
0001
1000
0100
1000
,
0001
0000
0010
0000
M001
0100
0001
0100
,
M001
0000
0010
0000
010M
1000
0100
1000
,
010M
0010
0001
1000
,
0010
0001
0010
1000
,
0001
0000
0010
0000
010M
1000
0010
1000
,
010M
0000
0010
0000
M001
0100
0010
0100
,
M001
0010
0200
0000
,
0020
0330
1000
0100
0001
0100
1000
0010
,
0001
0010
1000
0100
0001
1000
0010
0001
,
0100
0010
1000
0100
1000
0100
0010
0001
,
0010
0000
0001
0000
1000
0001
1000
0001
1000
0001
1000
0001
1000
0001
1000
0001
,
1000
0000
0000
0000
0001
0000
0000
0000
1000
0000
0000
0000
0001
0000
0000
0000
2MM0
3000
0000
0000
0000
0000
0000
0000
0000
0000
0000
0000
0000
0000
0000
0000
0001
0000
0000
0000
0000
0000
0000
0000
0100
0000
0000
0000
0000
0000
0000
0000
0010
0000
0000
0000
0000
0000
0000
0000
0100
0000
0000
0000
0000
0000
0000
0000
,
0001
0100
0010
0100
0001
0010
0100
1000
,
0010
1000
0010
1000
0010
1000
0001
0010
,
0100
1000
0001
1000
0100
0010
0001
1000
,
0001
0010
0100
0010
0001
1000
0010
1000
,
0010
0100
0001
0010
0001
0010
0100
0010
,
0001
0100
0010
0100
1000
0100
0010
0001
,
1000
0010
1000
0001
0010
1000
0001
0100
,
1000
0100
0001
0100
1000
0000
1000
0000
1000
0000
0010
0000
0100
0000
0001
0000
,
0010
0001
0100
0010
0100
1000
0100
0010
,
0001
0010
0100
0010
1000
0001
1000
0010
,
0100
0010
0001
0010
0100
1000
0001
0100
,
1000
0100
0001
0010
0100
0010
0001
1000
,
0010
0001
0010
1000
0100
0010
0001
0100
,
0010
1000
0002
0000
0MM0
0000
2003
0000
,
3MM0
0000
0101
0100
0010
0000
1100
0100
,
0010
0000
1001
0001
0100
0000
1001
1000
,
0100
0000
0011
0001
0100
0000
1010
1000
,
0100
0000
0110
0100
1000
0000
0110
0100
,
0001
0000
1000
0100
0001
0100
1000
0100
,
1000
0100
0001
0100
1000
0100
0001
0100
,
0001
0100
0010
1000
0100
1000
0010
0001
,
0100
0001
0010
1000
0100
0010
0001
0100
,
1000
0100
0001
0010
0001
0010
0100
1000
,
0100
1000
0010
0100
0010
0100
0001
1000
,
0001
1000
0010
1000
0100
0010
0001
0100
,
0010
1000
0010
0100
0001
0010
0100
1000
,
0001
0100
0010
1000
0100
1000
0010
0001
,
0100
0010
0100
0001
0010
0100
1000
0010
,
0001
1000
0100
0001
1000
0010
0100
0001
,
0010
0001
0100
0010
0100
0001
0010
0100
,
1000
0010
2M02
0000
3003
0000
02M0
0000
,
0300
M020
0030
020M
,
0300
MM1M
0000
0000
;

//---------------dance-single - ----------------
#NOTES:
     dance-single:
     :
     Challenge:
     16:
     0.673846,1.000000,0.180631,0.180631,0.268893,1061.000000,44.000000,44.000000,213.000000,12.000000,0.000000,0.673846,1.000000,0.180631,0.180631,0.268893,1061.000000,44.000000,44.000000,213.000000,12.000000,0.000000:
// measure 0
0000
0000
0000
0000
,  // measure 1
1000
0000
0001
1000
0100
0010
0001
0000
1000
0010
0100
0001
0010
0000
0001
0100
0001
0010
0001
0000
1000
0100
1000
0010
,  // measure 2
1000
0000
0100
0010
0100
0010
0001
0000
0100
0010
0100
0010
1000
0000
0001
0010
0100
1000
0010
0000
1000
0100
0010
0001
,  // measure 3
0100
0000
0001
0010
0100
0010
0001
0000
1000
0100
0010
0100
1000
0000
0001
0100
0010
1000
0001
0000
1000
0100
0010
0001
,  // measure 4
1000
0000
0010
1000
0100
1000
0010
0000
0010
0001
0100
0001
0010
0000
1000
0100
0010
0100
1000
0000
0001
0100
0010
0100
,  // measure 5
0102
0000
1000
0100
1000
0000
0100
0000
1000
0100
1000
0000
0203
0000
0010
1000
0010
0000
0320
0000
1000
0000
1000
0000
,  // measure 6
2030
0000
0001
0100
0001
0000
0100
0000
0001
0100
0001
0000
3020
0000
0100
1000
0100
0000
2030
0000
0001
0000
0001
0000
,  // measure 7
3002
0100
0010
1000
0010
0100
2003
0001
0010
3200
0010
1000
,  // measure 8
2300
0000
0000
0000
0000
0000
0100
0000
0010
0000
0100
0000
0002
0000
0000
0000
0000
0000
0000
0000
0000
3003
0000
0000
,  // measure 9
1000
0100
0010
0001
0100
0001
0010
0100
,  // measure 10
1000
0010
0001
0010
1000
0100
0001
0100
,  // measure 11
1000
0100
0010
0100
0001
0100
0010
0100
,  // measure 12
1000
0010
1000
0010
0001
0010
0001
0010
,  // measure 13
1000
0100
0010
0001
1000
0100
0010
0001
,  // measure 14
0100
0010
1000
0001
0100
0010
1000
0001
,  // measure 15
0100
0010
0100
0010
1000
0001
1000
0001
,  // measure 16
0010
0100
0010
0100
1000
0001
1000
0001
,  // measure 17
0101
0100
0010
1000
1001
1000
0100
0010
,  // measure 18
0011
0001
0100
0001
0011
0010
0100
1000
,  // measure 19
1010
0010
0100
0001
0011
0001
0100
0010
,  // measure 20
1010
0001
0100
0001
1100
0001
0010
0001
,  // measure 21
0100
0010
1000
0001
0010
0001
0100
0010
,  // measure 22
1M00
00M1
1M00
00M1
1M00
00M1
1M00
00M1
1M00
00M1
1M00
00M1
1M00
00M1
1M00
00M1
,  // measure 23
2MM0
3000
0000
0000
0000
0000
0000
0000
0000
0000
0000
0000
0000
0000
0000
0000
0011
0000
0000
0000
0000
0000
0000
0000
0001
0000
0000
0000
0000
0000
0000
0000
0100
0000
0000
0000
0000
0000
0000
0000
0100
0000
0000
0000
0000
0000
0000
0000
0001
0000
0000
0000
0000
0000
0000
0000
0001
0000
0000
0000
0000
0000
0000
0000
,  // measure 24
0010
1000
0001
0001
0100
0100
1000
1000
,  // measure 25
0100
0001
0010
0010
0100
0100
1000
1000
,  // measure 26
0010
0100
0001
0001
1000
1000
0100
0100
,  // measure 27
1000
1000
1000
0010
0100
0010
1000
0100
,  // measure 28
0010
0100
0001
0100
0010
0100
0001
0010
,  // measure 29
0100
0010
0001
0100
1000
0100
0001
0010
,  // measure 30
1000
0000
0010
0000
M002
0203
0320
2030
320M
0320
0032
2003
3M10
0000
1000
0000
,  // measure 31
1100
0100
0010
0001
0101
0100
0010
0010
,  // measure 32
1000
1000
0001
0010
0001
1000
1000
0100
,  // measure 33
0101
0100
0001
0010
1010
0010
1000
0001
,  // measure 34
0010
0000
0100
0000
1000
0000
0001
0000
1000
0000
0100
0010
0100
0000
1000
0000
,  // measure 35
0010
1000
0100
0001
1000
0010
0001
0100
,  // measure 36
0001
0010
1000
0001
0100
0010
1010
0000
,  // measure 37
1100
0000
0100
0010
0001
0000
0000
0000
1000
0000
0000
0000
M2MM
0000
0000
0000
,  // measure 38
M3MM
0000
1100
0100
0001
0001
0100
0100
,  // measure 39
1000
0100
0010
0001
1000
1000
0010
0010
,  // measure 40
0001
0010
0100
1000
0001
0100
0010
0100
,  // measure 41
0001
0000
0010
0000
0100
0000
1000
0000
0010
0000
0100
0000
0010
0000
1000
0100
,  // measure 42
0010
0010
0001
1000
0100
0001
0100
1000
,  // measure 43
0010
0100
0001
0010
0001
0100
1000
0010
,  // measure 44
1000
0001
1000
0100
1000
0100
0001
0010
,  // measure 45
0100
0000
1000
0000
0001
0000
0001
0000
0001
0000
1000
0100
0010
0000
0001
0000
,  // measure 46
1000
0000
0001
0000
1000
0010
1000
0010
1000
0000
0100
0000
0010
0000
0001
0000
,  // measure 47
0100
0000
0001
0000
0010
0100
0010
0100
0010
0000
0001
0000
1000
0000
0010
0000
,  // measure 48
1000
0000
0001
0000
1000
0100
0010
0100
1000
0000
0001
0000
0100
0000
0010
0000
,  // measure 49
1000
0000
0001
0000
0010
0100
1000
0100
0010
0000
0001
0000
0100
0000
0001
0000
,  // measure 50
0100
0000
1000
0010
0100
0010
1000
0001
0010
0000
0100
0000
1000
0000
0001
0000
,  // measure 51
1000
0000
0100
0000
0010
0001
0010
0100
0010
0000
0001
0000
0100
0000
0010
0000
,  // measure 52
1000
0000
0001
0000
1000
0010
0100
0010
1000
0000
0001
0000
1000
0000
0100
0000
,  // measure 53
0001
0000
0100
0000
1000
0100
0010
0001
1000
0000
0001
0000
1000
0000
0010
0000
,  // measure 54
0001
0010
1001
0000
M00M
0000
0M00
0000
,  // measure 55
M000
0000
000M
000M
00M0
00M0
0M00
0M00
,  // measure 56
M000
M000
0001
0000
M000
0000
0M00
0000
,  // measure 57
000M
0000
0M00
M000
0M00
M000
000M
00M0
,  // measure 58
000M
00M0
0100
M000
000M
M000
0M00
00M0
,  // measure 59
000M
M000
00M0
0M00
00M0
M000
000M
M000
,  // measure 60
000M
0M00
0010
M000
0M00
000M
0M00
M000
,  // measure 61
00M0
000M
1000
0M00
00M0
000M
00M0
0M00
,  // measure 62
M000
00M0
2200
0000
0000
0000
0000
0000
,  // measure 63
0000
00MM
0000
0000
,  // measure 64
0000
001M
0000
0000
,  // measure 65
0000
0000
0001
00M0
0000
0000
0000
0000
,  // measure 66
3300
0202
0000
0000
,  // measure 67
0000
10M0
0000
M010
,  // measure 68
0000
0000
0000
0000
0000
0000
0000
0000
0000
0000
0000
0000
0000
0000
0000
0000
10M0
0303
0000
0000
0000
0000
0000
0000
0000
0000
0000
0000
0000
0000
0000
0000
1100
0000
0000
0000
0000
0000
0000
0000
0000
0000
0000
0000
0000
0000
0000
0000
1010
0000
0000
0000
0000
0000
0000
0000
1000
0000
0000
0000
0000
0000
0000
0000
,  // measure 69
0100
0010
0001
0100
0110
0000
0101
0001
,  // measure 70
0010
0001
0100
0010
1010
0000
1100
0100
,  // measure 71
0010
0001
1000
0001
0011
0000
1100
1000
,  // measure 72
0010
0000
0100
0000
0010
0000
1000
0001
0010
0000
0000
0000
1100
0000
1000
0000
,  // measure 73
0010
0001
0010
1000
1100
0000
0011
0001
,  // measure 74
0100
1000
0100
0001
0011
0000
0110
0100
,  // measure 75
1000
0010
0100
0010
0110
0000
0110
0010
,  // measure 76
0001
0100
0010
0100
0110
0010
1000
1000
,  // measure 77
0100
0100
0001
0010
0100
1000
0001
0001
,  // measure 78
0100
0100
0010
1000
0100
1000
0001
0001
,  // measure 79
0100
0100
1000
0100
0010
0001
1000
1000
,  // measure 80
0010
0000
0001
0010
0100
0000
0010
0000
0100
0000
0010
0000
1000
0000
0010
0000
,  // measure 81
0100
0001
1000
0100
0001
0100
1000
0010
,  // measure 82
0001
1000
0100
0001
0100
1000
0001
0010
,  // measure 83
1000
0010
0100
0001
1001
0000
1100
0100
,  // measure 84
0010
0001
1000
0100
M22M
0000
M000
0000
,  // measure 85
000M
M330
M002
0M00
,  // measure 86
20M3
000M
3M20
M000
,  // measure 87
0M00
000M
M230
000M
,  // measure 88
M302
00M3
2200
0000
,  // measure 89
00MM
0000
00M1
0000
,  // measure 90
001M
3300
M22M
0000
,  // measure 91
M000
0000
M001
0000
,  // measure 92
100M
0000
0330
0000
100M
0100
1000
0100
,  // measure 93
M010
0000
0001
0000
M100
0001
0100
0001
,  // measure 94
10M0
0000
0100
0000
M001
0010
0100
0010
,  // measure 95
M001
0000
0100
0000
100M
0100
0010
0001
,  // measure 96
M100
0000
0010
0000
100M
0100
100M
0100
,  // measure 97
100M
0010
0100
0000
M001
0010
M001
0010
,  // measure 98
M001
0100
0010
0000
1M00
0001
0M10
0001
,  // measure 99
1M00
0010
0100
0000
0M01
0010
0M01
1000
,  // measure 100
0M10
1000
0001
0000
100M
0100
0010
0001
,  // measure 101
1000
0010
0100
0001
1000
0100
1000
0010
,  // measure 102
0100
0001
0010
0001
0100
0010
1000
0100
,  // measure 103
0010
0001
0100
0010
1000
0001
0010
0001
,  // measure 104
1000
0010
0100
0010
1000
0100
0001
1000
,  // measure 105
0010
0001
0100
0010
1000
0010
0001
1000
,  // measure 106
0100
0001
1000
0010
0002
0M00
M000
0M00
,  // measure 107
20M0
0000
3003
0000
0010
1000
0010
0000
0100
0000
0001
0000
0010
0001
0010
0000
,  // measure 108
0100
0000
1000
0000
0001
0100
0001
0000
1000
0000
0001
0000
1000
0100
1000
0000
,  // measure 109
0010
0000
0100
0000
0001
0010
0001
0010
0001
0000
0100
0000
0010
1000
0010
1000
,  // measure 110
0010
0000
0100
0000
0001
0010
0001
0010
0100
1000
0100
1000
0010
0100
0010
1000
,  // measure 111
0001
0000
0000
0000
0010
0000
0000
0000
0001
0000
0000
0000
1000
0000
0000
0000
0M20
0030
0000
0000
0000
0000
0000
0000
0000
0000
0000
0000
0000
0000
0000
0000
1100
0000
0000
0000
0000
0000
0000
0000
1000
0000
0000
0000
0000
0000
0000
0000
0010
0000
0000
0000
0000
0000
0000
0000
0010
0000
0000
0000
0000
0000
0000
0000
,  // measure 112
0100
0100
0001
0001
0010
0010
0001
0001
,  // measure 113
0100
0100
1000
1000
0010
1000
0100
0010
,  // measure 114
0001
1000
0001
0010
0100
1000
0010
0001
,  // measure 115
0100
1000
0100
0100
0100
0001
0010
0001
,  // measure 116
0100
0010
1000
0100
0010
1000
0100
0001
,  // measure 117
0100
1000
0010
0100
0001
0010
0001
0010
,  // measure 118
1000
0000
0010
0000
1000
0000
0010
0001
0010
0000
0100
0000
1000
0000
0100
0000
,  // measure 119
0010
0001
0010
0001
0010
0000
0100
0000
1000
0000
0000
0000
1000
0000
0000
0000
0001
0000
0000
0000
0001
0000
1000
0000
0010
0000
0000
0000
0010
0000
0000
0000
,  // measure 120
1000
1000
0001
0100
1000
0001
0010
1000
,  // measure 121
0010
0100
0001
0010
0001
0100
0010
1000
,  // measure 122
0100
1000
0010
0010
0100
0100
0001
0001
,  // measure 123
2000
0100
3001
1000
0100
1000
0001
0010
,  // measure 124
1000
0010
0100
0001
1000
0100
0001
1000
,  // measure 125
0010
0100
002M
0000
0M00
0000
200M
0000
,  // measure 126
3M30
0000
M101
0100
001M
0010
10M0
1000
,  // measure 127
010M
0100
M001
0001
0M10
0010
M001
0001
,  // measure 128
01M0
0100
100M
0010
0M01
1000
01M0
0001
,  // measure 129
10M0
0001
01M0
1000
0M01
0010
1M00
0001
,  // measure 130
M100
0010
01M0
0001
10M0
0100
M001
0010
,  // measure 131
100M
0010
M100
0001
01M0
1000
0M10
0001
,  // measure 132
M100
0010
100M
0010
010M
0010
M001
0010
,  // measure 133
010M
1000
00M1
0100
M001
0100
001M
1000
,  // measure 134
0M10
1000
010M
0010
M001
0100
M010
0100
,  // measure 135
M001
0010
010M
1000
0M10
0100
001M
1000
,  // measure 136
01M0
0001
01M0
1000
001M
1000
001M
1000
,  // measure 137
0M10
0001
0M10
1000
0M01
0010
M001
0010
,  // measure 138
1M00
0001
M100
0010
100M
0010
M100
0001
,  // measure 139
0M10
0001
M100
0010
1M00
0001
M010
0001
,  // measure 140
M100
0010
100M
0001
0M10
1000
010M
0010
,  // measure 141
M001
0100
10M0
0100
M010
0001
M100
0010
,  // measure 142
1M00
0001
M22M
0000
0000
0000
100M
0000
,  // measure 143
0000
M001
0000
100M
,  // measure 144
0000
M33M
0000
0000
;
