#TITLE:Jurassic Park 2015;
#SUBTITLE:;
#ARTIST:S3RL;
#TITLETRANSLIT:;
#SUBTITLETRANSLIT:;
#ARTISTTRANSLIT:;
#GENRE:;
#CREDIT:;
#BANNER:jurrassic-park-2015-bn.png;
#BACKGROUND:jurrasic-park-2015-bg.png;
#LYRICSPATH:;
#CDTITLE:arsa-cd.png;
#MUSIC:Jurassic Park 2015.ogg;
#OFFSET:0.602000;
#SAMPLESTART:57.000000;
#SAMPLELENGTH:12.000000;
#SELECTABLE:YES;
#BPMS:0.000000=175.000000
;
#STOPS:96.000000=0.340000,
97.000000=0.360000,
418.000000=0.340000,
419.000000=0.340000
;
#BGCHANGES:;
#KEYSOUNDS:;
#ATTACKS:;

//---------------dance-single - ----------------
#NOTES:
     dance-single:
     :
     Beginner:
     2:
     0.125485,0.136756,0.015780,0.052599,0.000000,154.000000,3.000000,10.000000,0.000000,0.000000,0.000000,0.125485,0.136756,0.015780,0.052599,0.000000,154.000000,3.000000,10.000000,0.000000,0.000000,0.000000:
0000
0000
0000
0000
,
0000
0000
0000
0000
,
0000
0000
0000
0000
,
0000
0000
0000
0000
,
0000
0000
0000
0000
,
0000
0000
0000
0000
,
0000
0000
0000
0000
,
0000
0000
0000
0000
,
0000
0000
0000
0000
,
1000
0000
0001
0000
,
1000
0000
0000
0000
,
0001
0000
1000
0000
,
0001
0000
0000
0000
,
0010
0000
0000
0000
,
0100
0000
0000
0000
,
0001
0000
0000
0000
,
1001
0000
0000
0000
,
0001
0000
1000
0000
,
0001
0000
0000
0000
,
1000
0000
0001
0000
,
1000
0000
0000
0000
,
0010
0000
0100
0000
,
0010
0000
0000
0000
,
0100
0000
0010
0000
,
0100
0100
0000
0000
,
0000
0000
1000
0000
,
1000
0000
1000
0000
,
0000
0000
0001
0000
,
0001
0000
0001
0000
,
0000
0000
0010
0000
,
0100
0000
0010
0000
,
0000
0000
0100
0000
,
0010
0000
0100
0000
,
0000
0000
2000
0000
,
3000
0000
0002
0000
,
0003
0000
2000
0000
,
3000
0000
0002
0000
,
0003
0000
0020
0000
,
0000
0000
0000
0000
,
0000
0000
0000
0000
,
0000
0000
0030
0000
,
0000
0000
1000
0000
,
1000
0000
0001
0000
,
0000
0000
0001
0000
,
0001
0000
1000
0000
,
0000
0000
0010
0000
,
0010
0000
0100
0000
,
0000
0000
0100
0000
,
0100
0000
0010
0000
,
0000
0000
1000
0000
,
0100
0000
0010
0000
,
0000
0000
0001
0000
,
0100
0000
0010
0000
,
0000
0000
1000
0000
,
0100
0000
0010
0000
,
0000
0000
0001
0000
,
0100
0000
0010
0000
,
0000
0000
1000
0000
,
0001
0000
1000
0000
,
0001
0000
1000
0000
,
0000
0000
0001
0000
,
0000
0000
0010
0000
,
0100
0000
0010
0000
,
0100
0000
0010
0000
,
0000
0000
0100
0000
,
0000
0000
1000
0000
,
0100
0000
1000
0000
,
0100
0000
1000
0000
,
0000
0000
0100
0000
,
0000
0000
0001
0000
,
0100
0000
0001
0000
,
0100
0000
0001
0000
,
0000
0000
0100
0000
,
0000
0000
0010
0000
,
0000
0000
0000
0000
,
0000
0000
1000
0000
,
0000
0000
0000
0000
,
0000
0000
0001
0000
,
0000
0000
0000
0000
,
0000
0000
0100
0000
,
0000
0000
0000
0000
,
0000
0000
0010
0000
,
0010
0000
0010
0000
,
0000
0000
0100
0000
,
0100
0000
0100
0000
,
0000
0000
0010
0000
,
0010
0000
0010
0000
,
0000
0000
0100
0000
,
0100
0000
0100
0000
,
0000
0000
0020
0000
,
0000
0000
0000
0000
,
0030
0000
0001
0000
,
0001
0000
1000
0000
,
0000
0000
0100
0000
,
0000
0000
0010
0000
,
0000
0000
0001
0000
,
0000
0000
0110
0000
,
0000
0000
1000
0000
,
0100
0000
1000
0000
,
0000
0000
0001
0000
,
0100
0000
0001
0000
,
0000
0000
0010
0000
,
0100
0000
0010
0000
,
0000
0000
0100
0000
,
0010
0000
0010
0010
,
0000
0000
0000
0000
,
1000
0000
0100
0000
,
1000
0000
0100
0000
,
1000
0000
0000
0000
,
0010
0000
0000
0000
,
0001
0000
0100
0000
,
0001
0000
0100
0000
,
0001
0000
0000
0000
,
0010
0000
0000
0000
,
1000
0000
0100
0000
,
0010
0000
0001
0000
,
0100
0000
0000
0000
,
0010
0000
0000
0000
,
0100
0000
0001
0000
,
0010
0000
0100
0000
,
1000
0000
0000
0000
,
0010
0000
0000
0000
,
2000
0000
0000
0000
,
3000
0000
0000
0000
,
0002
0000
0000
0000
,
0003
0000
0000
0000
,
2000
0000
0000
0000
,
3000
0000
0000
0000
,
0002
0000
0000
0000
,
0003
0000
0000
0000
,
1001
0000
0000
0000
;

//---------------dance-single - ----------------
#NOTES:
     dance-single:
     :
     Easy:
     6:
     0.282530,0.307702,0.068378,0.126237,0.000000,339.000000,13.000000,24.000000,0.000000,0.000000,0.000000,0.282530,0.307702,0.068378,0.126237,0.000000,339.000000,13.000000,24.000000,0.000000,0.000000,0.000000:
0000
0000
0000
0000
,
0000
0000
0000
0000
,
0000
0000
0000
0000
,
0000
0000
0000
0000
,
0000
0000
0000
0000
,
0000
0000
0000
0000
,
0000
0000
0000
0000
,
0000
0000
0000
0000
,
0000
0000
0000
0000
,
1000
0000
0001
0000
,
0010
0010
0010
0000
,
0001
0000
1000
0000
,
0100
0100
0100
0000
,
1000
0000
0010
0000
,
1000
0000
0010
0000
,
0100
0001
0010
0100
,
2002
0000
0000
3003
,
1000
1000
0001
0001
,
1000
0001
1000
0000
,
0010
0010
0100
0100
,
0010
0100
0010
0000
,
1000
0000
0100
0000
,
1000
0001
1000
0000
,
0001
0010
0100
0010
,
1001
1001
0100
0000
,
0000
0000
1000
1000
,
0100
0100
1000
0100
,
1000
0000
0001
0001
,
0100
0100
0001
0100
,
0001
0000
0010
0100
,
0010
0100
1000
0001
,
0010
0000
0001
0100
,
0001
0100
0010
0000
,
1000
0000
0002
0000
,
0003
0010
2000
0000
,
3000
0010
0002
0000
,
0003
0100
2000
0000
,
3000
0100
0002
0003
,
2000
3000
0002
0003
,
2000
3000
0010
0010
,
0100
0100
0020
0000
,
0000
0030
1000
1000
,
0001
0001
0010
0001
,
0100
0001
0010
0010
,
0100
0100
1000
0010
,
0100
0001
1000
1000
,
0100
0100
0010
0001
,
0010
0001
0100
0100
,
0010
0010
1000
0001
,
1001
0000
2000
0100
,
0100
3100
0010
0001
,
0010
0001
0002
0100
,
0100
0103
0010
1000
,
0010
1000
0100
0100
,
0010
0001
0010
0100
,
1000
0001
1000
0010
,
0100
0001
0020
0000
,
0130
0000
1000
0001
,
0010
0001
1000
0010
,
1000
0000
0100
0010
,
0100
1000
0001
1000
,
0010
0000
0100
0001
,
0100
0001
0010
0001
,
0010
0000
0100
1000
,
0010
0100
0010
0000
,
0100
0000
0001
0010
,
0100
0010
0001
0000
,
0101
0000
1000
0010
,
0100
0010
1000
0000
,
1100
0000
1000
0010
,
0001
0010
1000
0000
,
1001
0000
1000
0100
,
0010
0001
0100
0010
,
0100
0000
0002
0000
,
0000
0000
0000
0000
,
0003
0000
2000
0000
,
0000
0000
0000
0000
,
3000
0000
0020
0000
,
0000
0000
0000
0000
,
0030
0000
0200
0000
,
0000
0000
0000
0000
,
0300
0000
1000
0000
,
1000
0000
1000
0000
,
0010
0000
0001
0000
,
0001
0000
0001
0000
,
0010
0000
0100
0000
,
0100
0000
0100
0000
,
1000
0000
0100
0000
,
0100
0000
0100
0000
,
0001
0000
1000
0000
,
0100
0000
0010
0001
,
0010
0000
0001
0000
,
0100
0000
0010
1000
,
0010
0000
0100
0100
,
0001
0001
1000
0001
,
1000
0000
0001
0010
,
0100
1000
2002
0000
,
0000
3003
0010
0100
,
0010
0100
0001
0010
,
0100
1000
0100
0010
,
0100
0010
0001
0100
,
0010
1000
0001
0000
,
1000
0000
0010
0100
,
0010
0000
1000
0100
,
0010
0001
1001
1001
,
0100
0000
0000
0000
,
0010
0001
0010
0001
,
0100
0010
1000
0010
,
0100
0001
0100
0001
,
1000
0100
0010
0001
,
0100
0010
1000
0010
,
0100
0001
1000
0001
,
0010
0001
0010
0100
,
1000
0010
0110
0000
,
1000
0100
0001
0100
,
1000
0010
0100
0010
,
1000
0010
0001
0010
,
1000
0100
0010
0100
,
1000
1000
0001
0001
,
1000
0010
1000
0010
,
0001
0010
0100
1000
,
0010
0100
0110
0000
,
2000
0000
0000
0000
,
0000
0000
3000
0000
,
0002
0000
0000
0000
,
0000
0000
0003
0000
,
0200
0000
0000
0000
,
0000
0000
0300
0000
,
0020
0000
0000
0000
,
0000
0000
0030
0000
,
1001
0000
0000
0000
;

//---------------dance-single - ----------------
#NOTES:
     dance-single:
     :
     Medium:
     8:
     0.377207,0.376080,0.084158,0.194615,0.000000,449.000000,16.000000,37.000000,0.000000,0.000000,0.000000,0.377207,0.376080,0.084158,0.194615,0.000000,449.000000,16.000000,37.000000,0.000000,0.000000,0.000000:
0000
0000
0000
0000
,
0000
0000
0000
0000
,
0000
0000
0000
0000
,
0000
0000
0000
0000
,
0000
0000
0000
0000
,
0000
0000
0000
0000
,
0000
0000
0000
0000
,
0000
0000
0000
0000
,
0000
0000
0000
0000
,
1000
0100
0010
0001
,
0200
0010
0310
0000
,
0001
0010
0100
1000
,
0010
0000
0100
0010
0100
0000
0000
0000
,
0001
1000
0100
0001
,
1000
0001
1000
0000
,
0010
0100
0010
0100
,
0220
0000
0000
0330
,
1000
0100
1000
0001
,
0100
0000
0001
1000
0001
0000
0000
0000
,
1000
0010
1000
0001
,
0010
0000
0100
0010
0100
0000
0000
0000
,
0001
0001
0100
0100
,
0010
1000
0100
0000
,
1000
0010
0100
0010
,
1001
0110
0100
0000
,
0000
0000
1000
0100
,
1000
0000
0001
1000
0000
0001
0000
1000
,
0000
0001
0010
0000
0100
0000
0010
0000
,
0001
0000
0100
0010
0000
0100
0000
0010
,
0000
0100
0010
0000
1000
0000
0100
0000
,
1000
0000
0010
0100
0000
0001
0000
0010
,
0000
0001
0100
0001
0100
0000
1000
0000
,
0100
0000
1000
0001
0000
0001
1000
0000
,
0010
0100
0002
0010
,
1000
0013
2000
0010
,
0001
3010
0200
0010
,
1000
0310
0020
0001
,
0100
0000
0031
0000
1000
0100
1000
0000
,
0001
0000
0001
0000
1000
0010
1000
0000
,
0001
0000
0001
0000
0100
0010
0100
0010
,
0100
0010
0100
0010
0000
0000
0000
0000
,
0000
0000
0000
0000
1000
0000
0001
0010
,
0001
0000
0100
0010
0000
0000
1000
0000
,
0001
0000
1000
0000
0100
0000
0010
0001
,
0010
0000
0100
1000
0000
0000
0010
0000
,
0100
0000
0010
0000
1000
0000
0001
0100
,
0010
0000
1000
0001
0000
0000
0100
0000
,
0010
0000
0100
0000
0001
0000
0010
0100
,
0010
0000
0001
1000
0000
1000
0001
0000
,
0100
0010
0100
0000
2000
0000
0100
0000
,
0100
0000
3010
0010
0000
0100
0010
0000
,
0100
0001
0020
0001
,
0001
0000
0031
1000
0000
0010
0100
0000
,
0001
1000
0001
0000
0200
0000
0010
0000
,
0010
0000
0310
1000
0000
1000
0100
0000
,
0010
0001
2000
0100
,
0100
3100
0010
0001
,
1000
0000
0101
0100
,
0010
0100
0001
0010
,
0100
1000
1100
1000
,
0100
1000
0010
0100
,
0010
0100
1001
0010
,
0100
0001
0010
0001
,
0100
0010
1010
1000
,
0100
0000
0010
0010
0000
0000
0100
0000
,
0100
0000
0100
0000
1000
0000
0001
0010
,
0001
0000
0100
0010
0000
0100
0010
0000
,
1000
0000
0001
0000
1000
0000
0100
0010
,
0100
0000
1000
0001
0000
1000
0001
0000
,
0010
0000
0001
0000
0100
0000
0010
1000
,
0001
0000
1000
0100
0000
0010
0001
0000
,
0100
0000
0010
0000
0100
0000
0001
0010
,
0001
0000
0100
0010
0000
1000
0001
0000
,
0010
0000
2200
0000
,
0000
0000
3300
0000
,
0001
0000
0202
0000
,
0000
0000
0303
0000
,
0000
0000
2020
0000
,
0000
0000
3030
0000
,
0001
0000
0022
0000
,
0000
0033
2002
0000
,
0000
0000
3003
0000
1000
0000
0000
1000
,
0000
1000
0002
0000
,
0023
0000
0000
0000
0130
0000
0000
0100
,
0000
0100
0200
0000
,
0320
0000
0000
0000
0031
0000
0000
0100
,
0000
0010
2000
0000
,
3002
0000
0000
0000
1003
0000
0000
0010
,
0000
0100
0002
0000
,
2003
3100
0001
0001
,
1000
1000
0001
1000
,
0001
0000
0010
0010
,
0100
0100
0010
0100
,
0010
0000
1000
0100
,
0010
0001
0100
0010
,
0100
0001
0010
0100
,
1000
0010
0220
0000
,
0000
0330
1000
0100
,
0010
0000
0100
0000
1000
0000
0001
0010
,
0001
0100
0010
1000
,
0001
0000
1000
0000
0010
0000
0100
0010
,
0100
0001
0010
0000
,
0010
0000
0001
0000
0100
0000
0010
1000
,
0001
1000
0100
0010
,
0100
0010
0110
1001
,
0010
0000
0000
0000
,
1000
0000
0100
0000
1000
0000
0001
0100
,
0000
0010
0000
0100
0000
0001
0010
0001
,
0010
0000
0100
0000
1000
0000
0001
1000
,
0000
0010
0000
0100
0000
0010
1000
0010
,
1000
0000
0100
0000
1000
0000
0001
0100
,
0000
0001
0000
0010
0000
0001
0100
0001
,
0100
0000
1000
0000
0100
0000
0001
1000
,
0000
0010
0010
0010
,
1000
0000
0001
0010
0001
0000
0100
0010
,
0000
0100
0010
0000
1000
0000
0001
0000
,
0010
0000
0100
1000
0100
0000
0010
0001
,
0000
0010
0001
0000
0100
0000
0010
0000
,
1000
0000
0001
0010
0100
0000
0010
0001
,
0000
0010
0001
0000
0100
0000
0010
0000
,
1000
0000
0001
0100
0010
0000
1000
0001
,
0000
0010
0100
0000
1000
0000
0000
0000
,
0020
0000
0000
0000
,
0030
0000
0001
0000
,
0200
0000
0000
0000
,
0300
0000
1000
0000
,
0020
0000
2030
0000
,
3001
0000
0010
0000
,
0002
0000
0203
0000
,
0310
0000
0000
0000
,
1001
0000
0000
0000
;

//---------------dance-single - ----------------
#NOTES:
     dance-single:
     :
     Hard:
     12:
     0.482405,0.792398,0.120977,0.273513,0.021039,567.000000,23.000000,52.000000,20.000000,0.000000,0.000000,0.482405,0.792398,0.120977,0.273513,0.021039,567.000000,23.000000,52.000000,20.000000,0.000000,0.000000:
// measure 0
0000
0000
0000
0000
,  // measure 1
0000
0000
0000
0000
,  // measure 2
0000
0000
0000
0000
,  // measure 3
0000
0000
0000
0000
,  // measure 4
0000
0000
0000
0000
,  // measure 5
0000
0000
0000
0000
,  // measure 6
0000
0000
0000
0000
,  // measure 7
0000
0000
0000
0000
,  // measure 8
0000
0000
0000
0000
,  // measure 9
0100
0010
0100
0001
1000
0000
0100
0000
,  // measure 10
0020
0001
0031
0000
,  // measure 11
0001
0100
0010
0000
1000
0000
0001
0000
,  // measure 12
2000
0010
3010
0000
,  // measure 13
0100
0000
0001
0010
0001
0000
0100
0000
,  // measure 14
0010
0000
1000
0100
0010
0000
0100
0000
,  // measure 15
0010
0001
0100
0010
,  // measure 16
1002
1000
1000
1003
,  // measure 17
1000
0010
1000
0100
1000
0010
1000
0000
,  // measure 18
0100
0000
0010
0001
0010
0000
0100
0000
,  // measure 19
0010
0001
0100
0001
0010
0001
0100
0000
,  // measure 20
0010
0000
1000
0001
1000
0000
0010
0000
,  // measure 21
1000
0000
0001
0010
1000
0000
0001
0000
,  // measure 22
0100
0000
0010
1000
0001
0000
1000
0000
,  // measure 23
0100
0010
0001
0100
,  // measure 24
0220
0330
0000
0000
0000
0000
0000
0000
2002
3003
0000
0000
0000
0000
0000
0000
0200
0000
0000
0000
0000
0000
0000
0000
0000
0000
0000
0000
0000
0000
0000
0000
,  // measure 25
0000
0300
0010
0010
,  // measure 26
1000
0000
0001
0100
0000
0010
0000
0100
,  // measure 27
0000
0001
0010
0100
1000
0000
1000
0000
,  // measure 28
0001
0000
0010
0001
0000
0100
0000
0010
,  // measure 29
0000
1000
0100
0010
0100
0000
0100
0000
,  // measure 30
0010
0000
0001
0100
0000
0010
0000
1000
,  // measure 31
0000
0001
0100
0010
0100
0000
0100
0000
,  // measure 32
0001
0000
0010
0002
0000
0000
0100
0000
,  // measure 33
0010
0000
0103
0000
1000
0000
0100
0001
,  // measure 34
0010
0000
0000
0001
0000
0000
0100
0000
0001
0000
0000
0000
1000
0000
0100
0000
,  // measure 35
1000
0000
0000
0010
0000
0000
0100
0000
0001
0000
0000
0000
1000
0000
0100
0000
,  // measure 36
1000
0000
0000
0010
0000
0000
0100
0000
0001
0000
0000
0000
1000
0000
0100
0000
,  // measure 37
0001
0000
0000
1000
0000
0000
0100
0000
0010
0000
0001
0000
0010
0000
0001
0000
,  // measure 38
1000
0010
1000
0010
0100
0001
0100
0001
,  // measure 39
1000
0100
1000
0100
0010
0001
0100
0010
,  // measure 40
1000
0100
0010
0100
0020
0000
0000
0000
,  // measure 41
0030
0000
1001
0000
1100
0000
0001
0100
,  // measure 42
0001
0000
0010
0100
0000
0100
1000
0000
,  // measure 43
0010
0100
0001
1000
0100
0000
0010
0001
,  // measure 44
0010
0000
0100
1000
0000
1000
0001
0000
,  // measure 45
1000
0100
0001
0100
1000
0000
0010
0100
,  // measure 46
0001
0000
0010
0001
0000
0100
0010
0000
,  // measure 47
1000
0100
0010
0001
0100
0000
0010
1000
,  // measure 48
0001
0000
1000
0100
0000
0001
0100
0000
,  // measure 49
0010
0100
0010
0000
0110
0000
0000
0000
2001
0000
0000
0000
0100
0000
0000
0000
,  // measure 50
0010
0000
3100
1000
0000
0010
0100
0000
,  // measure 51
0001
0010
0100
1000
0002
0000
0100
0000
,  // measure 52
0010
0000
0103
0001
0000
1000
0100
0000
,  // measure 53
0001
0100
1000
0010
2000
0000
0100
0000
,  // measure 54
0010
0000
3100
0010
0000
0010
0001
0000
,  // measure 55
0100
0010
1000
0001
0100
0000
0010
1000
,  // measure 56
0001
0000
0010
0100
0000
0010
0100
0000
,  // measure 57
0010
0000
1200
0010
,  // measure 58
0001
0000
0310
0001
0000
0100
0000
0010
,  // measure 59
0000
1000
0001
0000
0102
0000
0010
0000
,  // measure 60
0100
0000
1003
0100
0000
0001
0000
0100
,  // measure 61
0000
1000
0100
0000
0120
0000
0001
0000
,  // measure 62
0100
0000
0031
0100
0000
0010
0000
1000
,  // measure 63
0000
0001
0100
0000
1200
0000
0010
0000
,  // measure 64
1000
0300
0010
0100
0000
0100
0001
0000
,  // measure 65
1100
0000
0101
0000
1001
0000
0100
0010
,  // measure 66
1000
0000
0100
0010
0000
0010
0001
0000
,  // measure 67
0100
0010
1000
0001
0010
0000
0100
1000
,  // measure 68
0001
0000
0100
0001
0000
0001
1000
0000
,  // measure 69
0100
0001
0100
1000
0100
0000
0010
0001
,  // measure 70
0100
0000
0010
1000
0000
1000
0100
0000
,  // measure 71
0010
0001
1000
0001
0010
0000
0100
1000
,  // measure 72
0001
0000
0100
0010
0000
0010
1000
0000
,  // measure 73
0001
0110
2002
0000
,  // measure 74
0000
0000
0000
0000
,  // measure 75
0000
3000
0200
0000
,  // measure 76
0000
0000
0000
0000
,  // measure 77
0000
0003
0020
0000
,  // measure 78
0000
0000
0000
0000
,  // measure 79
0000
0300
2000
0000
,  // measure 80
0000
0000
0000
0000
,  // measure 81
0000
0000
3030
0000
0002
0000
0000
0100
,  // measure 82
0000
0013
2000
3000
,  // measure 83
0002
0000
0003
0000
2000
0000
0000
0010
,  // measure 84
0000
3100
0020
0030
,  // measure 85
0200
0000
0300
0000
0002
0000
0000
0010
,  // measure 86
0000
0000
0100
0003
2000
0000
3000
0000
,  // measure 87
0200
0000
0300
0000
0020
0000
0000
0001
,  // measure 88
0000
0130
0002
0000
,  // measure 89
2000
3003
1000
0100
,  // measure 90
1000
0100
0010
0001
,  // measure 91
0100
0M00
0001
0100
,  // measure 92
0001
0000
0100
0000
0010
0000
1000
0100
,  // measure 93
1000
0000
M000
0000
0001
0000
0100
0010
,  // measure 94
0100
0000
0001
0000
0010
0000
0100
1000
,  // measure 95
0100
0010
0001
0100
,  // measure 96
1000
0100
0120
0001
,  // measure 97
1000
0000
0031
0000
0100
0010
1000
0010
,  // measure 98
0100
0010
1000
0100
0010
0001
0100
0001
,  // measure 99
2000
0000
3100
0000
0010
0001
0010
0100
,  // measure 100
0010
1000
0010
0100
0001
1000
0100
0001
,  // measure 101
0020
0000
0031
0000
2000
0000
0001
0001
,  // measure 102
0000
0000
3100
0000
0010
0000
0001
0100
,  // measure 103
0010
0000
1000
0000
0001
0010
0100
1000
,  // measure 104
0010
0000
0000
0000
0100
0000
0000
0000
0001
0000
0000
0000
1000
0000
0000
0000
0220
0330
0000
0000
0000
0000
0000
0000
2002
3003
0000
0000
0000
0000
0000
0000
,  // measure 105
1000
0000
0001
0100
0001
0100
0001
0000
1000
0100
1000
0000
1001
0000
0000
0000
,  // measure 106
2100
0000
0010
0000
3100
0000
1000
0010
,  // measure 107
0000
0100
0000
0001
0000
1000
0100
0001
,  // measure 108
0200
0000
0010
0000
0301
0000
0001
0010
,  // measure 109
0000
0100
0000
1000
0000
0010
0100
0001
,  // measure 110
2000
0000
0100
0000
3010
0000
0001
0010
,  // measure 111
0000
0100
0000
0010
0000
0001
0100
0010
,  // measure 112
0200
0000
0010
0000
0010
0300
1000
0001
,  // measure 113
0000
0010
0100
0010
,  // measure 114
0001
0100
0010
0100
0001
1000
0100
1000
,  // measure 115
0001
0100
0010
1000
0001
0010
0001
0001
,  // measure 116
0100
0010
1000
0010
0100
0010
1000
0100
,  // measure 117
0010
0001
0100
0010
0100
0001
0010
0010
,  // measure 118
0100
1000
0001
0100
1000
0001
0100
1000
,  // measure 119
0100
1000
0001
1000
0100
0010
0001
0001
,  // measure 120
1000
0010
0100
0010
1000
0100
0010
0001
,  // measure 121
0000
0001
0100
0000
0010
0000
1001
0000
,  // measure 122
0220
0000
0000
0300
,  // measure 123
2000
0000
0000
0030
,  // measure 124
0002
0000
0000
3000
,  // measure 125
0020
0000
0000
0033
,  // measure 126
0100
0000
1000
0000
0010
0000
1000
0100
,  // measure 127
0000
0010
0000
0001
0000
0010
0100
0000
,  // measure 128
1000
0000
0001
0000
0100
0000
0010
1000
,  // measure 129
0002
0000
0000
0003
,  // measure 130
M00M
M00M
M00M
M00M
M00M
M00M
M00M
M00M
,  // measure 131
M00M
0000
0000
0000
;
