#TITLE:Go Berzerk;
#SUBTITLE:;
#ARTIST:Scott Brown;
#TITLETRANSLIT:;
#SUBTITLETRANSLIT:;
#ARTISTTRANSLIT:;
#GENRE:;
#CREDIT:;
#BANNER:go-berzerk-bn.png;
#BACKGROUND:go-berzerk-bg.png;
#LYRICSPATH:;
#CDTITLE:arsa-cd.png;
#MUSIC:Go Berzerk.ogg;
#OFFSET:-0.456000;
#SAMPLESTART:67.432999;
#SAMPLELENGTH:12.000000;
#SELECTABLE:YES;
#BPMS:0.000000=172.000000
;
#STOPS:
;
#BGCHANGES:;
#KEYSOUNDS:;
#ATTACKS:;

//---------------dance-single - ----------------
#NOTES:
     dance-single:
     :
     Beginner:
     4:
     0.176501,0.204497,0.017041,0.034083,0.000000,139.000000,2.000000,4.000000,0.000000,0.000000,0.000000,0.176501,0.204497,0.017041,0.034083,0.000000,139.000000,2.000000,4.000000,0.000000,0.000000,0.000000:
0000
0000
0000
0000
,
0000
0000
0000
0000
,
0000
0000
0000
0000
,
0000
0000
0000
0000
,
1001
0000
0000
0000
,
0100
0000
0000
0000
,
0010
0000
0000
0000
,
0100
0000
0000
0000
,
0001
0000
0001
0000
,
0001
0000
0000
0000
,
1000
0000
1000
0000
,
1000
0000
0000
0000
,
0001
0000
1000
0000
,
0001
0000
0000
0000
,
1000
0000
0001
0000
,
1000
0000
0000
0000
,
0010
0000
0100
0000
,
0010
0000
0000
0000
,
0100
0000
0010
0000
,
0100
0000
0000
0000
,
0001
0000
0010
0000
,
0100
0000
0000
0000
,
1000
0000
0010
0000
,
0100
0000
0000
0000
,
0100
0000
0100
0000
,
0100
0000
0100
0000
,
0010
0000
0010
0000
,
0010
0000
0010
0000
,
0001
0000
0001
0000
,
1000
0000
1000
0000
,
0001
0000
1000
0000
,
0010
0000
0000
0000
,
0100
0000
0001
0000
,
0100
0000
0001
0000
,
0010
0000
0001
0000
,
0010
0000
0001
0000
,
1000
0000
0100
0000
,
1000
0000
0100
0000
,
1000
0000
0010
0000
,
1000
0000
0010
0000
,
0100
0000
0001
0001
,
0000
0000
1000
1000
,
0000
0000
0010
0010
,
0000
0000
0100
0100
,
0000
0000
0001
0001
,
0000
0000
0010
0010
,
0010
0000
0100
0000
,
0010
0000
0000
0000
,
1000
0000
1000
0000
,
1000
0000
1000
0000
,
0001
0000
0001
0000
,
0001
0000
0001
0000
,
1000
0000
1000
0000
,
1000
0000
1000
0000
,
0001
0000
0001
0000
,
0001
0000
0001
0000
,
0010
0000
0010
0000
,
0100
0000
0100
0000
,
0010
0000
0010
0000
,
0100
0000
0100
0000
,
0010
0000
0100
0000
,
0010
0000
0100
0000
,
0001
0000
1000
0000
,
0010
0000
0000
0000
,
1000
1000
1000
0000
,
0001
0000
0010
0000
,
0001
0001
0001
0000
,
2000
0000
0000
3000
,
0001
0001
0001
0000
,
0010
0000
0100
0000
,
1000
1000
1000
0000
,
0020
0000
0000
0030
,
0100
0000
0100
0000
,
0010
0000
0010
0000
,
1000
0000
1000
0000
,
0001
0000
0001
0000
,
0010
0000
0100
0000
,
1000
0000
0001
0000
,
0100
0000
0010
0000
,
2002
0000
0000
0000
,
3003
0000
0000
0000
;

//---------------dance-single - ----------------
#NOTES:
     dance-single:
     :
     Easy:
     9:
     0.433339,0.408994,0.204497,0.144852,0.000000,315.000000,24.000000,17.000000,0.000000,0.000000,0.000000,0.433339,0.408994,0.204497,0.144852,0.000000,315.000000,24.000000,17.000000,0.000000,0.000000,0.000000:
0000
0000
0000
0000
,
0000
0000
0000
0000
,
0000
0000
0000
0000
,
0000
0000
0000
0000
,
1000
0000
0001
0000
,
0010
0000
0100
0000
,
1000
0000
0001
0000
,
2002
0000
0000
3003
,
0100
0100
0010
0010
,
1000
0001
0010
0010
,
0001
0001
0100
0100
,
0010
1000
0001
0001
,
1000
1000
0010
0010
,
1000
0100
0010
0001
,
1000
1000
0001
0001
,
0020
0000
0000
0030
,
0100
1100
0001
0001
,
0100
0101
1000
1000
,
0010
1010
0001
0001
,
0010
0000
0011
0000
1000
0010
1000
0000
,
0001
0010
0100
0010
,
0001
0100
0010
1000
,
0001
1000
0010
0100
,
0020
0000
0000
0030
,
1000
0100
1000
0000
0100
1000
0100
0000
,
1000
0001
2001
3100
,
0001
0010
0001
0000
0010
0001
0010
0000
,
0001
1000
1002
0013
,
1000
0010
1000
0000
0001
0010
0001
0000
,
0100
0010
0120
1030
,
0001
0010
0100
0000
1000
0010
0010
0000
,
2002
0000
0000
3003
,
1000
0010
1000
0000
0100
1000
0100
0000
,
0010
0001
0100
0001
,
0010
0001
0010
0000
0001
0100
0001
0000
,
0010
1000
0100
0010
,
0001
1000
0001
0000
0010
0100
0010
0000
,
0001
0100
0010
1000
,
0100
1000
0100
0000
1000
0100
1000
0000
,
0010
0100
0001
0010
,
0001
0100
0000
0010
0000
0100
0000
0001
,
0000
0010
0000
0001
0000
0100
0010
0000
,
0010
1000
0000
0100
0000
1000
0000
0001
,
0000
1000
0000
0010
0000
0100
0001
0000
,
0001
0010
0000
0001
0000
0100
0000
0010
,
0000
1000
0000
0100
0000
1000
0010
0000
,
0010
0100
0001
1000
,
2002
0000
0000
3003
,
1000
1010
1000
1010
,
1000
0000
1010
0000
1000
0100
0010
0000
,
0001
0011
0001
0011
,
0001
0000
0011
0000
0001
0100
0010
0000
,
1000
1001
0001
1001
,
1000
0000
1001
0000
0001
1000
0010
0000
,
0100
0110
0010
0110
,
0100
0000
0110
0000
0010
1000
0001
0000
,
0010
0001
0010
0000
0001
0010
0001
0000
,
0100
0010
1000
0001
,
1000
0010
1000
0000
0010
1000
0010
0000
,
1000
0100
0010
0001
,
0100
0010
0100
0000
0001
1000
0001
0000
,
0010
0001
0100
0010
,
1000
0001
1000
0000
0010
0100
0010
0000
,
2002
0000
0000
3003
,
1000
0100
0010
0000
0100
0000
0100
0000
,
0001
0100
0010
0000
0100
0000
0100
0000
,
1000
0100
0010
0000
0100
0000
0100
0000
,
0020
0000
0000
0030
,
0001
1000
0010
0000
1000
0000
1000
0000
,
1000
0001
0010
0000
0001
0000
0001
0000
,
0001
1000
0010
0000
0100
0000
0010
0000
,
0020
0000
0000
0030
,
1000
0100
0001
0010
,
0001
0000
0100
0000
0010
1000
0010
1000
,
0010
1000
0010
0100
,
0001
0000
0010
0000
0001
0100
0001
0100
,
0001
1000
0100
1000
,
0001
0000
0010
0000
0100
0010
0100
0010
,
0100
0010
0001
1000
,
2002
0000
0000
0000
,
3003
0000
0000
0000
;

//---------------dance-single - ----------------
#NOTES:
     dance-single:
     :
     Medium:
     12:
     0.620795,0.545326,0.110769,0.204497,0.076686,473.000000,13.000000,24.000000,0.000000,0.000000,0.000000,0.620795,0.545326,0.110769,0.204497,0.076686,473.000000,13.000000,24.000000,0.000000,0.000000,0.000000:
0000
0000
0000
0000
,
0000
0000
0000
0000
,
0000
0000
0000
0000
,
0000
0000
0000
0000
,
1000
0100
1000
0010
,
0100
0001
0010
0001
,
0100
0010
1000
0001
,
2002
0000
0000
3003
,
1000
0010
0100
0000
0001
0010
0100
0000
,
1000
0000
0010
0000
0100
0000
0000
0000
0001
0000
1000
0001
0000
0000
0000
0000
,
0100
0010
1000
0000
0100
0010
0001
0000
,
0100
0000
0010
0000
1000
0000
0000
0000
0001
0000
1000
0001
0000
0000
0000
0000
,
1000
0100
0010
0000
0001
0100
0010
0000
,
1000
0000
0100
0000
0010
0000
0000
0000
0001
0000
1000
0001
0000
0000
0000
0000
,
0100
0010
1000
0000
0010
0100
0001
0000
,
0010
0100
1000
0010
0100
0001
0010
0000
,
0100
1000
0100
0000
0010
0000
0011
0000
,
0001
0100
0001
0000
0010
0000
1010
0000
,
0100
0001
1000
0000
0100
0000
0110
0000
,
0010
0001
1000
0000
0010
0000
0110
0000
,
0010
0000
1000
0000
0100
0000
1000
0000
0010
0000
0100
0010
0000
0000
0000
0000
,
0010
0000
0001
0000
0100
0000
0001
0000
0010
0000
0100
0010
0000
0000
0000
0000
,
0001
0100
1000
0100
0001
0010
0100
0000
,
2002
0000
0000
3003
,
1000
0010
1000
0010
1000
0010
1000
0010
,
1000
0100
1000
0100
1000
0020
0000
0030
,
0001
0100
0001
0100
0001
0100
0001
0100
,
0001
0010
0001
0010
0001
2000
0000
3000
,
0010
0100
0010
0100
0001
1000
0001
1000
,
0010
0100
0010
0100
0001
2000
0000
3000
,
0001
0010
0100
0000
1000
0010
0010
0000
,
2002
0000
0000
3003
,
1000
0010
1000
0001
1000
0100
1000
0001
,
1000
0010
0100
0001
0010
0020
0000
0030
,
0001
0100
0001
1000
0001
0010
0001
1000
,
0001
0100
0010
1000
0100
0020
0000
0030
,
0001
0100
0010
0100
1000
0100
0010
0100
,
0001
0100
0010
1000
0001
0020
0000
0030
,
1000
0100
0001
0100
1000
0010
0001
0010
,
1000
0100
0010
0001
0100
0010
1000
0001
,
1000
0000
0010
0000
1000
0000
0010
0000
0100
0000
0001
0100
0000
0000
0000
0000
,
0001
0000
0010
0000
0001
0000
0100
0000
0010
0000
1000
0001
0000
0000
0000
0000
,
1000
0000
0010
0000
0100
0000
0001
0000
0010
0000
0100
0010
0000
0000
0000
0000
,
0001
0000
0100
0000
0010
0000
0100
0000
0001
0000
0100
0010
0000
0000
0000
0000
,
1000
0000
0100
0000
0010
0000
0001
0000
1000
0000
0001
1000
0000
0000
0000
0000
,
0001
0000
0010
0000
0001
0000
0100
0000
0010
0000
1000
0100
0000
0000
0000
0000
,
1000
0001
0010
0000
0100
0010
0010
0000
,
2002
0000
0000
3003
,
1000
0100
1000
0001
0100
0001
1000
0100
,
1000
0000
0001
0000
0100
0000
0001
0000
1000
0000
0001
1000
0000
0000
0000
0000
,
0001
0010
0001
1000
0010
1000
0001
0010
,
0001
0000
1000
0000
0010
0000
1000
0000
0001
0000
1000
0001
0000
0000
0000
0000
,
1000
0100
0010
0001
0100
0010
1000
0100
,
0010
0000
0001
0000
0100
0000
0010
0000
1000
0000
0001
1000
0000
0000
0000
0000
,
0001
0100
0010
1000
0100
0010
0001
0100
,
0010
0000
1000
0000
0100
0000
0010
0000
0001
0000
1000
0001
0000
0000
0000
0000
,
1000
0010
0100
0001
1000
0010
0100
0001
,
1000
0000
0100
0000
0010
0000
0001
0000
0100
0000
0010
0100
0000
0000
0000
0000
,
0001
0010
0100
1000
0001
0010
0100
1000
,
0001
0000
0100
0000
0010
0000
1000
0000
0001
0000
0100
0010
0000
0000
0000
0000
,
1000
0100
1000
0100
0001
0100
0001
0100
,
1000
0000
0100
0000
0010
0000
0001
0000
0100
0000
0010
0100
0000
0000
0000
0000
,
0001
0010
0100
0100
1000
0010
0010
0100
,
2002
0000
0000
3003
,
1000
0100
0001
0000
1200
0000
0310
0000
,
0001
0100
1000
0000
0201
0000
0310
0000
,
1000
0010
0100
0000
1002
0000
0103
0000
,
0010
0100
0010
0100
0010
0100
0010
0000
,
0001
0100
0010
1000
0200
0000
0310
0000
,
1000
0100
0010
0001
0200
0000
0310
0000
,
0001
1000
0010
1000
0002
0000
0013
0000
,
0100
0010
0100
0010
0100
0010
0100
0000
,
0001
1000
0100
1000
0001
1000
0100
1000
,
0001
1000
0100
1000
0010
0100
0100
0000
,
1000
0001
0010
0001
1000
0001
0010
0001
,
1000
0001
0010
0001
0100
0010
0010
0000
,
1000
0001
0010
0001
1000
0001
0100
0001
,
1000
0100
0010
0100
1000
0010
0010
0000
,
0100
0001
0010
0000
0100
0010
0010
0000
,
2002
0000
0000
0000
,
3003
0000
0000
0000
;

//---------------dance-single - ----------------
#NOTES:
     dance-single:
     :
     Hard:
     14:
     0.742520,0.817989,0.076686,0.178935,0.345089,580.000000,9.000000,21.000000,0.000000,0.000000,0.000000,0.742520,0.817989,0.076686,0.178935,0.345089,580.000000,9.000000,21.000000,0.000000,0.000000,0.000000:
0000
0000
0000
0000
,
0000
0000
0000
0000
,
0000
0000
0000
0000
,
0000
0000
0000
0000
,
1000
0100
1000
0000
0010
1000
0010
0000
,
0100
0000
0001
0000
0010
0000
0100
0000
1000
0000
1000
0010
0000
0000
0000
0000
,
1000
0100
0001
0000
0001
0100
1000
0000
,
2002
0000
0000
3003
,
1000
0010
0100
0010
1000
0100
0010
0001
,
0100
0000
0010
0000
0100
0000
0001
0000
0010
0000
0001
0100
0000
0000
0000
0000
,
0001
0010
0001
0100
0010
1000
0100
1000
,
0010
0000
0100
0000
0010
0000
0100
0000
0001
0000
1000
0001
0000
0000
0000
0000
,
0100
0010
1000
0100
0010
0100
1000
0010
,
0100
0000
0001
0000
1000
0000
0001
0000
0100
0000
0010
1000
0000
0000
0000
0000
,
0001
0010
0001
0100
1000
0100
0001
0010
,
0100
0000
1000
0000
0010
0000
1000
0000
0100
0000
1000
0010
0000
0000
0000
0000
,
1000
0000
0100
0000
0001
0000
0100
0000
1000
0000
0010
0100
0000
0100
0000
0000
,
0001
0000
0010
0000
1000
0000
0010
0000
0001
0000
0100
0010
0000
0010
0000
0000
,
1000
0000
0100
0000
0010
0000
0001
0000
0100
0000
0010
1000
0000
1000
0000
0000
,
0001
0000
0010
0000
0100
0000
1000
0000
0100
0000
0010
0001
0000
0001
0000
0000
,
1000
0100
0010
0100
0001
0100
0010
0100
,
1000
0010
0100
0001
0010
1000
0001
0100
,
0010
1000
0001
0100
1000
0010
0100
0010
,
0020
0000
0000
0030
,
1000
0100
1000
0000
0001
0000
0000
0000
1000
0100
1000
0000
0001
0000
0000
0000
,
1000
0010
1000
0000
0100
0000
0010
0000
0002
0000
2000
0000
3003
0000
0000
0000
,
0001
0100
0001
0000
1000
0000
0000
0000
0001
0100
0001
0000
1000
0000
0000
0000
,
0001
0100
0001
0000
0010
0000
0100
0000
2000
0000
0002
0000
3003
0000
0000
0000
,
1000
0010
0100
0000
0001
0000
0000
0000
1000
0010
0100
0000
0001
0000
0000
0000
,
0001
0010
0100
0000
1000
0000
0001
0000
2000
0000
0020
0000
3030
0000
0000
0000
,
0100
0001
1000
0000
0100
0000
0000
0000
0010
0000
0100
0000
0100
0000
0000
0000
,
2002
0000
0000
3003
,
1000
0010
1000
0000
0001
0000
1000
0000
0001
0010
0001
0000
1000
0000
0001
0000
,
1000
0010
1000
0000
0001
0000
1000
0000
0001
0000
0010
0000
0010
0000
0001
0000
,
0100
0010
0100
0000
0001
0000
1000
0000
0100
0010
0100
0000
1000
0000
0001
0000
,
0100
0010
0100
0000
0001
0000
1000
0000
0100
0000
0010
0001
0000
0001
0010
0000
,
0100
1000
0100
0000
0010
0000
0001
0000
1000
0100
1000
0000
0001
0000
0010
0000
,
0100
1000
0100
0000
0010
0000
0001
0000
0100
0000
0010
0000
0010
0000
1000
0000
,
0001
0010
0001
0000
1000
0000
0001
0000
1000
0010
1000
0000
0001
0000
1000
0000
,
0001
0010
0001
0000
1000
0000
0001
0000
1000
0000
0010
0100
0000
0100
0010
0000
,
1000
0000
0001
0000
0010
0000
0001
0000
0100
0000
0010
1000
0000
0001
0000
0000
,
1000
0000
0010
0000
0100
0000
0010
0000
1000
0000
0001
0010
0000
0100
0000
0000
,
0010
0000
0001
0000
0100
0000
0010
0000
1000
0000
0001
1000
0000
0010
0000
0000
,
1000
0000
0100
0000
0001
0000
0100
0000
1000
0000
0010
0100
0000
0001
0000
0000
,
1000
0000
0100
0000
0010
0000
1000
0000
0100
0000
0010
0001
0000
0100
0000
0000
,
0010
0000
1000
0000
0010
0000
0100
0000
0001
0000
0010
0001
0000
0100
0000
0000
,
1000
0100
1000
0000
0001
0000
0000
0000
0100
0000
0010
0000
0010
0000
0000
0000
,
2002
0000
0000
3003
,
1000
0100
0001
1000
0010
0001
1000
0100
,
0001
0000
1000
0000
0010
0000
0001
0000
0100
0000
0010
0100
0000
0000
0000
0000
,
0001
0010
1000
0001
0100
1000
0001
0010
,
1000
0000
0001
0000
0100
0000
1000
0000
0010
0000
0100
0010
0000
0010
0100
0000
,
1000
0001
0100
0001
1000
0100
1000
0001
,
0100
0000
0001
0000
1000
0000
0100
0000
1000
0000
0010
0100
0000
0000
0000
0000
,
0001
1000
0100
1000
0001
0100
0001
1000
,
0100
0010
0001
0100
0010
1000
0001
1000
,
0010
0010
0100
0001
1000
1000
0100
0010
,
0100
0100
1000
0001
0010
0001
0001
0001
,
0100
0100
0010
1000
0001
0001
1000
0010
,
0100
0100
0001
0010
0001
0100
0100
0100
,
0010
0010
1000
0001
1000
1000
0001
1000
,
0100
0100
0010
0001
0100
0010
0010
0010
,
1000
0100
0001
1000
0010
0001
0100
0010
,
2002
0000
0000
3003
,
1000
0100
0010
0001
0120
0000
1030
0000
,
0001
0010
0100
1000
0210
0000
0301
0000
,
1000
0100
0001
0100
1000
0010
0100
0001
,
0010
0001
0010
0001
0010
0001
0010
0001
0010
0001
0010
0001
0010
0001
0010
0001
,
1000
0010
0100
0010
2010
0000
3100
0000
,
0010
0001
0100
0001
0012
0000
0103
0000
,
0010
1000
0001
1000
0010
0100
0001
1000
,
0100
0010
0100
0010
0100
0010
0100
0010
0100
0010
0100
0010
0100
0010
0100
0010
,
0001
0100
0001
1000
0100
0010
1000
0100
,
0001
1000
0010
0100
0001
0010
0001
0100
,
0010
1000
0001
0010
0001
0100
0010
1000
,
0001
1000
0001
1000
0001
1000
0001
1000
0001
1000
0001
1000
0001
1000
0001
1000
,
0010
0100
0001
0010
0001
0100
0010
0001
,
0100
0010
1000
0001
0010
0001
0100
0010
,
1000
0100
0010
0000
0001
0000
0000
0000
0100
0000
0010
0000
0010
0000
0000
0000
,
2002
0000
0000
0000
,
3003
0000
0000
0000
;

//---------------dance-single - ----------------
#NOTES:
     dance-single:
     :
     Challenge:
     17:
     0.927541,0.920238,0.426036,0.272663,0.579409,680.000000,50.000000,32.000000,0.000000,0.000000,0.000000,0.927541,0.920238,0.426036,0.272663,0.579409,680.000000,50.000000,32.000000,0.000000,0.000000,0.000000:
// measure 0
0000
0000
0000
0000
,  // measure 1
0000
0000
0000
0000
,  // measure 2
0000
0000
0000
0000
,  // measure 3
0000
0000
0000
0000
,  // measure 4
1000
0100
0010
1000
0100
0010
0001
0100
,  // measure 5
0010
0000
0001
0000
0100
0000
0010
0000
0001
0000
1000
0001
0000
0000
0000
0000
,  // measure 6
1000
0010
0100
1000
0010
0100
0001
0010
,  // measure 7
2002
0000
0000
3003
,  // measure 8
1000
0100
1000
0000
1100
0000
1000
0000
0010
0000
0100
0000
0101
0000
0001
0000
,  // measure 9
0010
0000
0100
0000
0110
0000
0100
0000
1000
0000
0010
0100
0000
0100
0001
0000
,  // measure 10
0010
0001
0100
0000
1010
0000
0010
0000
1000
0000
0100
0000
1100
0000
1000
0000
,  // measure 11
0010
0000
0100
0000
0110
0000
0100
0000
0001
0000
0010
0001
0000
1000
0010
0000
,  // measure 12
0100
0001
1000
0000
1100
0000
1000
0000
0010
0000
0100
0000
0101
0000
0001
0000
,  // measure 13
0010
0000
0100
0000
0110
0000
0100
0000
1000
0000
0001
0010
0000
0010
0001
0000
,  // measure 14
0100
0010
1000
0000
1010
0000
1000
0000
0001
0000
0010
0000
0011
0000
0001
0000
,  // measure 15
1000
0100
1000
0100
1000
0001
1000
0001
1000
0010
1000
0010
0000
0010
0100
0000
,  // measure 16
1000
0000
0001
0000
0101
0000
0001
0000
1000
0000
0001
0010
0100
0010
0001
0000
,  // measure 17
0100
0000
0010
0000
1010
0000
0010
0000
0100
0000
0001
1000
0100
1000
0001
0000
,  // measure 18
0100
0000
0010
0000
0110
0000
0010
0000
0100
0000
0001
0010
0100
0010
0001
0000
,  // measure 19
0100
0000
0001
0000
1001
0000
1000
0000
0100
0000
0010
0001
0000
0001
0100
0000
,  // measure 20
0010
0000
1000
0000
1100
0000
1000
0000
0010
0000
0100
0001
0010
0001
0100
0000
,  // measure 21
0010
0000
0001
0000
0101
0000
0001
0000
0010
0000
0100
1000
0010
1000
0100
0000
,  // measure 22
1000
0000
0001
0000
1001
0000
0001
0000
1000
0000
0001
0010
0100
1000
0010
0000
,  // measure 23
1000
0001
1000
0001
1000
0001
1000
0001
1000
0001
1000
0001
1000
0001
1000
0001
,  // measure 24
1000
0100
0010
0000
0010
0000
0010
0000
1000
0100
0010
0000
0010
0000
0010
0000
,  // measure 25
0001
0100
0010
0000
0010
0000
0010
0000
1001
0000
0200
0000
0000
0000
0300
0000
,  // measure 26
0010
1000
0001
0000
0001
0000
0001
0000
0010
1000
0001
0000
0001
0000
0001
0000
,  // measure 27
0010
0001
1000
0000
1000
0000
1000
0000
1010
0000
0002
0000
0000
0000
0003
0000
,  // measure 28
1000
0100
0010
0000
0100
0000
0010
0000
0001
0100
0010
0000
0100
0000
0010
0000
,  // measure 29
1000
0001
0010
0000
0001
0000
1000
0000
0110
0000
2000
0000
0000
0000
3000
0000
,  // measure 30
0001
0010
0100
0000
0010
0000
0000
0000
0100
0000
0010
0000
0010
0000
0000
0000
,  // measure 31
2002
0000
0000
3003
,  // measure 32
1000
0100
0010
0000
0101
0000
0010
0000
1000
0001
0010
0000
1100
0000
0010
0000
,  // measure 33
0001
0100
0010
0000
1001
0000
0100
0000
0010
0000
2000
0000
0100
0000
3000
0000
,  // measure 34
0001
1000
0010
0000
1010
0000
1000
0000
0001
0010
0100
0000
0011
0000
0001
0000
,  // measure 35
0100
0010
1000
0000
1001
0000
1000
0000
0010
0000
0100
0001
0000
0010
0001
0000
,  // measure 36
0100
0010
1000
0000
1100
0000
0010
0000
0001
0100
0010
0000
0101
0000
0010
0000
,  // measure 37
1000
0001
0010
0000
1001
0000
0100
0000
0010
0000
0200
0000
0001
0000
0300
0000
,  // measure 38
0010
1000
0100
0000
0011
0000
0100
0000
0010
0001
0100
0000
1010
0000
0100
0000
,  // measure 39
0010
1000
0001
0000
0010
0000
0001
0000
0100
0000
1000
0010
0000
0001
0010
0000
,  // measure 40
0100
1000
0001
0000
1000
0000
0100
0000
0010
0000
0001
0100
0010
0100
0001
0000
,  // measure 41
1000
0100
0010
0000
0100
0000
1000
0000
0010
0000
0100
0001
1000
0001
0100
0000
,  // measure 42
0010
1000
0001
0000
0010
0000
0001
0000
0100
0000
1000
0100
0010
0100
1000
0000
,  // measure 43
0010
0100
0001
0000
0010
0000
0001
0000
0100
0000
0010
1000
0000
1000
0100
0000
,  // measure 44
0010
0001
1000
0000
0001
0000
0010
0000
0001
0000
0100
0010
1000
0010
0100
0000
,  // measure 45
0001
1000
0100
0000
1000
0000
0010
0000
0100
0000
0001
0010
0100
0010
0001
0000
,  // measure 46
0100
0010
1000
0000
0100
0000
0000
0000
0010
0000
0100
0000
0100
0000
0000
0000
,  // measure 47
2002
0000
0000
3003
,  // measure 48
1000
0100
0001
1000
0010
0001
0100
0010
,  // measure 49
1000
0000
0001
0000
0010
0000
1000
0000
0001
0000
0100
0010
0000
0010
1000
0000
,  // measure 50
0001
0010
1000
0001
0100
1000
0010
0100
,  // measure 51
0001
0000
1000
0000
0100
0000
0001
0000
1000
0000
0010
0100
0000
0001
1000
0000
,  // measure 52
1000
0100
0101
1000
0100
0101
1000
0010
,  // measure 53
0011
0000
1000
0000
0010
0000
0011
0000
1000
0000
0010
0100
0000
0001
1000
0000
,  // measure 54
0100
0010
0011
0001
0100
0101
0100
0010
,  // measure 55
1010
0000
1000
0000
0100
0000
1100
0000
0010
0000
0001
1000
0000
0010
0100
0000
,  // measure 56
0001
1000
0001
0000
0100
0000
0001
0000
1000
0001
1000
0000
0100
0000
1000
0000
,  // measure 57
0001
1000
0010
0000
0100
0000
0001
0000
0010
0000
0100
0000
0010
0000
0100
0000
,  // measure 58
1000
0001
0010
0000
0001
0000
1000
0000
0001
1000
0010
0000
1000
0000
0001
0000
,  // measure 59
1000
0100
0010
0000
0001
0000
0100
0000
0010
0000
1000
0001
0000
0010
0100
0000
,  // measure 60
0010
0001
0100
0000
0010
0000
0100
0000
0010
1000
0100
0000
0010
0000
0100
0000
,  // measure 61
0010
0001
1000
0000
0010
0000
1000
0000
0001
0000
0010
0000
0001
0000
0010
0000
,  // measure 62
0100
1000
0001
0000
0100
0000
0010
0000
1000
0001
0010
0000
0001
0000
0100
0000
,  // measure 63
2002
0000
0000
3003
,  // measure 64
1000
0001
0020
0031
0200
0001
0301
0010
,  // measure 65
0100
1000
0002
0013
2000
0010
3010
0100
,  // measure 66
0001
1000
0200
0310
0002
1000
1003
0010
,  // measure 67
1000
0100
1000
0100
0010
0001
0010
0001
0100
0010
0100
0010
1000
0001
1000
0001
,  // measure 68
0010
0001
0200
0310
2000
0100
3100
0010
,  // measure 69
0001
1000
0020
0130
0002
0010
0013
0100
,  // measure 70
1000
0001
2000
3010
0002
0010
0013
0100
,  // measure 71
1000
0010
0100
0010
1000
0010
0100
0010
1000
0100
0010
0100
1000
0010
0100
0001
,  // measure 72
0010
0001
0010
0000
0100
0000
1000
0000
2010
0000
0010
0000
3010
0000
0100
0000
,  // measure 73
0001
0010
0001
0000
0100
0000
0010
0000
1002
0000
1000
0000
1003
0000
0100
0000
,  // measure 74
0010
1000
0010
0000
0100
0000
0001
0000
0012
0000
0010
0000
0013
0000
0100
0000
,  // measure 75
1000
0010
0100
0001
0010
0100
1000
0010
0100
0001
0010
0100
1000
0010
0100
0001
,  // measure 76
1000
0100
1000
0000
0010
0000
0100
0000
0102
0000
0010
0000
0103
0000
0001
0000
,  // measure 77
0010
0001
0010
0000
0100
0000
1000
0000
2010
0000
0100
0000
3010
0000
1000
0000
,  // measure 78
0100
0010
0001
0000
1000
0000
0000
0000
0100
0000
0010
0000
0010
0000
0000
0000
,  // measure 79
2002
0000
0000
0000
,  // measure 80
3003
0000
0000
0000
;
