#TITLE:Gimme a Big Beat;
#SUBTITLE:;
#ARTIST:kors k;
#TITLETRANSLIT:;
#SUBTITLETRANSLIT:;
#ARTISTTRANSLIT:;
#GENRE:;
#CREDIT:;
#BANNER:gimme-a-big-beat-bn.png;
#BACKGROUND:gimme-a-big-beat-bg.png;
#LYRICSPATH:;
#CDTITLE:arsa-cd.png;
#MUSIC:Gimme a Big Beat.ogg;
#OFFSET:-0.616000;
#SAMPLESTART:30.181000;
#SAMPLELENGTH:12.000000;
#SELECTABLE:YES;
#BPMS:0.000000=138.000000
;
#STOPS:
;
#BGCHANGES:;
#KEYSOUNDS:;
#ATTACKS:;

//---------------dance-single - ----------------
#NOTES:
     dance-single:
     :
     Beginner:
     2:
     0.137650,0.165857,0.031592,0.031592,0.000000,114.000000,4.000000,4.000000,0.000000,0.000000,0.000000,0.137650,0.165857,0.031592,0.031592,0.000000,114.000000,4.000000,4.000000,0.000000,0.000000,0.000000:
0000
0000
0000
0000
,
1001
0000
0100
0000
,
0100
0000
0000
0000
,
0010
0000
0010
0000
,
0010
0000
0000
0000
,
1000
0000
0001
0000
,
1000
0000
0000
0000
,
0001
0000
1000
0000
,
0001
0000
0000
0000
,
0000
0100
0000
0100
,
0000
0100
0000
0100
,
0000
0010
0000
0010
,
0000
0010
0000
0010
,
0010
0000
0100
0000
,
0010
0000
0100
0000
,
0020
0000
0000
0000
,
0030
0000
0000
0000
,
1001
0000
0010
0000
,
0100
0000
0010
0000
,
1000
0000
0001
0000
,
1000
0000
0001
0000
,
0010
0000
0010
0000
,
0100
0000
0100
0000
,
0010
0000
0010
0000
,
0010
0000
0000
0000
,
1000
0000
0100
0000
,
1000
0000
0100
0000
,
0010
0000
0001
0000
,
0010
0000
0000
0000
,
0001
0000
0100
0000
,
0001
0000
0100
0000
,
0010
0000
1000
0000
,
0010
0000
0000
0000
,
0001
0000
0001
0000
,
0001
0000
0000
0000
,
1000
0000
1000
0000
,
1000
0000
0000
0000
,
0001
0000
1000
0000
,
0001
0000
0000
0000
,
1000
0000
0001
0000
,
1000
0000
0000
0000
,
0010
0000
0010
0000
,
0010
0000
0000
0000
,
0100
0000
0100
0000
,
0100
0000
0000
0000
,
1000
0000
1000
0000
,
1000
0000
0000
0000
,
0001
0000
0001
0000
,
0001
0000
0000
0000
,
0000
0100
0000
0100
,
0000
0010
0000
0010
,
0000
0100
0000
0010
,
0020
0000
0000
0030
,
1001
0000
0010
0010
,
0010
0000
0000
0000
,
1000
0000
0001
0001
,
0001
0000
0000
0000
,
0100
0000
0010
0000
,
1000
0000
0000
0000
,
0100
0000
0010
0000
,
0001
0000
0000
0000
,
0100
0000
0010
0010
,
0010
0000
0000
0000
,
0010
0000
0100
0100
,
0100
0000
0000
0000
,
1000
0000
0001
0000
,
0010
0000
0000
0000
,
0001
0000
1000
0000
,
0010
0000
0000
0000
,
2002
0000
0000
0000
,
3003
0000
0000
0000
;

//---------------dance-single - ----------------
#NOTES:
     dance-single:
     :
     Easy:
     5:
     0.239195,0.221143,0.102673,0.102673,0.000000,186.000000,13.000000,13.000000,0.000000,0.000000,0.000000,0.239195,0.221143,0.102673,0.102673,0.000000,186.000000,13.000000,13.000000,0.000000,0.000000,0.000000:
0000
0000
0000
0000
,
1001
0000
0100
0000
,
0100
0000
0001
0000
,
0001
0000
1000
0000
,
1000
0000
0100
0000
,
0010
0000
0001
0000
,
0010
0000
0010
0000
,
0100
0000
1000
0000
,
0010
0000
1000
1001
,
0001
1000
0000
0001
,
0000
1000
0000
0001
,
0000
0100
0000
0010
,
0000
0100
0000
0010
,
1000
1000
0001
0001
,
1000
1000
0001
0001
,
0010
0010
0010
0010
,
0020
0000
0000
0030
,
1000
1000
1000
0000
,
0010
0010
0010
0000
,
0001
0001
0001
0000
,
0100
0100
0100
0010
,
1000
0001
1000
0000
,
0001
1000
0001
0000
,
0100
0010
0100
0000
,
2002
0000
0000
3003
,
1000
0001
1001
0000
,
0010
0100
0110
0000
,
1000
0100
0010
0001
,
0200
0000
0000
0300
,
0010
1000
1010
0000
,
1000
1000
0100
0100
,
0010
0001
0100
1000
,
0020
0000
0000
0030
,
1000
0000
1000
0000
,
0001
0000
0001
0010
,
0001
0000
0001
0000
,
1000
0000
1000
0010
,
1000
0000
0100
0010
,
0100
0000
0010
0001
,
0010
0000
0001
0100
,
0001
0000
1000
0000
,
1001
0000
0100
0000
,
0200
0000
0310
0010
,
0001
0000
1000
0000
,
0020
0000
0130
0100
,
0001
0000
0010
0000
,
0200
0000
1300
1000
,
0010
0000
0100
0000
,
0002
0000
1003
1000
,
1000
0001
0000
1000
,
0000
0001
0000
1000
,
0000
0010
0000
0100
,
0220
0000
0000
0330
,
1000
0100
1000
0010
,
0100
0000
0001
0001
,
0010
0001
0100
0010
,
1000
0000
0100
0100
,
0010
0001
0010
0100
,
0010
0000
1000
1000
,
0010
0100
0010
1000
,
0010
0000
0001
0000
,
0110
0000
1000
0001
,
1000
0000
0001
0000
,
0110
0000
0001
1000
,
0001
0000
1000
0000
,
0101
0001
1000
0100
,
1000
0000
0010
0000
,
1100
1000
0001
0100
,
0001
0010
0010
0010
,
2002
0000
0000
0000
,
3003
0000
0000
0000
;

//---------------dance-single - ----------------
#NOTES:
     dance-single:
     :
     Medium:
     8:
     0.370076,0.387000,0.165857,0.118469,0.000000,292.000000,21.000000,15.000000,0.000000,0.000000,0.000000,0.370076,0.387000,0.165857,0.118469,0.000000,292.000000,21.000000,15.000000,0.000000,0.000000,0.000000:
0000
0000
0000
0000
,
1001
0000
0000
0000
0100
0000
0000
0010
,
0000
0000
0000
0000
0001
1000
0001
0000
,
0100
0000
0000
0000
0010
0000
0000
0010
,
0000
0000
0000
0000
1000
0001
1000
0000
,
0010
0000
0000
0000
0001
0000
0000
1000
,
0000
0000
0000
0000
0001
0010
0100
0000
,
1000
0000
0000
0000
0010
0000
0000
0200
,
0000
0000
0300
1001
,
1000
0000
0001
0001
0000
0000
1000
1000
,
0000
0000
0010
0010
0000
0000
0100
0100
,
0000
0000
0001
0010
0000
0000
0001
0010
,
0000
0000
0100
1000
0000
0000
0100
1000
,
0010
0110
1000
1001
,
0010
0011
0100
1100
,
1000
0001
1000
0001
0010
0100
0010
0100
,
0020
0000
0000
0030
,
1001
0000
0100
0000
1000
0100
0010
0000
,
0001
0000
0100
0000
0010
0100
0010
0000
,
0001
0000
0010
0000
0100
1000
0010
0000
,
1000
0100
0001
0100
,
1000
0000
0010
0000
0100
0001
0010
0000
,
0001
0000
0100
0000
0010
1000
0010
0000
,
0100
0000
0010
0000
1000
0100
0010
0000
,
2002
0000
0000
3003
,
1000
0000
0001
0000
0010
0110
0000
0000
,
0001
0000
1000
0000
0001
1001
0000
0000
,
1000
0000
0100
0000
0010
0110
0000
0000
,
0002
0000
2003
0000
,
3001
0000
0100
0000
0001
0101
0000
0000
,
1100
0000
1001
0000
0010
0010
0010
0000
,
1000
0100
0001
0010
,
2000
0000
3000
1001
,
0001
0001
0010
0100
,
0010
0010
1000
0010
,
0100
0001
0010
0001
,
0100
1000
0010
1000
,
0100
0010
0100
0010
,
0001
1000
0010
1000
,
0010
0100
0010
0100
,
0001
0010
0001
1000
,
1001
0000
0001
0000
0100
0001
0010
0001
,
0200
0010
0010
0310
,
0100
0000
1000
0000
0010
1000
0100
1000
,
0020
0100
0100
0130
,
0101
0000
1000
0000
0001
0010
0100
0010
,
0002
0103
2000
3100
,
0010
0000
0001
0000
1000
0010
0100
0010
,
2000
0000
3100
0000
0010
0001
0010
0100
,
1000
0000
0001
1000
0000
0000
1000
0001
,
0000
0000
0010
0100
0000
0000
0100
0010
,
0000
0000
1000
0100
0000
0000
0001
0100
,
0020
0000
0030
0110
,
1001
0000
0100
0000
0010
1000
0010
1000
,
0000
0001
0010
0100
,
0010
0000
0001
0000
0100
0010
0100
0010
,
0000
1000
0001
1000
,
0010
0000
0100
0000
0010
1000
0100
0010
,
0000
0001
0100
1000
,
0100
0000
0001
0000
0010
0100
1000
0010
,
0000
1000
1000
1000
,
0100
0000
1001
0000
0010
0100
0010
0001
,
0010
0000
0100
0000
1000
0001
1000
0000
,
0010
0000
0100
0000
0001
1000
0100
1000
,
0001
0000
0010
0000
0100
1000
0100
0000
,
0010
0000
0001
0000
0100
0010
1000
0010
,
0100
0000
0001
0000
1000
0100
0010
0000
,
0100
0000
1000
0000
0010
0100
0001
0100
,
0010
1000
0010
1000
0001
0100
0001
0000
,
0220
0000
0000
0000
,
0330
0000
0000
0000
;

//---------------dance-single - ----------------
#NOTES:
     dance-single:
     :
     Hard:
     12:
     0.548344,0.497571,0.244837,0.268531,0.142163,421.000000,31.000000,34.000000,0.000000,0.000000,0.000000,0.548344,0.497571,0.244837,0.268531,0.142163,421.000000,31.000000,34.000000,0.000000,0.000000,0.000000:
0000
0000
0000
0000
,
1001
0000
0000
0000
0000
0000
0200
0000
0010
0000
0000
0010
0000
0000
0310
0000
,
0000
0010
1001
0000
1000
0100
0010
0001
,
0100
0000
0000
0000
0000
0000
0020
0000
1000
0000
0000
1000
0000
0000
1030
0000
,
0000
0000
0000
0000
1000
0100
0001
0100
,
1001
0000
0000
0000
0000
0000
0002
0000
0010
0000
0000
0010
0000
0000
0013
0000
,
0000
0010
1001
0000
0100
0010
1000
0001
,
0010
0000
0000
0000
0000
0000
0200
0000
1000
0000
0000
1000
0000
0000
1300
0000
,
0000
0000
0000
0000
1000
0100
0010
0100
,
1000
0001
0010
0001
0000
0100
0010
0100
,
0000
1000
0100
1000
0000
0010
0100
0010
,
0000
0001
0010
0100
0000
1000
0010
0100
,
0000
0001
1000
0100
0000
1000
0001
0100
,
0001
0001
1000
1000
0100
0100
0010
0010
,
0100
1000
0100
1000
0001
0010
0001
0010
,
0100
1000
0010
0100
0001
0010
0100
1000
,
0020
0000
0000
0000
0000
0100
0130
0010
,
0110
0000
0000
1001
0000
0000
0100
0000
0010
0000
1000
0000
0001
0000
0010
0000
,
0100
0000
0000
1100
0000
0000
0100
0000
0010
0000
0001
0000
1000
0000
0000
0000
,
0001
0000
0000
0101
0000
0000
0010
0000
1000
0000
0010
0000
0100
0000
0001
0000
,
0010
0100
0010
1000
0010
0100
0001
1000
,
0100
0000
0000
1000
0100
0000
0010
0000
0100
0000
1000
0000
0001
0000
0010
0000
,
0001
0000
0000
1000
0001
0000
0100
0000
0010
0000
1000
0000
0100
0000
0010
0000
,
0100
1000
0010
1000
0100
0010
0001
0100
,
0020
0000
0000
0000
0000
0000
0000
0000
0130
0000
0000
1000
0000
0000
0001
0000
,
0100
0000
0000
0100
0000
0010
0100
0000
0001
0000
0110
0000
1000
0000
0000
0000
,
0100
0000
0000
0100
0000
0010
0100
0000
1000
0000
0110
0000
0001
0000
0000
0000
,
1000
0000
0000
0100
0000
0000
0001
0000
0100
0000
1000
0000
0100
0000
0010
0000
,
0001
0000
0000
0011
0000
0000
1010
0000
0000
0000
0101
0000
0100
0000
1000
0000
,
0100
0000
0000
0010
0000
0100
0010
0000
0001
0000
0110
0000
1000
0000
0100
0000
,
0001
0000
0000
1000
0100
0000
0000
0001
0100
0000
0010
0000
0110
0000
0000
0000
,
1100
0000
0000
0001
0000
0000
0100
0000
0000
0010
0000
0000
1000
0000
0200
0000
,
0020
0000
0330
1001
,
0100
0010
1000
0000
0010
0100
0001
0000
,
2000
3200
0320
0032
,
1003
0100
0010
0000
0100
1000
0001
0000
,
0002
0203
0320
2030
,
3001
0100
0010
0100
0001
0010
0100
1000
,
0020
0230
0302
2003
,
3100
0010
0100
1000
0001
0010
0001
1000
,
0200
2300
3020
0031
,
1001
0000
0000
0000
1100
0000
0000
0000
0001
0000
0000
0100
0000
0000
0020
0000
,
0000
1000
0001
1030
,
0110
0000
0000
0000
1001
0000
0000
0000
0001
0000
0000
1000
0000
0000
0200
0000
,
0000
0010
0001
0310
,
1100
0000
0000
0000
0101
0000
0000
0000
0010
0000
0000
1000
0000
0000
0002
0000
,
0000
0010
0100
1003
,
1010
0000
0000
0000
0101
0000
0000
0000
0010
0000
0000
0100
0000
0000
2000
0000
,
0000
0000
0001
0000
3001
0010
0100
1000
,
0001
0100
0010
0100
0001
0010
0100
0010
,
0001
0100
0010
1000
0001
0010
0100
1000
,
0010
0100
0010
0100
0001
1000
0001
1000
,
0020
0000
0030
0110
,
1001
0000
0000
1000
0100
0000
0010
0000
0001
0000
0000
0100
0000
0000
0010
0000
,
0100
0001
0010
0001
0100
1000
0010
1000
,
0100
0000
0000
0100
0010
0000
0001
0000
0100
0000
0000
0010
0000
0000
0100
0000
,
1000
0010
0001
0010
1000
0100
0001
0100
,
1000
0000
0000
0010
0100
0000
0001
0000
0010
0000
0000
0100
0000
0000
0010
0000
,
0001
0100
0010
0100
0001
0010
0100
1000
,
0010
0000
0000
0010
0100
0000
1000
0000
0100
0000
0000
0010
0000
0000
0001
0000
,
1000
0100
0001
0100
1000
0010
0001
0010
,
1000
0000
0000
0000
0110
0000
0000
0000
2000
0000
0000
3200
0000
0000
0310
0000
,
0001
0100
0001
0010
0100
1000
0010
1000
,
0100
0000
0000
0000
0010
0000
0001
0000
0200
0000
0000
0320
0000
0000
1030
0000
,
0001
0010
0100
0010
0001
0100
0010
1000
,
0100
0000
1001
0100
0010
1000
0001
0010
,
0100
1000
0001
1000
0100
0001
1000
0001
,
0100
0010
1000
0010
0100
0001
0100
0010
,
1000
0100
0010
0001
0100
0010
1001
0000
,
0220
0000
0000
0000
,
0330
0000
0000
0000
;

//---------------dance-single - ----------------
#NOTES:
     dance-single:
     :
     Challenge:
     15:
     0.715329,0.774000,0.418592,0.134265,0.580500,564.000000,53.000000,17.000000,0.000000,0.000000,0.000000,0.715329,0.774000,0.418592,0.134265,0.580500,564.000000,53.000000,17.000000,0.000000,0.000000,0.000000:
// measure 0
0000
0000
0000
0000
,  // measure 1
1001
0000
0000
0000
0000
0000
0010
0000
1010
0000
0000
1001
0000
0000
0101
0000
,  // measure 2
0000
0010
0110
0000
0010
0100
1000
0001
,  // measure 3
0110
0000
0000
0000
0000
0000
1000
0000
1100
0000
0000
1001
0000
0000
0022
0000
,  // measure 4
0000
0000
0000
0033
1000
0010
0100
0001
,  // measure 5
0110
0000
0000
0000
0000
0000
1000
0000
1100
0000
0000
0011
0000
0000
1100
0000
,  // measure 6
0000
0000
0010
0100
0010
0000
0000
0000
1000
0000
0100
0000
0001
0000
0100
0000
,  // measure 7
1001
0000
0000
0000
0000
0000
0001
0000
0011
0000
0000
0110
0000
0000
0200
0000
,  // measure 8
0000
0000
0000
0000
1300
0001
0010
0001
,  // measure 9
0100
0000
0010
1000
0010
1000
0010
0000
0100
0000
0001
0000
0010
0000
0001
0000
,  // measure 10
0100
0000
0001
0010
0001
0010
0001
0000
0100
0000
1000
0000
0100
0000
0001
0000
,  // measure 11
1000
0000
0100
0010
0100
0010
0100
0000
1000
0000
0010
0000
0100
0000
0001
0000
,  // measure 12
0010
0000
0100
1000
0100
1000
0100
0000
0010
0000
0001
0000
0100
0000
0010
0000
,  // measure 13
1010
1000
0100
0010
0100
1000
0010
0100
,  // measure 14
0001
0001
0100
0100
1000
1000
0100
0100
,  // measure 15
0001
1000
0010
1000
0001
0010
0100
1000
0010
0100
0010
1000
0001
0010
0001
0100
,  // measure 16
0020
0000
0000
0000
0000
0100
0100
0130
,  // measure 17
1001
0000
0010
1000
0000
1000
0010
0000
0100
0000
0101
0000
0010
0000
1000
0000
,  // measure 18
0100
0000
0010
0100
0000
1000
0100
0010
0001
0010
0100
0000
1000
0000
0001
0000
,  // measure 19
0100
0000
0010
1000
0000
1000
0100
0000
0010
0000
0011
0000
1000
0000
0001
0000
,  // measure 20
1000
0000
0010
0100
0000
0100
0001
1000
0010
0100
0001
0000
1000
0000
0100
0000
,  // measure 21
0010
0000
0100
0000
1001
0000
0100
0000
0010
1000
0001
0000
0010
0000
0100
0000
,  // measure 22
0010
0000
0001
0000
0101
0000
0100
0010
1000
0100
0010
0000
0100
0000
0010
0000
,  // measure 23
0001
0000
1000
0001
0000
1000
0001
0000
0100
0000
0010
0000
1000
0000
0001
0000
,  // measure 24
0020
0000
0000
0000
0000
0000
0030
0000
0110
0000
0000
1100
0000
0000
0101
0000
,  // measure 25
0010
0000
0100
0010
0000
0100
0010
0000
1000
0000
1001
0000
0001
0000
0000
0000
,  // measure 26
1000
0000
0100
1000
0000
0100
1000
0000
0001
0000
0011
0000
0010
0000
0000
0000
,  // measure 27
1000
0000
0010
0100
0000
0010
0100
0000
0001
0000
1001
0000
1000
0000
0000
0000
,  // measure 28
0010
0000
0100
0001
0000
0001
0010
0000
0100
0000
1000
0000
0001
0000
0100
0000
,  // measure 29
0010
0000
1000
0001
0000
1000
0001
0000
1000
0000
1010
0000
0010
0000
0000
0000
,  // measure 30
0100
0000
0000
0001
0001
0000
0000
1000
0100
0010
0001
0010
0100
1000
0010
0100
,  // measure 31
0001
0000
0001
0010
0000
0010
0100
0000
0100
1000
0000
1000
0010
0000
0010
0100
,  // measure 32
0020
0000
0000
0000
0000
0130
1001
0000
,  // measure 33
1000
0100
1000
0100
0001
0100
0010
1000
,  // measure 34
0001
0010
0100
0010
0001
0010
0100
0010
,  // measure 35
0001
0100
0001
0100
1000
0100
0001
0100
,  // measure 36
1000
0010
0100
0010
1000
0010
0100
0010
,  // measure 37
1000
0000
0100
0000
0001
0000
0100
0010
0000
1000
0001
1000
0000
0010
0100
0001
,  // measure 38
1000
0000
0100
0000
0010
0000
0001
0100
0000
0010
0000
0100
0000
0001
0010
0000
,  // measure 39
1000
0000
0010
0000
0001
0000
0100
0010
0000
1000
0000
0010
0000
0100
0001
0000
,  // measure 40
1000
0000
0100
0000
0010
0000
0001
0100
0000
0010
0000
1000
0000
0100
0010
0000
,  // measure 41
1001
0000
0000
0000
0100
0000
0000
0000
0110
0000
0000
0110
0000
0000
0120
0000
,  // measure 42
1000
0001
1000
0031
,  // measure 43
1100
0000
0000
0000
0010
0000
0000
0000
0011
0000
0000
0011
0000
0000
0012
0000
,  // measure 44
0100
0010
0100
0013
,  // measure 45
1010
0000
0000
0000
0100
0000
0000
0000
0101
0000
0000
1010
0000
0000
2100
0000
,  // measure 46
0010
0100
0010
3100
,  // measure 47
0011
0000
0000
0000
0001
0000
0000
0000
0101
0000
0000
1100
0000
0000
0012
0000
,  // measure 48
1000
0000
0100
0000
2003
3020
0230
0302
,  // measure 49
1003
0000
0100
0010
0001
0010
0100
0000
1000
0000
0100
0010
0001
0010
0100
0000
,  // measure 50
1000
0000
0010
0100
0001
1000
0010
0000
1000
0000
0010
0100
0001
1000
0010
0000
,  // measure 51
1000
0100
0010
0100
1000
0100
0010
0100
1000
0100
0010
0001
0100
0010
1000
0001
,  // measure 52
0020
0000
0030
0110
,  // measure 53
1001
0000
0000
1000
0100
0000
0010
0000
0001
0000
0100
0010
0000
0010
1000
0000
,  // measure 54
0001
0000
0010
0100
0000
1000
0000
0100
0000
0000
0001
1000
0001
1000
0001
0000
,  // measure 55
0100
0000
0000
0010
1000
0000
0010
0000
0100
0000
0001
1000
0000
1000
0001
0000
,  // measure 56
0010
0100
0010
0100
0010
0000
0001
1000
0000
1000
0001
0000
0010
0000
0000
0000
,  // measure 57
1100
0000
0000
0010
0001
0000
0100
0000
0010
0000
0100
0001
0000
0001
0010
0000
,  // measure 58
0100
0000
1000
0001
0000
1000
0000
0010
0000
0000
0100
0001
0100
0001
0100
0000
,  // measure 59
0010
0000
0000
1000
0100
0000
0010
0000
0100
0000
1000
0001
0000
0010
0100
0000
,  // measure 60
1000
0100
0001
1000
0010
0001
0100
0010
,  // measure 61
0110
0000
0000
0000
1001
0000
0100
0000
0010
0000
1000
0100
0000
0100
0010
0000
,  // measure 62
0001
0000
1000
0100
1000
0000
0001
0100
0001
0000
1000
0010
1000
0000
0001
0010
,  // measure 63
0001
0000
0000
0100
0010
0000
1000
0000
0001
0000
0010
0100
0000
0100
0010
0000
,  // measure 64
0001
0000
0100
0010
0100
0000
0001
1000
0001
0000
0010
0100
0010
0000
0001
1000
,  // measure 65
0001
0000
0110
1000
0100
0001
0100
1000
,  // measure 66
0010
0100
1000
0100
0010
0100
0001
0100
,  // measure 67
0010
1000
0010
0000
0100
0001
0100
0000
0010
0001
0010
0000
0100
1000
0100
0000
,  // measure 68
0010
0001
0010
0001
1000
0010
1000
0010
0100
0001
1000
0100
0010
0001
1000
0000
,  // measure 69
2002
0000
0000
0000
,  // measure 70
3003
0000
0000
0000
;
