#TITLE:Don't Let This Feeling Fade;
#SUBTITLE:(ft. Rivers Cuomo & Lecrae);
#ARTIST:Lindsey Stirling;
#TITLETRANSLIT:;
#SUBTITLETRANSLIT:;
#ARTISTTRANSLIT:;
#GENRE:;
#CREDIT:;
#BANNER:dont-let-this-feeling-fade-bn.png;
#BACKGROUND:dont-let-this-feeling-fade-bg.png;
#LYRICSPATH:;
#CDTITLE:arsa-cd.png;
#MUSIC:Don't Let This Feeling Fade.ogg;
#OFFSET:-1.755998;
#SAMPLESTART:83.806999;
#SAMPLELENGTH:12.000000;
#SELECTABLE:YES;
#BPMS:0.000000=117.000000
;
#STOPS:
;
#BGCHANGES:;
#KEYSOUNDS:;
#ATTACKS:;

//---------------dance-single - ----------------
#NOTES:
     dance-single:
     :
     Beginner:
     1:
     0.109270,0.093998,0.000000,0.000000,0.000000,166.000000,0.000000,0.000000,0.000000,0.000000,0.000000,0.109270,0.093998,0.000000,0.000000,0.000000,166.000000,0.000000,0.000000,0.000000,0.000000,0.000000:
0000
0000
0000
0000
,
0000
0000
0000
0000
,
0000
0000
0000
0000
,
0000
0000
0000
0000
,
0000
0000
0000
0000
,
0000
0000
0000
0000
,
0000
0000
0000
0000
,
0000
0000
0000
0000
,
1000
0000
1000
0000
,
0001
0000
0001
0000
,
1000
0000
1000
0000
,
0001
0000
0001
0000
,
0010
0000
0010
0000
,
0100
0000
0100
0000
,
0000
0010
0000
0010
,
0000
1000
0000
1000
,
1000
0000
1000
0000
,
0001
0000
0001
0000
,
0000
0010
0000
0010
,
0000
0100
0000
0010
,
0010
0000
0000
0000
,
1000
0000
0000
0000
,
0001
0000
0000
0000
,
0100
0000
0000
0000
,
0001
0000
0001
0000
,
1000
0000
1000
0000
,
0001
0000
1000
0000
,
0001
0000
1000
0000
,
0010
0000
0010
0000
,
0010
0000
0010
0000
,
0100
0000
0100
0000
,
0100
0000
0100
0000
,
0001
0000
0001
0000
,
1000
0000
1000
0000
,
0010
0000
0010
0000
,
0100
0000
0100
0000
,
0001
0001
0000
0000
,
1000
1000
0000
0000
,
0001
0001
0000
0000
,
0010
0000
0100
0000
,
0010
0010
0000
0000
,
0100
0100
0000
0000
,
0010
0010
0000
0000
,
1000
0000
0001
0000
,
1000
0000
1000
0000
,
0100
0000
0000
0000
,
0001
0000
0001
0000
,
0100
0000
0000
0000
,
1000
0000
0010
0000
,
1000
0000
0000
0000
,
0001
0000
0010
0000
,
0001
0000
0000
0000
,
0100
0000
0000
0000
,
0000
0000
0000
0000
,
1000
0000
1000
0000
,
1000
0000
1000
0000
,
0001
0000
0001
0000
,
0001
0000
0001
0000
,
1000
0000
1000
0000
,
0001
0000
0001
0000
,
1000
0000
1000
0000
,
0001
0000
0001
0000
,
0010
0000
0010
0000
,
0100
0000
0100
0000
,
0000
1000
0000
1000
,
0000
0001
0000
1000
,
1000
0000
0010
0000
,
1000
0000
0010
0000
,
0100
0000
0001
0000
,
0100
0000
0001
0000
,
0010
0000
0000
0000
,
0100
0000
0000
0000
,
0001
0000
0000
0000
,
1000
0000
0000
0000
,
0100
0000
0000
0000
,
0010
0000
0000
0000
,
0100
0000
0000
0000
,
1000
0000
0000
0000
,
0001
0000
0001
0000
,
1000
0000
1000
0000
,
0010
0000
0010
0000
,
0100
0000
0100
0000
,
0001
0000
0010
0000
,
0100
0000
1000
0000
,
0010
0000
0100
0000
,
0001
0000
1000
0000
,
0001
0001
0000
0000
,
1000
1000
0000
0000
,
0001
0001
0000
0000
,
1000
0000
1000
0000
,
0010
0010
0000
0000
,
0100
0100
0000
0000
,
0010
0010
0000
0000
,
0100
0000
0100
0000
,
1000
0000
0100
0000
,
1000
0000
0000
0000
,
0001
0000
0100
0000
,
0001
0000
0000
0000
,
1000
0000
0010
0000
,
0100
0000
0000
0000
,
0001
0000
0010
0000
,
0100
0000
0000
0000
,
0010
0000
0000
0000
;

//---------------dance-single - ----------------
#NOTES:
     dance-single:
     :
     Easy:
     5:
     0.207349,0.187997,0.055293,0.101371,0.000000,281.000000,12.000000,22.000000,0.000000,0.000000,0.000000,0.207349,0.187997,0.055293,0.101371,0.000000,281.000000,12.000000,22.000000,0.000000,0.000000,0.000000:
0000
0000
0000
0000
,
0000
0000
0000
0000
,
0000
0000
0000
0000
,
0000
0000
0000
0000
,
0000
0000
0000
0000
,
0000
0000
0000
0000
,
0000
0000
0000
0000
,
0000
0000
0000
0000
,
1000
0000
0100
0100
,
0010
0000
0001
0001
,
1000
0000
0010
0100
,
0010
0000
1000
0001
,
1000
1000
0100
1000
,
0001
0001
0100
0001
,
0000
1000
0000
0100
,
0010
0010
0001
0001
,
1000
1000
0100
0010
,
0001
0001
0100
0010
,
0000
0010
0000
1000
,
0001
1000
0001
1000
,
0020
0000
0030
0000
,
0200
0000
0300
0000
,
0002
0000
0003
0000
,
2000
0000
3000
0000
,
0200
0300
0020
0030
,
0002
0003
0020
0030
,
0200
0300
2000
3000
,
0020
0030
0200
0300
,
0001
0001
0001
0100
,
1000
1000
1000
0100
,
0010
0010
0010
0001
,
0100
0100
0100
0010
,
1000
0100
1000
0000
,
0001
0100
0001
0000
,
1000
0010
0100
0001
,
0010
0100
0010
0000
,
1000
1001
0001
0000
,
0010
0110
0100
0000
,
0001
1001
1000
0000
,
0001
0010
0001
0010
,
0100
1100
1000
0000
,
0001
0101
0100
0000
,
0010
1010
1000
0000
,
0001
0010
0001
0010
,
0100
1000
1000
0000
,
0010
0010
0100
0001
,
1000
0100
0010
0000
,
0001
0001
1000
0001
,
1000
0100
0010
0000
,
1000
1000
0001
1000
,
0010
0100
0001
0000
,
0100
0010
1000
0001
,
0020
0000
0000
0030
,
0200
0000
0000
0300
,
1000
0000
0001
0001
,
1000
0000
0010
0010
,
0100
0000
0001
0001
,
0010
0000
1000
1000
,
0010
0000
0001
0010
,
0001
0000
1000
0010
,
1000
0000
0001
0100
,
0010
0000
1000
0100
,
0010
0010
0001
1000
,
0001
0001
1000
0010
,
0000
0100
0000
0001
,
1000
1000
0100
0100
,
0010
0001
0010
0100
,
1000
0100
0010
0100
,
0000
1000
0000
0001
,
0100
0100
0010
1000
,
0002
0000
0003
0000
,
0020
0000
0030
0000
,
0200
0000
0300
0000
,
2000
0000
3000
0000
,
0020
0000
0030
0000
,
0200
0000
0300
0000
,
0020
0000
0030
0000
,
2000
0000
3000
0000
,
0001
0001
0001
0001
,
1000
1000
1000
1000
,
0010
0010
0010
0010
,
0100
0100
0100
0100
,
0001
0001
0010
0000
,
0001
0001
1000
0000
,
0010
0100
0001
1000
,
0010
0100
0010
0000
,
1000
1001
0001
0000
,
0001
1001
1000
0000
,
0010
0110
0100
0000
,
1000
0100
1000
0100
,
0010
0011
0001
0000
,
0010
1010
1000
0000
,
0100
0101
0001
0000
,
1000
0100
1000
0100
,
0010
0010
0001
0000
,
0100
0010
1000
0010
,
0100
0001
0010
0000
,
0010
0001
0010
0100
,
1000
0100
0010
0000
,
0001
1000
0001
1000
,
0010
0100
0010
0000
,
1000
0001
0010
0100
,
0010
0000
0000
0000
;

//---------------dance-single - ----------------
#NOTES:
     dance-single:
     :
     Medium:
     8:
     0.290947,0.305495,0.018431,0.156664,0.000000,404.000000,4.000000,34.000000,0.000000,0.000000,0.000000,0.290947,0.305495,0.018431,0.156664,0.000000,404.000000,4.000000,34.000000,0.000000,0.000000,0.000000:
0000
0000
0000
0000
,
0000
0000
0000
0000
,
0000
0000
0000
0000
,
0000
0000
0000
0000
,
0000
0000
0000
0000
,
0000
0000
0000
0000
,
0000
0000
0000
0000
,
0000
0000
0000
0000
,
0100
0000
0010
0100
0000
0100
0000
0000
,
0001
0000
0010
0001
0000
0001
0000
0001
,
0100
0000
0010
1000
0000
1000
0000
0000
,
0100
0000
0010
0100
0000
0100
0000
0100
,
0010
0000
0001
0000
0100
0000
0010
1000
,
0010
0000
0100
0000
0001
0000
0010
0001
,
0010
0100
0000
0100
0010
0000
0010
0000
,
0001
1000
0010
0001
,
1000
0000
0100
0000
0010
0000
0100
1000
,
0100
0000
0010
0000
0001
0000
0100
0010
,
0100
0001
0000
0001
1000
0000
0100
0000
,
0010
0001
0010
0100
,
2000
0000
0000
0000
,
3002
0000
0000
0000
,
0203
0000
0000
0000
,
0320
0000
0000
0000
,
2030
0000
3200
0000
,
2300
0000
3002
0000
,
0203
0000
0302
0000
,
0023
0000
0230
0000
,
0310
0000
0010
0000
0001
1000
0001
1000
,
0001
0100
0010
1000
,
0001
0000
0001
0000
1000
0010
1000
0010
,
1000
0100
0010
0100
,
1000
0000
0010
0000
0001
0010
0001
0100
,
0000
0100
0001
1000
0000
0100
1000
0000
,
0010
0100
0001
1000
,
0010
0100
0110
0000
,
1000
0100
1000
0000
0020
0000
0130
0000
,
0001
0010
0001
0000
0200
0000
0310
0000
,
1000
0100
0010
0000
0002
0000
0103
0000
,
1000
0100
1000
0001
1000
0000
0010
0000
,
1000
0100
1000
0000
0002
0000
0103
0000
,
0001
0100
0001
0000
2000
0000
3100
0000
,
1000
0010
0100
0000
0002
0000
0013
0000
,
0100
1000
0100
0010
0100
0000
1000
0000
,
0110
0000
1000
0001
1000
0010
0000
0010
,
1000
0100
0001
0010
,
0001
0000
0001
0100
0001
1000
0000
1000
,
0100
0000
0010
0000
0001
1000
0001
0000
,
0100
0000
0010
1000
0010
0100
0000
0100
,
0001
0010
0001
0100
,
1000
0000
0010
0100
0001
1000
0000
0100
,
0010
0000
0001
0000
1000
0001
1000
0000
,
0220
0000
0000
0000
,
0000
0000
0000
0330
,
1000
0000
0100
1000
0000
1000
0000
0000
,
0001
0000
0100
0001
0000
0001
0000
0001
,
1000
0000
0100
0010
0000
0010
0000
0000
,
0001
0000
0100
0010
0000
0010
0000
0010
,
1000
0000
0100
1000
0000
0001
0000
0000
,
0100
0000
0001
0010
0000
0100
0000
0010
,
0001
0000
0100
0010
0000
1000
0000
0000
,
0100
0000
1000
0001
0000
0100
0000
0001
,
1000
0000
0100
0000
1000
0000
0001
0100
,
0010
0000
1000
0000
0100
0000
1000
0010
,
0100
0001
0000
0001
1000
0000
0100
0000
,
1000
0010
0001
0010
,
1000
0000
0100
0000
0010
0000
0001
0100
,
1000
0000
0010
0000
0001
0000
0010
1000
,
0001
0100
0000
0100
0001
0000
0010
0000
,
0100
1000
0010
0001
,
0020
0000
0000
0000
,
2030
0000
0000
0000
,
3002
0000
0000
0000
,
0023
0000
0000
0000
,
0032
0000
0000
0000
,
0203
0000
0000
0000
,
0320
0000
0000
0000
,
2030
0000
0000
0000
,
3010
0000
1000
0000
0010
1000
0010
1000
,
0010
0100
0001
0010
,
0001
0000
0100
0000
0001
0100
0010
1000
,
0010
0100
0001
1000
,
0100
1000
0001
0000
0100
0001
1000
0000
,
0010
1000
0100
0000
0010
0001
0100
0000
,
0010
1000
0010
1000
0100
0001
0000
0001
,
0100
0010
1000
0001
0010
0000
0000
0000
,
1000
0100
0010
0000
0002
0000
0103
0000
,
0001
0100
0010
0000
2000
0000
3100
0000
,
1000
0001
0010
0000
0002
0000
0103
0000
,
0010
1000
0010
0100
0001
0000
1000
0000
,
0100
0010
0001
0000
0200
0000
0310
0000
,
1000
0010
0100
0000
0002
0000
0013
0000
,
0100
1000
0001
0000
2000
0000
3100
0000
,
1000
0010
0100
0001
0100
0010
1000
0000
,
1001
0000
1000
0100
0010
0100
0000
0100
,
1000
0010
0001
0100
,
1000
0000
0001
0010
0001
0100
0000
0100
,
0010
0000
1000
0000
0001
0010
0100
0000
,
1000
0000
0001
0100
0010
1000
0000
0001
,
0100
0010
1000
0001
,
1000
0000
0010
0100
0001
0010
0000
0010
,
0100
0000
1000
0000
0001
0010
1000
0100
,
0010
0000
0000
0000
;

//---------------dance-single - ----------------
#NOTES:
     dance-single:
     :
     Hard:
     10:
     0.403508,0.375994,0.170487,0.124410,0.000000,549.000000,37.000000,27.000000,0.000000,0.000000,0.000000,0.403508,0.375994,0.170487,0.124410,0.000000,549.000000,37.000000,27.000000,0.000000,0.000000,0.000000:
0000
0000
0000
0000
,
0000
0000
0000
0000
,
0000
0000
0000
0000
,
0000
0000
0000
0000
,
0000
0000
0000
0000
,
0000
0000
0000
0000
,
0000
0000
0000
0000
,
0000
0000
0000
0000
,
1000
0100
0010
0001
0000
0101
0000
1001
,
0100
0010
1000
0010
0000
0100
0001
0010
,
0100
1000
0001
1000
0000
0110
0000
0001
,
1000
0100
0010
0100
1000
0001
0100
0000
,
0010
1000
0010
0100
0001
0000
0010
0001
,
0000
1000
0100
0010
0100
0100
1000
0001
,
0000
1001
0000
0001
0100
0010
1000
0000
,
0001
0010
0001
0010
0100
1000
0010
0000
,
1000
0100
1000
0010
0100
0000
0001
0010
,
0000
0001
0100
0010
1000
0001
1000
0010
,
0000
0110
0000
0001
0010
0100
1000
0000
,
0010
0100
0001
0100
0010
1000
0100
0010
,
0002
0000
0000
0000
,
2000
0000
0000
0003
,
0020
0000
0000
3000
,
0200
0000
0000
0030
,
0302
0010
1000
0010
,
2003
0010
0001
0010
,
3200
0010
0302
1000
,
0203
1000
0302
0013
,
1100
0000
1100
0000
1000
0100
0001
0100
,
0000
0100
0001
0010
0100
1000
0001
0000
,
1010
0000
1010
0000
1000
0010
0001
0010
,
0000
0010
1000
0100
0010
0001
0010
0000
,
0100
1000
0100
0000
0010
0001
0100
0000
,
0100
0001
0100
0000
0010
1000
0100
0000
,
0010
0001
1000
0001
0010
0100
1000
0001
,
1000
0100
0010
0001
1001
0000
0000
0000
,
1000
0100
0010
0100
1000
0010
0100
0000
,
0001
0010
0001
0100
0010
1000
0001
1000
,
1000
0010
0100
0010
1000
0001
0010
0000
,
0001
0100
0001
0100
0010
1000
1001
0000
,
1000
0100
0001
0100
1000
0010
0100
0000
,
0001
0010
0001
0100
0010
1000
0001
0010
,
0010
0001
0100
0010
1000
0001
0010
0000
,
1000
0100
1000
0100
0010
0001
1001
0000
,
2010
0000
3100
0010
0001
0100
0010
0000
,
0001
0100
0001
0100
0010
1000
0001
1000
,
2100
0000
3010
0100
0001
0010
0100
0000
,
0001
0010
0100
1000
0100
0010
0001
0000
,
0120
0000
1030
0001
0010
0001
1000
0000
,
0010
0100
0001
0010
0100
1000
0001
1000
,
0120
0000
1030
0001
0010
0100
1000
0000
,
0001
0010
0001
0100
0010
1000
0001
1000
,
0020
0000
0000
0000
0000
0100
0000
0000
,
0100
0000
0000
0000
0000
0100
0000
0000
,
1030
0001
0010
0100
0000
1100
0000
1001
,
0010
0100
0001
0010
0000
0100
1000
0001
,
1000
0100
0010
0001
0000
0101
0000
1010
,
1000
0100
0010
0100
0000
1000
0001
0010
,
0001
0100
0010
1000
0000
1001
0000
0110
,
0100
0001
0010
0001
0100
0010
1000
0001
,
1000
0010
0100
0001
0000
0011
0000
1100
,
1000
0010
0100
0010
1000
0001
0010
0001
,
0100
0010
0100
0010
1000
0001
0010
0001
,
0000
0100
0010
1000
0010
0100
0001
0010
,
0000
0011
0000
1000
0100
0010
0001
0000
,
1000
0010
0100
0010
1000
0001
0010
0000
,
0001
0100
0001
0010
0001
0100
0010
1000
,
0000
1000
0010
0100
0010
1000
0001
0010
,
0000
0110
0000
0010
0001
0100
0010
0000
,
1000
0001
0010
0001
1000
0010
0100
0010
,
2000
0000
0000
0000
,
0200
0000
0000
3000
,
0020
0000
0000
0300
,
0002
0000
0000
0030
,
2003
0000
0000
0000
,
0020
0000
0000
3000
,
0200
0000
0000
0030
,
0002
0000
0000
0303
,
0101
0000
0101
0000
1000
0100
0001
0100
,
0000
0100
1000
0010
0100
0001
0010
0000
,
0011
0000
0011
0000
1000
0010
0001
0010
,
0000
0010
1000
0100
0010
0100
1000
0000
,
0001
0100
0001
0100
0010
1000
0010
1000
,
0100
0010
0100
0010
0001
1000
0001
1000
,
0010
0100
0001
0010
0001
0100
0010
1000
,
0010
0100
0010
0001
1001
0000
0000
0000
,
1000
0001
0010
0001
1000
0010
0100
0000
,
0100
0010
1000
0001
0010
0001
0100
0010
,
0010
1000
0001
0010
1000
0001
1000
0000
,
0010
0100
0001
0010
0001
0100
0110
0000
,
1000
0100
0010
0100
1000
0010
0100
0000
,
1000
0001
0010
0100
0001
0100
0010
1000
,
1000
0010
0100
0001
0100
0010
1000
0000
,
0001
0001
0010
0100
1000
0010
0110
0000
,
2010
0000
3100
0010
0001
0010
0100
0000
,
0001
0100
0010
1000
0010
0100
0010
1000
,
2001
0000
3010
0100
0001
0010
0001
0000
,
0100
0010
1000
0001
0010
0100
1000
0000
,
0102
0000
0013
0100
1000
0010
0100
0000
,
0001
1000
0010
1000
0001
0010
0100
1000
,
2001
0000
3100
0010
0001
0100
0010
0000
,
1000
0001
0010
0001
0100
0010
1000
0001
,
0010
0000
0000
0000
;

//---------------dance-single - ----------------
#NOTES:
     dance-single:
     :
     Challenge:
     15:
     0.606250,0.704988,0.142841,0.156664,0.575971,856.000000,31.000000,34.000000,0.000000,3.000000,0.000000,0.606250,0.704988,0.142841,0.156664,0.575971,856.000000,31.000000,34.000000,0.000000,3.000000,0.000000:
// measure 0
0000
0000
0000
0000
,  // measure 1
0000
0000
0000
0000
,  // measure 2
0000
0000
0000
0000
,  // measure 3
0000
0000
0000
0000
,  // measure 4
0000
0000
0000
0000
,  // measure 5
0000
0000
0000
0000
,  // measure 6
0000
0000
0000
0000
,  // measure 7
0000
0000
0000
0000
,  // measure 8
0010
0100
0001
2000
0000
3020
0000
0130
,  // measure 9
0001
0000
0010
0000
0001
0000
0100
0000
0010
1000
0001
0000
0010
0001
1000
0010
,  // measure 10
0100
0010
1000
0002
0000
0023
0000
0130
,  // measure 11
0001
0000
0100
0000
1000
0000
0010
0000
0100
0000
0010
0000
1000
0001
1000
0000
,  // measure 12
0110
0000
1000
0001
0010
0001
1000
0000
0010
0000
0100
0001
0000
0001
0010
0000
,  // measure 13
0100
0000
1000
0010
0100
0001
0010
0000
0100
0000
1000
0010
0000
0010
0100
0000
,  // measure 14
0001
0000
0110
0000
0000
0000
1000
0010
1000
0000
0001
0010
0001
1000
0010
0000
,  // measure 15
0100
0000
0001
0010
0100
1000
0010
0100
0001
0000
1000
0100
0010
0001
0100
0000
,  // measure 16
0010
0000
1000
0100
0010
0000
0001
0100
0010
0000
0100
0010
1000
0010
0100
0000
,  // measure 17
0001
1000
0100
0000
0001
0000
1000
0010
0100
0000
0001
0010
0100
1000
0010
0000
,  // measure 18
1000
0000
0110
0000
0000
0000
0001
0010
0001
0000
1000
0010
1000
0000
0001
0000
,  // measure 19
1000
0000
0100
0010
0001
0010
0100
1000
0000
1000
0010
0100
0001
0000
1000
0000
,  // measure 20
0120
0000
0000
0000
,  // measure 21
2000
0000
0000
0030
,  // measure 22
0200
0000
0000
3000
,  // measure 23
0020
0000
0000
0330
,  // measure 24
0001
0100
0001
0010
0001
0100
0001
0010
,  // measure 25
1000
0100
1000
0010
1000
0100
1000
0010
,  // measure 26
0100
0001
0010
0001
0100
0010
1000
0100
,  // measure 27
0010
0100
0010
0100
1000
0001
1000
0001
,  // measure 28
1001
0000
0000
0000
1001
0000
0000
0010
0110
0000
1000
0000
0001
0000
1000
0000
,  // measure 29
0010
0001
0100
0010
1000
0001
1000
0000
,  // measure 30
0110
0000
0000
0000
0110
0000
0000
1000
1001
0000
0010
0000
0100
0000
0010
0000
,  // measure 31
1000
0000
0100
0000
0010
0000
0001
0000
0010
0000
0100
0000
1000
0000
0000
1000
,  // measure 32
0001
0001
0100
0100
1000
1000
0010
0010
,  // measure 33
1000
0100
1000
0100
0001
0100
0001
0100
,  // measure 34
1000
0100
1000
0100
0010
0001
0010
0001
0100
0010
0100
0010
1000
0001
1000
0001
,  // measure 35
0010
0001
0100
0010
1000
0100
0010
0001
0100
0000
0000
0000
0000
0000
0000
0000
,  // measure 36
1000
0000
0100
0010
0001
0000
0100
0010
0000
1000
0001
0010
0001
0000
0100
0100
,  // measure 37
0010
0000
1000
0010
0100
0000
0001
0010
0001
0100
0010
1000
0001
0000
0010
0010
,  // measure 38
0100
0000
1000
0001
0010
0000
0001
0100
0000
0100
0001
0010
0100
0000
1000
0000
,  // measure 39
0010
0100
0010
1000
0001
1000
0010
0100
0001
0010
0100
0000
0001
0010
0100
0000
,  // measure 40
1000
0000
0010
0100
0001
0000
1000
0100
0000
0010
0001
0100
0010
0000
1000
1000
,  // measure 41
0001
0000
0010
0100
0010
0000
0001
0100
0010
1000
0001
0010
0100
0000
0001
0001
,  // measure 42
0100
0000
0010
1000
0010
0000
0100
0001
0000
1000
0100
0010
0001
0000
0100
0000
,  // measure 43
0010
1000
0010
0100
0001
0100
0010
1000
0001
0010
1000
0000
2000
0000
0010
0000
,  // measure 44
3001
0000
1000
0100
0010
0000
0001
0000
1000
0000
0010
0000
0010
0000
0001
0000
,  // measure 45
1000
0000
0010
0100
0000
0100
0001
0000
0010
0100
0000
0100
1000
0000
0010
0010
,  // measure 46
0100
0000
0001
1000
0100
0000
0001
0000
1000
0000
0100
0000
0100
0000
0001
0000
,  // measure 47
1000
0100
1000
0010
0100
0010
1000
0100
0010
0001
0100
0000
0010
0001
0100
0000
,  // measure 48
1000
0000
0001
0010
0100
0000
1000
0000
0001
0000
1000
0000
0010
0000
0001
0000
,  // measure 49
1000
0000
0010
0100
0000
0001
1000
0000
0100
0010
0000
0001
1000
0000
0110
0000
,  // measure 50
0110
0000
1000
0001
0010
0000
0001
0000
0100
0000
1000
0000
1000
0000
0010
0000
,  // measure 51
1000
0001
0010
0001
1000
0010
1000
0001
0010
0001
0100
0000
0020
0000
0130
0000
,  // measure 52
2002
0000
0000
0000
0000
0010
0000
0000
,  // measure 53
0010
0000
0000
0000
0000
0010
3003
0000
,  // measure 54
1000
0010
0100
0020
0000
2030
0000
3001
,  // measure 55
1000
0000
0010
0000
1000
0000
0100
0000
0010
0000
0001
0000
1000
0010
0100
0001
,  // measure 56
1000
0100
0001
0200
0000
0320
0000
1030
,  // measure 57
0001
0000
0010
0000
0001
0000
0100
0010
1000
0000
0100
0010
0001
0100
0010
0000
,  // measure 58
1000
0001
0010
0022
0033
0220
0330
1000
,  // measure 59
0001
0000
0010
0000
1000
0000
0010
0000
0001
0100
0010
0000
1000
0100
0010
0100
,  // measure 60
1000
0010
0001
0202
0303
0220
0330
1000
,  // measure 61
0001
0000
0010
0000
1000
0000
0100
0000
1000
0000
0010
0100
0001
0010
0100
0000
,  // measure 62
1000
0001
0010
0001
0010
0001
1000
0001
0100
0010
1000
0001
0010
0100
1000
0000
,  // measure 63
0001
0100
0001
0100
0010
0100
0010
0100
1000
0100
0010
0001
0100
0010
1000
0000
,  // measure 64
0001
0000
0110
0000
0000
0000
1000
0100
0010
0001
0010
0100
0010
0000
0100
0000
,  // measure 65
1000
0000
0010
0100
0001
0010
0001
0010
0100
0000
1000
0010
0100
0000
0010
0000
,  // measure 66
1000
0000
0101
0000
1100
0000
0001
0100
1000
0100
0001
0010
0100
0000
1000
0001
,  // measure 67
1000
0000
0010
0100
0010
1000
0001
0010
0001
0100
0010
1000
0001
1000
0010
0000
,  // measure 68
1000
0000
0110
0000
0000
0000
0001
0000
1000
0100
1000
0100
0010
0001
0100
0000
,  // measure 69
1000
0000
0100
0010
0001
0010
0100
0000
1000
0010
1000
0010
0100
0001
0010
0100
,  // measure 70
2000
0000
0000
0000
,  // measure 71
0002
0000
0000
3000
,  // measure 72
0020
0000
0000
0003
,  // measure 73
0200
0000
0000
0030
,  // measure 74
2300
0000
0000
0000
,  // measure 75
0020
0000
0000
3000
,  // measure 76
0200
0000
0000
0030
,  // measure 77
0002
0000
0000
0303
,  // measure 78
0101
0000
0000
0000
1100
0000
0000
0010
0110
0000
1000
0000
0110
0000
0001
0000
,  // measure 79
1000
0000
0100
0000
0010
0000
0001
0000
0100
0010
1000
0000
0001
0000
1000
0010
,  // measure 80
0110
0000
0000
0000
0110
0000
0000
0001
1001
0000
0010
0000
1001
0000
0100
0000
,  // measure 81
0001
0000
0010
0000
0001
0000
0100
0000
1000
0010
0100
0000
0010
0000
1000
0000
,  // measure 82
0001
0000
0010
0001
0100
0000
0010
1000
0100
0000
0010
0001
0100
0000
1000
0100
,  // measure 83
0001
0000
1000
0010
0100
0000
0001
0010
0100
0000
1000
0010
0100
0000
0001
0000
,  // measure 84
0010
0100
0010
0100
1000
0001
1000
0001
0100
0010
1000
0001
0010
0001
0100
0010
,  // measure 85
1000
0100
0010
0001
0100
0010
1000
0001
0010
0000
0000
0000
0000
0000
0000
0000
,  // measure 86
1000
0000
0100
0010
0100
0000
1000
0001
0000
0001
0100
0010
1000
0000
0001
0001
,  // measure 87
0010
0000
0001
0100
0010
0000
1000
0100
0010
0001
0100
0010
1000
0000
0010
0010
,  // measure 88
0100
0000
0001
0010
0100
0000
1000
0010
0000
0010
0100
0001
1000
0000
0100
0000
,  // measure 89
0001
0010
0001
1000
0010
1000
0100
0010
0001
1000
0010
0000
0001
1000
0010
0000
,  // measure 90
1000
0000
0010
1000
0100
0000
1000
0010
0000
0100
0001
0010
0001
0000
0100
0100
,  // measure 91
0010
0000
1000
0001
0010
0000
0001
0100
0010
0100
0001
0010
0100
0000
1000
1000
,  // measure 92
0001
0000
0100
0001
0010
0000
0001
0100
0000
0010
1000
0001
0010
0000
0001
0000
,  // measure 93
0100
0010
0100
0001
1000
0001
0010
0001
0100
0010
1000
0000
0200
0000
0010
0000
,  // measure 94
0301
0000
0100
0010
1000
0000
0001
0000
1000
0000
0010
0000
0010
0000
0001
0000
,  // measure 95
1000
0000
0100
0010
0000
0010
0001
0000
0100
0010
0000
0010
1000
0000
0001
0001
,  // measure 96
1000
0000
0100
1000
0010
0000
0100
0000
1000
0000
0010
0000
0001
0000
0100
0000
,  // measure 97
0010
1000
0010
0100
0001
0100
0010
1000
0100
0010
0001
0000
0100
0010
0001
0000
,  // measure 98
1000
0000
0001
0010
0100
0000
0001
0000
0100
0000
0010
0000
1000
0000
0001
0000
,  // measure 99
1000
0000
0010
0100
0000
0001
1000
0000
0100
0010
0000
0001
1000
0000
0110
0000
,  // measure 100
0110
0000
0001
0010
0100
0000
1000
0000
0001
0000
0010
0000
0001
0000
0100
0000
,  // measure 101
0010
1000
0100
1000
0010
0100
0001
0010
0001
0100
0010
0000
0200
0000
0010
0000
,  // measure 102
0310
0000
0000
0000
;
