#TITLE:DRG;
#SUBTITLE:;
#ARTIST:ani;
#TITLETRANSLIT:;
#SUBTITLETRANSLIT:;
#ARTISTTRANSLIT:;
#GENRE:;
#CREDIT:;
#BANNER:DRG-bn.png;
#BACKGROUND:DRG-bg.png;
#LYRICSPATH:;
#CDTITLE:arsa-cd.png;
#MUSIC:DRG.ogg;
#OFFSET:-1.810000;
#SAMPLESTART:52.945000;
#SAMPLELENGTH:12.000000;
#SELECTABLE:YES;
#BPMS:0.000000=155.000000
;
#STOPS:64.000000=1.200000
;
#BGCHANGES:;
#KEYSOUNDS:;
#ATTACKS:;

//---------------dance-single - ----------------
#NOTES:
     dance-single:
     :
     Beginner:
     2:
     0.148505,0.211517,0.049502,0.000000,0.000000,120.000000,6.000000,0.000000,0.000000,0.000000,0.000000,0.148505,0.211517,0.049502,0.000000,0.000000,120.000000,6.000000,0.000000,0.000000,0.000000,0.000000:
0000
0000
0000
0000
,
0000
0000
0000
0000
,
0000
0000
0000
0000
,
0000
0000
0000
0000
,
0000
0000
0000
0000
,
0010
0000
0000
0000
,
0010
0000
0000
0000
,
0010
0000
0010
0000
,
0010
0000
0010
0000
,
1000
1000
0000
0000
,
0001
0001
0000
0000
,
1000
1000
0000
0000
,
0001
0001
0000
0000
,
0010
0010
0000
0000
,
0100
0100
0000
0000
,
0010
0010
0000
0000
,
0100
0001
0001
0000
,
0000
1000
1000
0000
,
0000
0010
0010
0000
,
0000
0100
0100
0000
,
0000
0001
0001
0000
,
0000
1000
1000
0000
,
0000
0010
0010
0010
,
0000
0010
0000
0000
,
0000
0100
0000
0000
,
0000
0001
0000
0000
,
0000
0100
0000
0000
,
0000
0001
0000
0000
,
0000
1000
0000
0000
,
0000
0100
0000
0000
,
0000
1000
0000
0000
,
0000
0100
0000
0000
,
0000
0010
0000
0001
,
0000
0010
0000
0000
,
0000
0001
0000
0010
,
0000
0001
0000
0000
,
0000
1000
0000
0100
,
0000
1000
0000
0000
,
0000
0100
0000
1000
,
0000
0100
0000
0000
,
0000
0010
0000
0100
,
0000
0010
0000
0000
,
0000
0100
0000
0010
,
0000
0100
0000
0000
,
0000
0001
0000
0010
,
0000
0100
0000
0000
,
0000
1000
0000
0010
,
0000
0100
0000
0010
,
0000
1001
0000
0000
,
0000
0010
0000
0000
,
0000
1001
0000
0000
,
0000
0100
0000
0000
,
0000
1001
0000
0000
,
0000
1001
0000
0000
,
0000
1001
0000
1001
,
0000
0010
0010
0010
,
0010
0010
0000
0000
,
0000
1000
1000
1000
,
0000
0001
0001
0001
,
0000
1000
1000
1000
,
0000
0001
0001
0001
,
0000
0010
0010
0010
,
0000
0100
0100
0100
,
0000
0010
0010
0010
,
0000
0100
0100
0100
,
0000
0001
0000
0100
,
0000
0001
0000
0000
,
0000
0100
0000
0001
,
0000
0100
0000
0000
,
0000
1000
0000
0100
,
0000
1000
0000
0000
,
0000
0100
0000
1000
,
0000
0100
0000
0000
,
0000
0010
0000
0000
;

//---------------dance-single - ----------------
#NOTES:
     dance-single:
     :
     Easy:
     6:
     0.294653,0.305260,0.115504,0.115504,0.000000,222.000000,14.000000,14.000000,0.000000,0.000000,0.000000,0.294653,0.305260,0.115504,0.115504,0.000000,222.000000,14.000000,14.000000,0.000000,0.000000,0.000000:
0000
0000
0000
0000
,
0000
0000
0000
0000
,
0000
0000
0000
0000
,
0000
0000
0000
0000
,
0000
0000
0000
0000
,
1001
0000
0000
0000
,
0110
0000
0000
0000
,
1001
0000
0110
0000
,
2002
0000
0000
3003
,
1000
1000
0100
0000
,
0001
0001
0100
0000
,
1000
0010
1000
0000
,
0001
0010
0001
0000
,
0100
0100
0010
0000
,
1000
1000
0001
0000
,
0010
0010
0100
0010
,
0100
0001
0100
0001
,
0000
1000
0100
1000
,
0000
0001
0100
0010
,
0000
1000
0100
0010
,
0000
0001
0010
1000
,
0000
1000
0010
0001
,
0000
0010
0100
0010
,
0100
2002
0000
0000
,
3003
1000
0000
1001
,
0000
1000
0100
0010
,
0000
0001
0000
1001
,
0000
0001
0100
0010
,
0000
0110
0000
0100
,
0000
0001
1000
0001
,
0000
0110
0000
0010
,
0000
1000
0001
1000
,
0001
0010
0100
0010
,
0001
0100
0010
0100
,
0001
1000
0100
0010
,
0001
1000
0010
0100
,
0001
1000
0100
1000
,
0001
1000
0010
1000
,
0001
1000
0100
0010
,
0100
1000
0001
0100
,
0010
0100
0001
0010
,
0010
0100
1000
0010
,
0010
1000
0100
1000
,
0100
0001
0100
0001
,
0100
1000
0010
0100
,
0100
0001
0010
0100
,
0100
0010
0001
0010
,
0001
1000
0010
1000
,
0010
0110
0000
0000
,
0000
0100
0000
0000
,
0000
0001
0001
1000
,
0001
1000
0000
0010
,
0000
0110
0000
0100
,
0000
1001
0000
0001
,
0000
1000
0010
1000
,
0010
0100
0001
0010
,
0100
0010
0000
0000
,
0000
2000
0100
3100
,
0010
0002
0100
0103
,
0010
2000
0100
3100
,
0010
0002
0100
0103
,
0010
2000
0001
3001
,
0010
0002
1000
1003
,
0010
2000
0010
3010
,
0100
0002
0010
0013
,
0100
1000
0010
1000
,
0100
1000
0010
1000
,
0001
1000
0100
0010
,
0100
0001
0100
0010
,
0100
1000
0100
0001
,
0100
1000
0010
0001
,
0010
1000
0100
0010
,
0001
0100
0010
0100
,
0010
2002
0000
0000
,
3003
0000
0000
0000
;

//---------------dance-single - ----------------
#NOTES:
     dance-single:
     :
     Medium:
     9:
     0.411335,0.396839,0.313511,0.033001,0.033001,307.000000,38.000000,4.000000,0.000000,0.000000,0.000000,0.411335,0.396839,0.313511,0.033001,0.033001,307.000000,38.000000,4.000000,0.000000,0.000000,0.000000:
0000
0000
0000
0000
,
0000
0000
0000
0000
,
0000
0000
0000
0000
,
0000
0000
0000
0000
,
0000
0000
0000
0000
,
1001
1000
0100
0010
,
1001
0001
0100
0010
,
1001
0100
1001
0010
,
1000
0001
0000
0110
0000
1001
0000
0000
,
0100
0010
1000
0000
0100
0000
0010
0000
,
0100
0010
0001
0000
0100
0000
0010
0000
,
1000
0001
0010
0000
0001
0000
1000
0000
,
0001
1000
0010
0000
1000
0000
0100
0000
,
0010
0001
0010
0000
0001
0000
0100
0000
,
0010
1000
0010
0000
1000
0000
0100
0000
,
0010
0100
0010
0000
0100
0000
0010
0000
,
1001
0000
0100
0010
1000
0010
0100
0000
,
0001
0000
0010
0001
0010
0100
1000
0000
,
0001
0000
1000
0100
0010
0100
1000
0000
,
0001
0000
0100
0010
1000
0010
0100
0000
,
0001
0000
0010
0100
0010
0100
0010
0000
,
0100
0000
0001
1000
0001
1000
0001
0000
,
1000
0000
0001
0010
0001
0000
1000
0010
,
1000
0220
0000
0000
,
0330
1000
0100
1100
,
1000
0001
0100
0101
,
0001
0010
0100
0010
,
0001
0100
0010
0100
,
1000
0110
1000
0001
,
0010
0110
1000
0001
,
0100
0110
1000
0110
,
0001
0110
1001
0110
,
1001
0000
0100
0010
0100
0000
0001
0000
,
0100
0000
0010
0100
0010
0000
1000
0000
,
0010
0000
0100
0001
0100
0000
0001
0100
,
0001
0000
1000
0100
1000
0000
0100
1000
,
0100
0000
1000
0001
1000
0000
0010
0000
,
0100
0000
0001
1000
0001
0000
0100
0000
,
0010
0000
1000
0100
1000
0000
0100
1000
,
0100
0000
0001
0100
0001
0000
0100
0001
,
0100
0000
1000
0100
0010
0000
0001
1000
,
0000
1000
0001
0000
0100
0000
0010
1000
,
0000
1000
0010
0000
0100
0000
0001
0010
,
0000
0010
0001
0000
0100
0000
0010
0000
,
1000
0000
0001
0100
0001
0000
1000
0100
,
0000
0100
1000
0000
0001
0000
0010
0100
,
0000
0100
0010
0000
0001
0000
0100
0000
,
0010
1001
0110
1001
,
0110
1001
0000
0100
,
0000
0010
0000
0100
,
0000
0001
0001
1000
,
1000
0100
0010
0001
,
0000
1001
0000
0010
,
0000
1001
0000
0100
,
0000
1010
0100
0011
,
0100
0110
1001
0110
,
1001
0010
0000
0000
,
0000
0000
0000
0000
1000
0000
0000
1000
0000
0000
1000
0000
0000
0000
0000
0000
,
0100
0000
0000
0000
0001
0000
0000
0001
0000
0000
0001
0000
0000
0000
0000
0000
,
0100
0000
0000
0000
1000
0000
0000
1000
0000
0000
1000
0000
0000
0000
0000
0000
,
0010
0000
0000
0000
0001
0000
0000
0001
0000
0000
0001
0000
0000
0000
0000
0000
,
0010
0000
0000
0000
0100
0000
0000
0100
0000
0000
0100
0000
0000
0000
0000
0000
,
0010
0000
0000
0000
0100
0000
0000
0100
0000
0000
0100
0000
0000
0000
0000
0000
,
0010
0000
0000
0000
1000
0000
0000
1000
0000
0000
0001
0000
0000
0000
0000
0000
,
0010
0000
0000
0000
0001
0000
0000
0001
0000
0000
1000
0000
0000
0000
0000
0000
,
0010
0000
1000
0100
1000
0000
0010
0000
,
0100
0000
0001
0010
0001
0000
0100
0000
,
0010
0000
1000
0001
1000
0000
0001
1000
,
0001
0000
0010
0100
0010
0000
0100
0010
,
0100
0000
0001
0100
0010
0000
1000
0000
,
0010
0000
0100
0001
1000
0000
0100
0000
,
1000
0110
0001
0110
,
1000
0110
1001
0110
,
1001
0220
0000
0000
,
0330
0000
0000
0000
;

//---------------dance-single - ----------------
#NOTES:
     dance-single:
     :
     Hard:
     13:
     0.603449,0.579995,0.189756,0.115504,0.276384,475.000000,23.000000,14.000000,0.000000,0.000000,0.000000,0.603449,0.579995,0.189756,0.115504,0.276384,475.000000,23.000000,14.000000,0.000000,0.000000,0.000000:
// measure 0
0000
0000
0000
0000
,  // measure 1
0000
0000
0000
0000
,  // measure 2
0000
0000
0000
0000
,  // measure 3
0000
0000
0000
0000
,  // measure 4
0000
0000
0000
0000
,  // measure 5
1001
0001
0010
0100
,  // measure 6
1001
1000
0010
0100
,  // measure 7
0110
0001
0110
1000
,  // measure 8
0110
0110
0000
1001
0000
0110
0000
0000
,  // measure 9
1000
0000
0100
0000
0010
0100
0000
0010
0000
0000
0001
0000
0100
0000
0010
0000
,  // measure 10
0001
0000
0100
0000
0010
0100
0000
0010
0000
0000
1000
0000
0100
0000
0010
0000
,  // measure 11
1000
0000
0100
0000
0001
0100
0000
0001
0000
0000
1000
0000
0010
0000
0100
0000
,  // measure 12
0001
0000
0100
0000
1000
0100
0000
1000
0000
0000
0100
0000
1000
0000
0010
0000
,  // measure 13
0100
0000
0001
0000
0100
0010
0000
0100
0000
0000
0001
0000
0010
0000
0001
0000
,  // measure 14
0100
0000
0010
0000
1000
0100
0000
1000
0000
0000
0010
0000
0100
0000
0001
0000
,  // measure 15
1000
0000
0100
0000
1000
0001
0000
1000
0000
0000
0010
0000
0100
0000
0010
0000
,  // measure 16
0100
0000
0000
0000
1000
0000
0100
0000
0010
0001
0000
0010
0000
0000
0100
0000
,  // measure 17
1100
0000
0000
0000
1000
0000
0010
0000
0100
0010
0000
0100
0000
0000
0001
0000
,  // measure 18
0101
0000
0000
0000
1000
0000
0100
0000
0010
0100
0000
0010
0000
0000
0100
0000
,  // measure 19
1001
0000
0000
0000
0010
0000
0100
0000
0010
0100
0000
0010
0000
0000
1000
0000
,  // measure 20
0001
0000
1000
0000
0010
0000
0100
0000
0001
0010
0000
0001
0000
0000
0100
0000
,  // measure 21
0010
0000
1000
0000
0100
0000
1000
0000
0010
0100
0000
0010
0000
0000
1000
0000
,  // measure 22
0100
0001
0100
1000
0100
1000
0001
0100
,  // measure 23
0010
1000
0020
0000
0000
0000
0000
0000
,  // measure 24
0030
0000
1000
0100
0010
0100
2000
0000
,  // measure 25
3001
0000
0100
0010
1000
0010
0200
0000
,  // measure 26
0301
0000
0010
0100
0010
0000
1000
0001
,  // measure 27
1000
0000
0010
1000
0010
0000
0100
0001
,  // measure 28
0100
0000
0010
1000
0100
0010
0002
0000
,  // measure 29
0103
0000
0010
1000
0010
0100
0020
0000
,  // measure 30
1030
0000
0100
0010
1000
0000
0100
0010
,  // measure 31
0001
0000
0000
0000
0110
0000
0000
0000
1001
0000
0000
0000
0110
0000
0000
0100
,  // measure 32
0010
0110
1000
0100
0010
0001
0100
1000
,  // measure 33
0100
0001
0010
0100
1000
0001
1000
0010
,  // measure 34
0001
0010
1000
0100
0010
0001
0100
1000
,  // measure 35
0100
0001
1000
0100
0001
0100
1000
0010
,  // measure 36
0100
0010
1000
0001
0010
0001
0100
0010
,  // measure 37
1000
0100
0010
0100
1000
0001
0100
1000
,  // measure 38
0100
0001
1000
0100
0010
0001
0100
0010
,  // measure 39
0001
0100
0010
1000
0100
0010
0100
1000
,  // measure 40
0001
0000
0100
0000
0110
0000
1000
0000
0001
0000
0100
0000
0010
0000
0100
0010
,  // measure 41
0000
0000
0110
0000
0100
0000
0001
0000
1000
0000
0100
0000
1000
0000
0010
0100
,  // measure 42
0000
0110
0100
0001
0010
0001
0100
0010
,  // measure 43
1000
0100
1000
0010
1000
0010
0100
0001
,  // measure 44
0100
0000
0001
0000
0010
0000
0100
0000
1000
0000
0001
0000
1000
0000
0100
0010
,  // measure 45
0000
0000
0110
0000
0100
0000
1000
0000
0001
0000
0100
0000
0001
0000
0100
0010
,  // measure 46
0000
0110
0100
0001
0010
0100
1000
0010
,  // measure 47
0100
0000
0010
0000
0000
0000
0010
0000
1000
0001
0000
1000
0000
0000
0010
0000
,  // measure 48
0100
0000
0010
0000
1000
0100
1000
0100
1000
0000
0000
0000
0001
0000
0000
0000
,  // measure 49
0000
1000
0100
0001
,  // measure 50
0000
1100
0100
0010
,  // measure 51
0001
0100
0010
0100
,  // measure 52
0001
0000
0000
0000
0100
0010
0100
0010
0100
0000
0000
0000
0001
0000
0000
0000
,  // measure 53
0000
0000
0010
0100
1000
0010
0100
0000
,  // measure 54
0000
0000
1000
0100
0001
0100
1000
0010
,  // measure 55
0001
0000
0010
0000
1000
0100
1000
0000
0001
1000
0001
0000
0100
0001
0100
0000
,  // measure 56
0001
1000
0001
1000
0001
0000
0000
0000
0000
0000
0000
0000
0000
0000
0000
0000
,  // measure 57
0000
0000
0000
0000
2000
0000
0000
0100
0000
0000
0010
0000
0000
0100
0000
0000
,  // measure 58
3001
0000
0010
0100
2000
0000
0000
0100
0000
0000
0010
0000
0000
0100
0000
0000
,  // measure 59
3001
0000
0010
0100
2000
0000
0000
0100
0000
0000
0010
0000
0000
0100
0000
0000
,  // measure 60
3001
0000
0010
0100
2000
0000
0000
0100
0000
0000
0010
0000
0000
0100
0000
0000
,  // measure 61
3001
0000
0010
0100
0002
0000
0000
1000
0000
0000
0100
0000
0000
1000
0000
0000
,  // measure 62
0103
0000
1000
0001
2000
0000
0000
0001
0000
0000
0100
0000
0000
0001
0000
0000
,  // measure 63
3100
0000
0001
1000
0002
0000
0000
0100
0000
0000
1000
0000
0000
0100
0000
0000
,  // measure 64
1003
0000
0001
1000
0001
0000
0000
0110
0000
0000
1000
0000
0000
0100
0010
0000
,  // measure 65
0001
0010
0100
1000
0001
0000
1000
0000
0100
0000
0010
0000
0100
0000
1000
0000
,  // measure 66
0001
0100
0010
0100
0001
1000
0100
0010
,  // measure 67
0001
1000
0010
0001
0010
1000
0100
0010
,  // measure 68
0001
0100
1000
0100
0001
0010
0100
1000
,  // measure 69
0010
0100
0010
1000
0010
1000
0001
0010
,  // measure 70
0100
1000
0010
0001
0010
0001
1000
0100
,  // measure 71
0010
0001
1000
0010
0100
0010
0001
0010
,  // measure 72
0100
0010
1000
0100
1000
0100
0001
0100
,  // measure 73
0001
0100
2002
0000
0000
0000
0000
0000
,  // measure 74
3003
0000
0000
0000
;
