#TITLE:Censored!!;
#SUBTITLE:;
#ARTIST:t+pazolite;
#TITLETRANSLIT:;
#SUBTITLETRANSLIT:;
#ARTISTTRANSLIT:;
#GENRE:;
#CREDIT:;
#BANNER:censored-bn.png;
#BACKGROUND:censored-bg.png;
#LYRICSPATH:;
#CDTITLE:arsa-cd.png;
#MUSIC:Censored!!.ogg;
#OFFSET:-1.154000;
#SAMPLESTART:30.691999;
#SAMPLELENGTH:12.000000;
#SELECTABLE:YES;
#BPMS:0.000000=97.500000
,32.000000=195.000000
,60.000000=97.500000
,62.000000=390.000000
,317.000000=195.000000
,380.000000=390.000000
,762.000000=195.000000
,793.000000=390.000000
,920.000000=195.000000
,948.000000=97.500000
,950.000000=390.000000
;
#STOPS:188.000000=0.180000,
380.000000=0.160000,
457.000000=0.300000,
633.000000=0.180000,
793.000000=0.160000,
870.000000=0.300000
;
#BGCHANGES:;
#KEYSOUNDS:;
#ATTACKS:;

//---------------dance-single - ----------------
#NOTES:
     dance-single:
     :
     Beginner:
     6:
     0.205528,0.381094,0.018327,0.219928,0.000000,262.000000,4.000000,48.000000,0.000000,0.000000,0.000000,0.205528,0.381094,0.018327,0.219928,0.000000,262.000000,4.000000,48.000000,0.000000,0.000000,0.000000:
0000
0000
0000
0000
,
0000
0000
0000
0000
,
0000
0000
0000
0000
,
0000
0000
0000
0000
,
0010
0010
0010
0000
,
0100
0100
0100
0000
,
0001
0000
1000
0000
,
0001
0000
1000
0000
,
0020
0000
0000
0000
,
0000
0000
0000
0000
,
0000
0000
0000
0000
,
0000
0000
0000
0030
,
0100
0000
0000
0100
,
0100
0000
0000
0100
,
0100
0000
0000
0100
,
0200
0000
0000
0300
0010
0000
0000
0000
,
0000
0000
0010
0000
,
0000
0000
0010
0000
,
0000
0000
0000
0000
,
0000
0000
0001
0000
,
0000
0000
0001
0000
,
0000
0000
1000
0000
,
0000
0000
1000
0000
,
0000
0000
0001
0000
,
0000
0000
0001
0000
,
0000
0000
0001
0000
,
0000
0000
0000
0000
,
0000
0000
1000
0000
,
0000
0000
1000
0000
,
0000
0000
2000
0000
,
0000
0000
0000
0000
,
3000
0000
0010
0000
,
0000
0000
0100
0000
,
0000
0000
0010
0000
,
0000
0000
0000
0000
,
0000
0000
0100
0000
,
0000
0000
0010
0000
,
0000
0000
0100
0000
,
0000
0000
0010
0000
,
0000
0000
1000
0000
,
0000
0000
0001
0000
,
0000
0000
1000
0000
,
0000
0000
0000
0000
,
0000
0000
0001
0000
,
0000
0000
0001
0000
,
0000
0000
0002
0000
,
0000
0000
0000
0000
,
0003
1000
0000
0000
,
0000
0001
0000
0000
,
0000
0010
0000
0010
,
0000
0010
0000
0000
,
0000
1000
0000
0000
,
0000
0001
0000
0000
,
0000
0100
0000
0100
,
0000
0100
0000
0000
,
0000
0010
0000
0000
,
0000
0100
0000
0000
,
0000
0010
0000
0000
,
0000
0100
0000
0000
,
0000
0020
0000
0000
,
0000
0030
0000
0000
,
0000
1000
0000
0000
,
0000
0001
0000
0000
,
0000
2000
0000
0000
,
0000
3100
0000
0000
,
0000
0002
0000
0000
,
0000
0103
0000
0000
,
0000
1000
0000
0000
,
0000
0001
0000
0000
,
0000
1000
0000
0000
,
0000
0001
0000
0000
,
0000
0020
0000
0000
,
0000
0000
0000
0030
,
0000
0020
0000
0000
,
0000
0000
0000
0030
,
0000
0020
0000
0000
,
0000
0000
0000
0000
,
0000
0030
0000
0000
,
0000
0000
0000
0000
,
0000
0200
0000
0000
,
0000
0000
0000
0000
,
0000
0000
0000
0000
,
0000
0000
0000
0000
,
0300
0000
0010
0000
,
0010
0000
0010
0000
,
0010
0000
1000
0000
,
0001
0000
1000
0000
,
0001
0001
0000
0001
,
0000
0001
0000
0000
,
0000
1000
0000
1000
,
0000
1000
0000
0000
,
0000
0002
0000
0003
,
0000
2000
0000
3000
,
0000
0010
0000
0100
,
0000
0010
0010
0010
,
0000
0100
0000
0000
,
0000
0100
0000
0000
,
0000
0010
0000
0000
,
0000
0010
0000
0000
,
0000
0001
0000
0000
,
0000
1000
0000
0000
,
0000
0002
0000
0000
,
0000
0003
0000
0000
,
0000
1000
0000
0000
,
0000
1000
0000
0000
,
0000
0001
0000
0000
,
0000
0001
0000
0000
,
0000
1000
0000
0000
,
0000
0001
0000
0000
,
0000
2000
0000
0000
,
0000
3000
0000
0000
,
0000
0010
0000
0000
,
0000
0010
0000
0000
,
0000
0010
0000
0010
,
0000
0010
0000
1000
,
0000
0000
0000
0001
,
0000
0000
0000
1000
,
0000
0000
0000
0001
,
0000
0000
0000
2000
,
0000
0000
0000
0000
,
0000
3000
0000
0002
,
0000
0000
0000
0000
,
0000
0003
0000
0010
,
0000
0000
0000
0100
,
0000
0000
0000
0020
,
0000
0000
0000
0000
,
0000
0030
0000
2002
,
0000
0000
0000
0000
,
0000
0000
0000
3003
,
0000
0000
0000
0000
,
0000
0000
0000
0000
,
0000
0000
0000
0000
,
0000
0000
0000
0000
,
0000
0000
0000
0000
,
0000
0000
0000
0010
,
0000
0000
0000
0010
,
0000
0000
0000
0100
,
0000
0000
0000
0100
,
0000
0000
0000
0010
,
0000
0000
0000
0100
,
0000
0000
0000
0020
,
0000
0000
0000
0000
,
0000
0030
0000
1000
,
0000
0000
0000
1000
,
0000
0000
0000
1000
,
0000
0000
0000
0000
,
0000
0000
0000
0001
,
0000
0000
0000
0001
,
0000
0000
0000
0001
,
0000
0000
0000
1000
,
0000
0000
0000
0010
,
0000
0000
0000
0010
,
0000
0000
0000
0010
,
0000
0000
0000
0000
,
0000
0000
0000
0100
,
0000
0000
0000
0010
,
0000
0000
0000
0100
,
0000
0000
0000
0010
,
0000
0000
1000
0000
,
0000
0000
0001
0000
,
0000
0000
0100
0000
,
0100
0000
0100
0000
,
0000
0000
0001
0000
,
0000
0000
1000
0000
,
0000
0000
0010
0000
,
0010
0000
0010
0000
,
0000
0000
1000
0000
,
0000
0000
0001
0000
,
0000
0000
1000
0000
,
0000
0000
0001
0000
,
0000
0000
2000
0000
,
0000
0000
3000
0000
,
0000
0000
0010
0000
,
0000
0000
0100
0000
,
0000
0000
0020
0000
,
0000
0000
0031
0000
,
0000
0000
2000
0000
,
0000
0000
3100
0000
,
0000
0000
0010
0000
,
0000
0000
0001
0000
,
0000
0000
0010
0000
,
0000
0000
0001
0000
,
0000
0000
0200
0000
,
0000
0000
0000
0000
,
0300
0000
0200
0000
,
0000
0000
0000
0000
,
0300
0000
0200
0000
,
0000
0000
0000
0000
,
0300
0000
0020
0000
,
0000
0000
0000
0000
,
0030
0000
1000
0000
,
1000
0000
1000
0000
,
0000
0000
0001
0000
,
0001
0000
0001
0000
,
0000
0000
0020
0000
,
0030
0000
0200
0000
,
0300
0000
0010
0000
,
0100
0000
0010
0010
,
0010
0000
0100
0000
,
0000
0000
1000
0000
,
0000
0000
0100
0000
,
0000
0000
1000
0000
,
0000
0000
0010
0000
,
0000
0000
0100
0000
,
0000
0000
0020
0000
,
0000
0000
0030
0000
,
0000
0000
0001
0000
,
0000
0000
0010
0000
,
0000
0000
0001
0000
,
0000
0000
0010
0000
,
0000
0000
0100
0000
,
0000
0000
1000
0000
,
0000
0000
0020
0000
,
0000
0000
0030
0000
,
0000
0000
0001
0000
,
0000
0000
1000
0000
,
0000
0000
0010
0000
,
0010
0000
0010
0000
,
0100
0000
0000
0000
,
0100
0000
0000
0000
,
0010
0000
0000
0000
,
0010
0000
0000
0000
,
0002
0000
0000
0000
,
0000
0000
0003
0000
,
2000
0000
0000
0000
,
0000
0000
3000
0000
,
0010
0000
0000
0000
,
0100
0000
0000
0000
,
0010
0000
0000
0000
,
0100
0000
0000
0000
,
0020
0000
0000
0000
,
0230
0000
0000
0000
,
0320
0000
0000
0000
,
0230
0000
0000
0000
,
0301
0000
0000
1000
,
1000
0000
0000
0010
,
0010
0000
0000
0010
,
0020
0000
0000
0030
0100
0000
0000
0000
,
0000
0000
0100
0000
,
0000
0000
0100
0000
,
0000
0000
0000
0000
,
0000
0000
0001
0000
,
0000
0000
0001
0000
,
0000
0000
1000
0000
,
0000
0000
1000
0000
,
0000
0000
0010
0000
,
0000
0000
0010
0000
,
0000
0000
0010
0000
,
0000
0000
0000
0000
,
0000
0000
1000
0000
,
0000
0000
0001
0000
,
0000
0000
2000
0000
,
0000
0000
0000
0000
,
3000
0000
0010
0000
,
0000
0000
0100
0000
,
0000
0000
0010
0000
,
0010
0000
0010
0000
,
0000
0000
0100
0000
,
0000
0000
0010
0000
,
0000
0000
0100
0000
,
0100
0000
0100
0000
,
0000
0000
0001
0000
,
0000
0000
0010
0000
,
0000
0000
0100
0000
,
0000
0000
1000
0000
,
0000
0000
0010
0000
,
0000
0000
0100
0000
,
0000
0000
0001
0000
,
0000
0000
0010
0000
,
0000
0000
0220
0000
,
0000
0000
0000
0000
,
0330
0000
2002
0000
,
0000
0000
0000
0000
,
3003
0000
0220
0000
,
0000
0000
0000
0000
,
0330
0000
2000
0000
,
0000
0000
0002
0000
,
0000
3003
0000
0000
;

//---------------dance-single - ----------------
#NOTES:
     dance-single:
     :
     Easy:
     11:
     0.521675,0.889220,0.384874,0.270328,0.000000,654.000000,84.000000,59.000000,0.000000,0.000000,0.000000,0.521675,0.889220,0.384874,0.270328,0.000000,654.000000,84.000000,59.000000,0.000000,0.000000,0.000000:
0000
0000
0000
0000
,
0000
0000
0000
0000
,
0000
0000
0000
0000
,
0000
0000
0000
0000
,
1000
0001
0010
0010
,
0001
1000
0010
0010
,
0100
0001
0010
0100
,
1000
0010
0100
0001
,
0020
0000
0000
0000
,
0000
0000
0000
0000
,
0000
0000
0000
0000
,
0000
0000
0000
0030
,
1001
1001
1001
0100
,
0110
0110
0110
1000
,
1100
1100
0101
0101
,
2002
0000
0000
3003
0100
0000
0000
0000
,
0010
0000
0001
0000
,
0001
0000
0100
0000
,
0010
0000
1000
0000
,
1000
0000
0100
0000
,
0010
0000
0100
0000
,
1000
0000
0010
0000
,
0010
0000
0010
0000
,
0010
0000
1000
0000
,
0001
0000
0010
0000
,
0010
0000
0001
0000
,
0100
0000
0010
0000
,
0010
0000
1000
0000
,
0100
0000
0010
0000
,
0010
0000
0001
0010
,
0001
0010
0100
1000
,
0020
0000
1030
0000
,
0100
0000
0001
0100
,
0001
0000
0010
0000
,
0100
0000
1000
0000
,
0001
0000
1000
0000
,
0100
0000
0010
0100
,
0010
0000
0010
0001
,
0000
1000
0000
0001
,
1000
0000
0001
0000
,
0100
0000
0010
0100
,
0010
0000
1000
0000
,
0100
0000
0010
0000
,
0001
0000
2000
0000
,
3002
0000
2003
0000
,
3020
0000
0130
1000
,
0001
1000
0010
0100
,
0000
0110
0000
0110
,
0000
1001
0000
1001
,
0000
1000
0000
0100
,
0000
0001
0010
1000
,
0000
0110
0000
0110
,
0000
1001
0000
1001
,
0000
0001
0000
0010
,
0000
1000
0100
0020
,
0000
0031
0000
0100
,
0000
0001
0000
0010
,
0000
0100
0000
0010
,
0000
0001
0000
0100
,
0000
0020
0000
0000
,
0000
1030
0000
0000
,
0001
0100
0100
0010
,
1000
0100
0010
0020
,
0000
0031
0000
1000
,
0000
0010
0100
0020
,
0000
1030
0000
0001
,
0000
0100
0010
0200
,
0000
0301
1000
0100
,
0000
1000
0001
0100
,
0000
0010
0100
0010
,
0100
2002
0000
3003
,
0000
1020
0000
0000
,
0100
0000
0000
1030
,
0000
0021
0000
0000
,
0100
0000
0000
0031
,
0000
1000
0010
0100
,
0000
0001
0010
0100
,
0000
0220
0000
0000
,
0000
0000
0000
0330
,
0000
2002
0000
0000
,
0000
0000
0000
0000
,
0000
0000
0000
0000
,
0000
0000
0000
0000
,
3003
0100
0010
1000
,
0010
0100
0001
0010
,
0100
1000
0010
0100
,
0010
1000
0001
1001
,
1001
0000
0010
0100
0010
0000
0100
0010
,
0100
1000
0100
0001
,
0010
0000
0100
0010
0100
0000
0010
0100
,
0010
0001
0100
2000
,
3000
0000
0010
0100
0001
0000
0010
0000
,
0100
0000
0010
0001
0100
0000
0010
0000
,
0100
0000
0010
1000
0100
0000
0010
0001
,
0100
0110
1001
0110
,
1001
0100
0010
1000
,
0010
0100
0000
0100
,
0000
0001
0010
0100
,
0010
0001
0000
0001
,
0000
0100
0010
0000
,
0010
0000
0010
0000
,
1000
0000
0001
0000
,
1000
0000
0001
1001
,
0000
1000
0001
0100
,
0001
1000
0000
1000
,
0000
0001
1000
0100
,
1000
0001
0000
0001
,
0000
0010
0100
0000
,
0100
0000
0100
0000
,
0100
0020
0000
0000
,
0000
0002
0000
0033
,
0000
1000
0000
0100
,
0000
0001
0000
0100
,
0000
1100
0000
0101
,
0000
1001
0000
0010
,
0100
0000
0100
0000
,
0100
0000
0100
0010
,
0000
0001
0000
2002
,
0000
3003
0000
1000
,
0000
0100
0000
0010
,
0000
0001
0000
0100
,
0000
0010
0000
0100
,
0000
0010
0000
0001
,
0010
0100
0000
1000
,
0010
0100
0000
0010
,
0000
0100
0000
0010
,
0000
0100
0000
1001
,
0000
0000
0000
0100
,
0000
0000
0010
0000
,
0010
0000
0010
0020
,
0000
0030
0000
1000
,
0000
0000
0000
0001
,
0000
0000
1000
0000
,
0001
0000
1000
2000
,
0000
3000
0000
0100
,
0000
0100
0000
0010
,
0000
0010
0000
0001
,
0000
1000
0000
0001
,
0000
1000
0000
0010
,
0000
0100
0000
0001
,
0000
0010
0000
0220
,
0000
0000
0000
0000
,
0000
0330
0000
1000
,
0000
0001
0000
0100
,
0000
0100
0000
0010
,
0000
1000
0000
0001
,
0000
0001
0000
0010
,
0000
0100
0000
1000
,
0000
0010
0000
0100
,
0000
0100
0000
0100
,
0000
0100
0000
0001
,
0000
0010
0000
0001
,
0000
0001
0000
1000
,
0000
0010
0000
1000
,
0000
1000
0000
0100
,
0000
0010
0000
0001
,
0000
1000
0000
0010
,
0100
0010
0100
0001
,
0010
0000
0110
0000
,
0110
0000
1001
0000
,
1001
0000
0100
0000
,
0010
0000
0001
0100
,
1000
0000
1001
0000
,
1001
0000
0110
0000
,
0110
0000
0100
0000
,
0001
0000
0010
0100
,
2000
0000
3100
0000
,
0010
0000
0001
0000
,
0100
0000
0001
0000
,
0100
0000
1000
0000
,
0010
0000
0002
0000
,
0000
0000
0103
0000
,
0000
0010
1000
1000
,
0001
0001
0010
0100
,
0020
0000
0031
0000
,
1000
0000
0010
0100
,
0020
0000
1030
0000
,
0100
0000
0010
0001
,
0200
0000
0310
1000
,
0100
0000
0010
0001
,
0100
0000
0001
1000
,
0001
1000
0220
0000
,
0330
0000
1200
0000
,
0000
0010
0000
0000
,
1300
0000
0201
0000
,
0000
0010
0000
0000
,
0301
0000
1000
0100
,
0010
0000
0001
0100
,
0010
0000
2002
0000
,
0000
0000
0000
0000
,
3003
0000
0000
0000
0010
0100
0010
0000
,
0100
0010
0100
0000
0001
0000
0010
0000
,
1000
0000
0001
0000
0100
0010
0100
0000
,
0010
0100
0010
0000
1000
0000
0100
0000
,
0002
0000
0003
0000
0010
0100
1000
0000
,
0010
0000
0100
0000
0010
1000
0100
0000
,
0010
0000
0100
0000
0010
0001
1000
0000
,
0010
1000
0001
0000
0110
0000
1001
0000
,
0110
1001
0100
0010
,
1000
0010
0100
0000
,
0100
0000
0001
0010
,
0100
1000
0010
0000
,
0010
0000
1000
0001
,
0000
0010
0000
0100
,
0000
0010
0000
0001
,
0000
1000
0000
0010
,
0110
0000
1000
0001
,
0100
0001
1000
0000
,
1000
0000
0001
0010
,
0100
1000
0010
0000
,
0010
0000
1000
0100
,
0000
0100
0000
0100
,
0000
0100
2000
0000
,
0000
0000
0200
0000
,
3300
0000
0001
0000
,
0010
0000
1000
0000
,
0001
0000
1100
0000
,
0101
0000
1001
0000
,
0100
0010
0000
0001
,
0000
1000
0000
0100
,
0010
0000
0001
0000
,
2002
0000
3003
0000
,
1000
0000
0100
0000
,
1000
0000
0001
0000
,
0100
0000
0001
0000
,
0010
0000
0100
0000
,
1000
0010
0100
0000
,
0001
0010
0100
0000
,
1000
0000
0001
0000
,
1000
0000
0001
0000
,
0220
0000
0000
0330
,
1000
0100
0001
0010
,
2020
0000
0000
3030
,
0001
0010
1000
0100
,
0110
0110
0110
0001
,
1001
1001
1001
0010
,
1000
0100
0001
0010
,
2002
0000
0000
3003
0100
0000
0000
0000
,
0010
0000
1000
0000
,
1000
0000
0010
0000
,
0100
0000
0001
0000
,
0001
0000
0010
0000
,
0100
0000
0010
0000
,
0001
0000
1000
0000
,
1000
0000
1000
0000
,
1000
0000
0001
0000
,
0010
0000
0001
0000
,
0100
0000
0010
0000
,
1000
0000
0100
0000
,
1000
0000
0010
0000
,
0100
0000
0001
0000
,
1000
0000
0220
0000
,
0000
0000
0000
0000
,
0330
0000
1100
0000
,
1100
0000
0101
0000
,
0101
0000
1000
0000
,
0010
0000
0001
0010
,
1000
0000
0011
0000
,
0011
0000
1010
0000
,
1010
0000
1000
0000
,
0100
0000
0001
0010
,
1000
0000
0001
0100
,
0001
0100
0001
0100
,
0001
0000
1000
0100
,
1000
0100
1000
0100
,
1000
0000
0010
0100
,
0010
0100
0001
1000
,
0001
1000
0010
0100
,
0010
0100
0020
0000
,
0130
0000
1001
0000
,
0000
0110
0000
0000
,
1001
0000
0110
0000
,
0000
1001
0000
0000
,
0110
0000
0000
0000
1000
0000
0000
0100
,
0000
0000
0010
0000
0000
0001
0000
0000
,
0100
0000
0220
0000
,
0000
0330
2002
0000
,
0000
3003
0000
0000
;

//---------------dance-single - ----------------
#NOTES:
     dance-single:
     :
     Medium:
     15:
     0.808367,1.000000,0.504002,0.329892,0.004582,1053.000000,110.000000,72.000000,0.000000,0.000000,0.000000,0.808367,1.000000,0.504002,0.329892,0.004582,1053.000000,110.000000,72.000000,0.000000,0.000000,0.000000:
0000
0000
0000
0000
,
0000
0000
0000
0000
,
0000
0000
0000
0000
,
0000
0000
0000
0000
,
1000
0100
0010
0100
1000
1000
0010
0010
,
0100
0001
0010
0001
0100
0010
1000
0000
,
0001
0010
0001
0000
0100
0000
0010
0000
1000
0100
1000
0000
0010
0000
0100
0000
,
0001
1000
0100
0010
1000
0001
0010
0010
,
1001
0000
0000
0100
0000
0000
0010
0000
,
1000
0000
0000
0001
0000
0000
0010
0000
,
0001
0000
0000
0100
0000
0000
0010
0000
,
1000
0000
0000
0100
0000
0000
0010
0000
,
1001
0000
0000
1001
0000
0000
1001
0000
,
0011
0000
0000
0011
0000
0000
0011
0000
,
1100
1001
0101
0110
,
2000
3020
0230
0301
1000
0000
0100
0000
,
0010
0001
0100
0010
,
1000
1000
0001
0010
,
0001
0100
0010
1000
,
0010
0000
0100
0001
,
0010
0001
0100
0010
,
1000
0100
0010
0001
,
0010
0001
1000
0100
,
1000
0000
0100
0001
,
0010
0001
0100
0010
,
1000
1000
0100
0010
,
0100
1000
0010
0100
,
0001
0000
0010
0100
,
0010
0001
1000
0010
,
1000
0000
0001
0000
0010
0100
0010
0100
,
0010
0001
1000
0001
,
2002
3003
1000
0001
,
0010
0001
1000
0010
,
0100
0100
0001
0010
,
0001
0100
0010
1000
,
0001
0000
0010
0100
,
1000
0100
0010
0001
,
0100
0010
1000
1100
,
0000
0000
0011
0000
0000
0000
0001
1000
,
0001
0000
0100
1000
,
0010
0100
0010
1000
,
0100
0010
0001
0100
,
0001
1000
0100
1000
,
0010
0000
0100
0100
,
0010
0010
1000
1000
,
0001
0001
0010
0100
,
1000
0010
0100
0001
,
0010
1100
0001
0100
,
1000
0000
0100
0000
0001
1000
0000
0000
,
1000
0100
0001
0100
,
1000
0010
0100
0001
,
0000
0001
0010
0100
,
0010
0000
0001
0000
0100
0010
0000
0000
,
0010
1000
0100
1000
,
0010
0100
0010
2002
,
3003
1000
0010
0100
,
0001
0010
0100
1001
,
0000
0010
0100
0010
,
0100
0001
0010
0100
,
1000
0120
0000
0000
,
0000
1030
0000
0001
,
0010
0100
0100
0010
,
0001
0000
0100
0000
0010
0000
1000
0001
,
1000
0001
1000
0000
0010
0100
0010
0000
,
1000
0000
0010
0100
0010
0000
1000
0000
,
0100
0000
0001
0000
0010
0100
0010
0000
,
0001
0000
0010
0100
0010
0000
0002
0000
,
0000
1003
0100
0001
,
1000
0010
0001
0100
,
0010
1000
0001
1000
,
0001
0220
0000
0330
,
0000
0000
1100
0000
0000
0011
0000
0000
,
0101
0000
0000
1010
0000
0000
1001
0000
,
0010
0000
1001
0000
0000
1100
0000
0000
,
0011
0000
0000
0101
0000
0000
1010
0000
,
0100
1010
1000
0100
,
0001
0010
0001
0110
,
0100
2002
0000
0000
,
0000
0000
0000
3003
,
0000
2000
0000
0000
,
0000
3020
0000
0000
,
0000
0230
0000
0000
,
0000
0302
0000
0000
,
0000
1003
1100
0001
,
0101
1000
1010
0001
,
0011
0000
1000
0100
1000
0000
0001
0100
,
0001
0000
0010
0100
0010
0001
1000
0010
,
0100
0000
1000
0100
0001
0100
1000
0010
,
0001
0010
2000
0000
3200
0000
0320
0000
,
0032
0000
1003
0010
0001
0010
1000
0100
,
0001
0100
2000
0000
3020
0000
0230
0000
,
0000
0000
0301
0010
0001
0100
0010
0100
,
0010
1000
0100
1000
0010
0100
0002
0000
,
1003
0000
0100
0010
0001
0100
0010
1000
,
0001
0010
1001
0000
0110
0000
1001
0000
,
0110
0000
1000
0000
0001
0010
0001
0000
,
1000
0000
0010
0000
0000
0010
0000
0000
,
0010
0000
1000
0000
0001
0010
0001
0000
,
0100
0000
0001
0010
0001
0000
1000
0000
,
0001
0000
1000
0000
1000
0010
0000
0000
,
0010
0001
0000
0000
0001
0100
0000
0000
,
0100
1000
0000
0000
0001
1000
0000
0000
,
0010
0100
0000
0000
0110
0000
1001
0000
,
0000
0000
1000
0000
0100
0010
0100
0000
,
1000
0000
0010
0000
0000
0010
0000
0000
,
0010
0000
0001
0000
0100
0010
0100
0000
,
0001
0000
0100
0010
0100
0000
0001
0000
,
1000
0000
0100
0000
0100
0010
0000
0000
,
0010
0001
0000
0000
0001
0100
0000
0000
,
0100
1000
0002
0000
0000
0000
0000
0000
,
0000
2000
0000
3003
,
0000
1000
0100
0010
,
0001
0100
0010
1000
,
0010
0100
0010
0100
,
0010
1001
0000
1000
,
0100
1000
0100
0001
,
0100
0001
0100
1000
,
0010
0001
0010
2002
,
0000
3003
0000
0100
,
0010
0000
1000
0000
0010
0000
0100
0010
,
0100
0010
0100
0000
0010
0000
0001
0000
,
0010
0100
0010
0002
,
0000
2003
0000
3100
,
0010
1000
0010
0100
,
0001
0010
0001
0100
,
0010
0100
0010
2000
,
0000
3002
0000
0023
,
0000
0000
0100
0100
,
0130
0000
1001
0000
,
0110
0000
1010
0220
,
0000
0330
0000
0102
,
0000
0000
1000
1000
,
1003
0000
0011
0000
,
1010
0000
1100
0220
,
0000
0330
0000
1000
,
0100
0010
0100
1000
,
0100
0010
0100
0001
,
0100
0010
0100
0001
,
0100
0010
0100
0001
,
0010
0100
1000
0010
,
0100
0001
0010
1000
,
0001
1000
0001
1000
,
0001
1000
0001
1000
,
0100
0010
0100
1000
,
0010
0100
0100
0001
,
0010
0001
0100
0010
,
1000
0001
0000
1000
,
0010
0100
0010
1000
,
0100
0010
0100
0001
,
0101
0000
1010
0000
,
0010
0100
0010
0000
0000
0000
1000
0000
,
0100
0010
0001
0100
,
0001
0010
0010
0001
,
0100
1000
0100
0001
,
0010
1000
0000
0010
,
0100
0010
1000
0001
,
0010
0000
0001
0000
1000
0000
0100
0010
,
0100
0010
0100
0000
1000
0000
0001
0000
,
0010
0100
1001
1000
,
0100
0000
0001
0000
0100
0000
1000
0001
,
0000
0001
0010
0001
,
0100
0010
1000
0100
,
0010
0000
0001
0100
,
0010
0000
1000
0000
0010
0000
0100
0001
,
0000
0001
0010
0100
,
1000
0010
0100
0010
,
2000
0000
3010
0100
,
0010
1000
0100
0010
,
0011
0000
1000
0010
,
1000
0001
0010
0001
,
1000
0001
1020
0000
,
0000
0000
0130
0000
,
0001
0010
0100
0100
,
0010
1000
0010
0100
,
0001
1000
0001
1000
0001
0000
0010
0100
,
0010
0000
0001
0000
0010
0100
0010
0000
,
0001
0000
0001
0000
1000
0000
0010
0100
,
0010
0000
1000
0000
0010
0100
0010
0000
,
2000
0000
3001
0010
,
1000
0001
0100
1000
,
0010
0100
0001
1000
,
0001
1000
0220
0000
,
0330
0000
0000
0000
0011
0000
0000
0101
,
0000
0000
1010
0000
0000
1100
0000
0000
,
0110
0000
0100
0000
1001
0000
0000
1100
,
0000
0000
0011
0000
0000
0101
0000
0000
,
1010
0100
1001
1000
,
0100
0001
0100
1000
,
0110
0100
2002
0000
,
0000
0000
0000
0000
,
3003
0000
0000
0000
1000
0100
0001
0100
,
1000
0010
0001
0010
2000
0000
3020
0000
,
0230
0000
0302
0000
1003
0100
0001
0100
,
1000
0010
0001
0010
2000
0000
3200
0000
,
0320
0000
0000
0000
0031
0100
0010
1000
,
0010
0100
0001
1000
0100
0010
0100
1000
,
0020
0000
0130
0000
0001
1000
0100
1000
,
0001
0100
0010
1000
1001
0000
0110
0000
,
1001
0000
0110
0000
1000
0000
0001
0010
,
0001
0000
1000
0000
0100
0000
0000
0100
,
0000
0000
0100
0000
1000
0000
0010
0100
,
0010
0000
1000
0000
0010
0100
0010
0000
,
1000
0000
0001
0000
0010
0000
0010
0001
,
0000
0000
0001
0100
0000
0000
0100
1000
,
0000
0000
1000
0010
0000
0000
0100
0001
,
0000
0000
1000
0010
0000
0000
0110
0000
,
1001
0000
0000
0000
1000
0000
0001
0010
,
0001
0000
1000
0000
0010
0000
0000
0010
,
0000
0000
0010
0000
1000
0000
0100
0010
,
0100
0000
1000
0000
0100
0010
0100
0000
,
1000
0000
0010
0000
0100
0000
0100
0001
,
0000
0000
0001
0010
0000
0000
0010
1000
,
0000
0000
1000
0100
0020
0000
0000
0000
,
0000
0000
0200
0000
,
0330
0000
1000
0100
,
1000
0100
0001
0100
,
0001
0100
0010
1000
,
0001
0010
1001
0000
,
0100
0010
0100
0010
,
1000
0001
1000
0001
,
0010
0001
0100
0010
,
2002
0000
3003
0000
,
0100
0010
1000
0010
,
0100
0010
0100
0010
0100
0000
0001
0000
,
0010
0100
1000
0010
,
0200
0000
0320
0000
,
1030
0100
0001
0010
,
0001
0100
1000
0010
,
0100
0001
0010
0100
,
2000
0000
3002
0000
,
0103
0000
0000
0010
0000
0000
1000
0000
,
0001
0010
0100
1000
0010
0100
0001
1000
,
0010
0000
0000
0100
0000
0000
1000
0000
,
0001
0100
0010
1000
0001
0010
0100
1000
,
0110
0000
0000
0110
0000
0000
0110
0000
,
1001
0000
0000
1001
0000
0000
1001
0000
,
1010
1001
0011
1001
,
0002
0203
0320
1030
0001
0000
1000
0000
,
0100
1000
0010
0100
,
0001
0001
0010
0001
,
0100
0010
1000
0001
,
0010
0000
0100
1000
,
0100
0010
0100
1000
,
0001
0010
0001
0101
,
0000
0000
1010
0000
0000
0000
1000
0100
,
1000
0000
0001
0100
,
1000
0100
0001
0010
,
0100
0100
1000
0010
,
0100
1000
0001
0010
,
0001
0000
1000
0100
,
0010
1000
0100
0010
,
0001
0100
1000
0001
,
1000
0001
1000
0001
,
2000
0001
3001
0010
,
0100
0000
0001
0000
0100
0000
1000
0010
,
0000
0100
0010
0100
,
0001
1000
0100
0010
,
0010
0000
0001
1000
,
0010
0000
1000
0000
0001
0000
0010
0100
,
0000
0100
1000
0010
,
0100
0001
0010
0100
,
1000
0001
0010
0100
,
0010
0100
1000
0001
,
1000
0001
0010
0001
,
0010
0001
1000
0010
,
1000
0010
0100
0001
,
0010
1000
0010
0001
,
0100
0000
1000
0000
0010
0100
0010
0100
,
0010
0000
1000
0000
0001
0010
0100
0000
,
2002
0000
3003
0000
1010
0000
0000
0101
,
0000
0000
1010
0000
0000
0101
0000
0000
,
1001
0000
0100
0000
0011
0000
0000
1100
,
0000
0000
0011
0000
0000
1100
0000
0000
,
1001
0000
0100
0000
1010
0000
0000
0011
,
0000
0000
0101
0000
0000
1100
0000
0000
,
0110
0001
2002
0000
,
0000
3003
0220
0000
,
0000
0330
0000
0000
;

//---------------dance-single - ----------------
#NOTES:
     dance-single:
     :
     Hard:
     17:
     0.951059,1.000000,0.600221,0.270328,0.105382,1263.000000,131.000000,59.000000,0.000000,0.000000,0.000000,0.951059,1.000000,0.600221,0.270328,0.105382,1263.000000,131.000000,59.000000,0.000000,0.000000,0.000000:
0000
0000
0000
0000
,
0000
0000
0000
0000
,
0000
0000
0000
0000
,
0000
0000
0000
0000
,
1000
0010
0100
0001
1000
0000
0100
0000
0010
0000
0100
0000
1000
0000
0010
0000
,
0001
0100
0010
0100
0001
0000
0001
0000
0010
0000
0100
0000
1001
0000
0000
0000
,
1000
0100
0010
0000
0001
0000
0100
0000
0010
1000
0100
0000
0010
0000
0100
0000
,
0010
0001
0100
0000
0010
1000
0100
0000
0010
0001
1000
0010
0100
0000
0010
0000
,
1001
0000
0000
0100
0000
0000
0010
0000
0000
1000
0000
0000
0001
0000
0010
0000
,
1000
0000
0000
0001
0000
0000
0100
0000
0000
1000
0000
0000
0001
0000
0010
0000
,
1000
0000
0000
0010
0000
0000
0001
0000
0000
0100
0000
0000
1000
0000
0010
0000
,
0100
0000
0000
0010
0000
0000
1000
0000
0000
0001
0000
0000
0010
0000
0100
0000
,
1100
0000
0000
0011
0000
0000
0101
0000
0000
1010
0000
0000
0110
0000
0100
0000
,
1001
0000
0000
1100
0000
0000
0011
0000
0000
0101
0000
0000
1010
0000
0100
0000
,
1001
0000
0000
0110
0000
0000
0011
0000
0000
1100
0000
0000
1010
0000
0100
0000
,
0110
1000
0100
0010
1001
0000
0110
0000
1000
0000
0000
0000
0100
0000
0000
0000
,
0010
0100
1000
0010
,
0001
0010
1000
0100
,
0010
0001
0100
0010
,
0100
0001
0010
1000
,
0010
0001
0100
0010
,
1000
0000
0100
0000
0010
0001
0010
0000
,
0000
1100
0000
0000
1001
0000
1001
0000
,
1001
0100
0001
0010
,
0100
0010
0001
0100
,
0010
1000
0100
0010
,
0001
0100
1000
0100
,
0001
1000
0001
0000
0010
0000
0001
0000
,
0010
1000
0010
0001
,
0100
0000
1000
0000
0010
0100
0001
0100
,
0010
0000
1000
0100
0010
0000
0001
0100
,
0020
0000
1030
0100
,
0001
0010
0001
0100
,
1000
0010
0100
0001
,
0100
1000
0010
0100
,
0001
0010
0100
0010
,
0001
1000
0010
0001
,
0010
0000
1000
0000
0001
0010
0001
0000
,
1000
0010
1000
0000
0001
0010
0001
0100
,
0020
0000
0130
1000
,
0010
0100
0001
0010
,
0001
0100
1000
0010
,
0001
0010
1000
0100
,
0001
0000
0010
0000
0100
0001
0100
0000
,
0010
0100
0010
0000
1000
0001
1000
0000
,
0010
0100
0010
0000
0010
0001
0010
0100
,
1000
0000
0001
0000
1000
0010
0100
0000
,
0020
0030
0000
0000
1001
0000
0000
0000
0100
0000
0000
0000
0010
0000
0000
0000
,
1000
0000
0001
0000
0010
0100
0000
0100
,
0010
0000
0001
1000
0100
0000
0010
0000
,
1000
0010
0100
0020
,
0000
1030
0001
0010
,
0001
0000
1000
0000
0010
0100
0000
0100
,
0001
1000
0100
0001
,
0100
0000
1000
0000
0010
0000
0001
1000
,
0001
1000
0001
1000
0100
0000
0010
0000
,
0001
0100
0001
0000
0010
0000
0011
0000
,
0000
0001
0100
0010
,
1000
0010
0100
0110
,
0000
2002
0000
0000
,
0000
3003
0110
0000
0000
0000
1001
0000
,
0100
0010
0010
1000
,
0001
0000
0010
0000
0001
0000
0100
0010
,
0100
0010
0100
0000
0001
0010
0001
0000
,
0100
0000
0001
0010
0001
0000
0100
0010
,
1000
0000
0100
0000
1000
0010
1000
0000
,
0100
0000
1000
0010
1000
0000
0100
0000
,
0010
0000
0001
0000
0010
0001
0100
0000
,
0010
0000
0100
0001
0010
0000
0100
1000
,
0010
0100
0010
0100
,
0010
2002
0000
3003
,
0000
0000
1010
0000
0000
0101
0000
0000
,
0011
0000
0000
1100
0000
0000
1001
0000
,
0010
0000
1001
0000
0000
1100
0000
0000
,
0011
0000
0000
0001
0100
0010
1000
0000
,
0001
0000
1000
0100
0020
0000
0031
0100
,
0010
0100
0001
0010
0001
0010
0100
0000
,
1000
0020
0000
0000
,
0000
0000
0000
0000
,
0030
0200
0000
0302
,
0000
0023
0000
0230
,
0000
2300
0000
3020
,
0000
0230
0000
0302
,
0000
0000
0000
0000
1003
0100
1000
0000
0010
0000
0100
0000
0001
0000
0010
0000
,
0001
0000
0000
0000
0100
0010
0100
0000
0001
0000
0010
0000
0100
0000
1000
0000
,
0010
0000
0000
0000
1000
0100
1000
0000
0001
0000
0100
0000
1000
0000
0100
0000
,
0001
0000
0000
0000
0100
0010
0100
0000
0001
0000
0001
0000
0010
0000
0010
0000
,
1000
1000
0010
0001
0100
1000
0010
1000
,
0100
0001
0020
0000
0032
0000
0203
0000
,
2300
0000
3010
1000
0100
0001
0010
0001
,
0100
1000
0020
0000
2030
0000
3200
0000
,
0000
0000
1300
0010
0100
0010
1000
0001
,
0010
0000
0001
1000
0001
0000
0010
0000
0100
0000
1000
0000
0020
0000
0000
0000
,
0130
0000
1000
0100
0010
0001
1000
0010
,
0100
0001
0110
0000
1001
0000
0110
0000
,
1001
0000
0100
0000
0010
1000
0010
0000
,
0100
0000
0001
0010
0001
0010
0000
0000
,
0001
0000
0100
0000
0010
0100
0010
0000
,
1000
0000
0001
1000
0001
1000
0001
0000
,
1000
0010
0100
1000
,
0010
0100
0001
0010
,
0001
0100
1000
0100
,
0001
0100
1001
2002
,
3003
0000
0010
0000
0100
0001
0100
0000
,
0010
0000
1000
0100
1000
0100
0000
0000
,
0010
0000
0001
0000
1000
0010
1000
0000
,
0001
0000
0010
0100
0010
0100
0010
0000
,
0001
1000
0010
0100
,
0001
0010
0001
0100
,
1000
0000
0010
0100
0010
0100
0010
0100
,
0010
0100
0020
0000
0000
0000
0000
0000
,
0030
1000
0010
0100
,
0010
1000
0001
0010
,
0001
0101
0100
0110
,
0010
1010
0000
1000
,
0001
0100
0001
0000
1000
0100
1000
0000
,
0001
0010
0001
0000
1000
0010
1000
0000
,
0001
0010
0100
0000
1000
0010
0100
0000
,
0010
1001
0000
1000
,
0100
0000
0001
0000
0100
0000
1000
0010
,
1000
0001
1000
0010
1000
0000
0001
0000
,
0100
1000
0100
0002
,
0000
0000
0203
0000
0000
0000
0310
1000
,
0010
0000
0100
0001
0100
0000
0010
1000
,
0100
0010
0001
0100
0010
1000
0001
0000
,
0010
1000
0010
1001
,
0000
0110
0000
1001
,
0100
0000
0010
0100
,
0010
0000
1100
0000
,
0101
0000
1100
0001
,
0100
1000
0000
0001
,
0100
0000
0010
1000
,
0010
0000
0101
0000
,
1100
0000
0101
1000
,
0100
0001
0000
1000
,
0100
0010
0100
1000
,
0010
0100
0010
1000
,
0001
0010
0100
1000
,
0010
0100
0001
1000
,
0100
1000
0100
0001
,
0100
0001
0100
1000
,
0100
0001
0100
1000
,
0010
0001
0010
1000
,
0100
0010
0001
0100
,
0001
0010
0100
1000
,
0010
0100
0010
1000
,
0001
0000
0010
0001
0010
0000
1000
0000
,
0010
1000
0001
0010
,
0100
0000
1000
0000
0010
0000
0100
0001
,
0100
0000
0010
1000
0010
0000
0100
0001
,
1000
0100
0020
0000
0000
0000
0031
0000
,
1000
0010
1000
0100
,
0010
0100
1000
0001
,
0010
0100
0010
0001
,
1000
0000
0100
0000
0001
0000
0100
0010
,
0100
0000
0001
1000
0001
0000
0010
0001
,
0010
0000
0100
1000
0100
0000
0010
0100
,
0010
0001
1000
0000
0010
0000
0100
0010
,
0100
0000
0000
0000
0020
0030
0000
0000
1100
0000
0000
0000
0010
0000
0000
0000
,
0001
0000
0100
0000
0001
0000
0010
0100
,
0000
0100
1000
0000
0010
0100
0010
0000
,
0100
1000
0001
1000
,
0002
0000
1003
0100
,
0001
0000
0010
0000
0001
0000
0100
0010
,
0000
0010
1000
0000
0001
0000
1000
0000
,
0100
1000
0010
0100
,
1000
0001
1000
0001
1000
0001
0100
0000
,
0010
0001
0010
0001
,
1001
0000
1000
0001
,
0010
0001
0100
0010
,
1010
0000
0220
0000
,
0000
0000
0000
0330
1001
0000
0000
0000
,
1000
0100
0010
0001
,
0100
0010
0100
0001
,
0010
0100
0010
0100
0010
0000
0001
1000
,
0001
0000
0010
0000
0001
1000
0001
0000
,
0010
0100
1000
0000
0001
0000
0100
0010
,
0100
0000
0001
0000
0100
0010
0100
0000
,
0001
0000
0100
0000
1000
0000
0010
0100
,
0001
0000
1000
0000
0010
0100
0001
0000
,
1000
0100
0010
0000
0001
0000
1000
0000
,
0001
1000
0220
0000
,
0330
0000
0000
0000
1100
0000
0000
0011
,
0000
0000
0101
0000
0000
1010
0000
0000
,
1001
0000
0010
0000
1001
0000
0000
0101
,
0000
0000
1010
0000
0000
1000
0100
0010
,
0001
0000
1000
0000
1000
0001
0020
0000
,
0130
1000
0001
0100
0010
1000
0001
1000
,
0010
0100
0020
0000
,
0000
0000
0000
0000
,
0000
0000
0030
0000
1000
0100
0001
0010
,
0001
0100
1000
0010
0002
0000
0023
0000
,
2030
0000
3200
0000
0301
0100
1000
0010
,
1000
0100
0001
0010
2000
0000
3200
0000
,
0320
0000
0000
0000
0031
0100
0010
1000
,
0010
0000
0100
0000
0010
0000
1000
0001
1000
0000
0010
0000
0100
0000
0010
0000
,
2000
0000
3001
0000
0010
0100
0010
0001
,
1000
0010
0100
0001
0110
0000
1001
0000
,
0110
0000
1001
0000
0001
0000
1000
0100
,
1000
0000
0010
0000
0100
0001
0100
0001
,
0000
0000
0010
0000
0100
0000
1000
0001
,
1000
0000
0100
0000
0010
0001
0010
0001
,
0010
0100
1000
0010
,
0001
0100
0001
0010
,
1000
0100
0001
0100
,
1000
0100
0001
1001
,
2002
0000
3003
0000
0100
0000
0010
1000
,
0010
0000
0100
0000
0001
0010
0001
0010
,
0000
0000
0100
0000
1000
0000
0001
0010
,
0001
0000
0100
0000
0010
1000
0010
1000
,
0010
0100
0001
0010
,
1000
0010
0001
0100
,
0010
0000
1000
0000
0100
0010
0100
0010
,
0100
0010
0100
0010
0200
0000
0000
0000
,
0000
0300
1000
0001
,
0010
0001
1000
0010
,
1000
0100
1100
1000
,
1001
0001
0101
0000
,
0010
0000
1000
0100
1000
0000
0001
0100
,
0001
0000
1000
0010
1000
0000
0001
0010
,
0001
0000
1000
0010
0100
0000
0001
0010
,
0100
0010
1001
0000
,
0100
0010
1000
0001
,
0010
0100
0010
0001
0010
0100
0010
0000
,
0001
0100
1000
0100
,
0002
0000
2003
0000
,
3001
0010
0001
0000
1000
0010
1000
0000
,
0001
0010
0100
1000
0010
0100
0001
1000
,
0010
0100
0010
0100
,
0110
0000
1001
0000
,
0110
0000
0000
0100
0000
0000
0001
0000
0000
0010
0000
0000
0100
0000
1000
0000
,
0110
0000
0000
0110
0000
0000
0110
0000
0110
0000
1000
0000
0001
0000
1000
0000
,
0110
0000
0000
0010
0000
0000
1000
0000
0000
0100
0000
0000
0010
0000
0001
0000
,
0110
0000
0000
0110
0000
0000
0110
0000
0110
0000
0001
0000
1000
0000
0001
0000
,
0110
0000
0000
0101
0000
0000
0011
0000
0000
1100
0000
0000
1010
0000
0100
0000
,
0101
0000
0000
1001
0000
0000
1100
0000
0000
0110
0000
0000
0011
0000
0001
0000
,
0101
0000
0000
1010
0000
0000
1100
0000
0000
0011
0000
0000
0101
0000
0100
0000
,
0110
1000
0100
0010
1001
0000
0110
0000
1000
0000
0000
0000
0100
0000
0000
0000
,
1000
0010
0100
0001
,
0010
0001
0100
0001
,
1000
0100
1000
0001
,
0010
1000
0001
0100
,
1000
0010
0001
1000
,
0100
0000
0001
0000
1000
0100
1000
0000
,
0001
0100
0001
0000
1000
0100
0010
0001
,
0020
0000
0031
0100
,
0010
1000
0010
0100
,
0001
1000
0100
1000
,
0001
0100
0001
0010
,
0100
0010
0001
1000
,
0010
0100
0001
1000
,
0010
0100
1000
0100
,
0001
0100
1000
0010
,
0002
0010
1003
0001
,
1000
0000
0100
0000
0010
0000
0100
1000
,
0000
1000
0001
0000
1000
0100
0010
0000
,
0100
1000
0010
0100
,
0001
0010
0100
1000
,
0010
0000
0100
0000
0010
0000
1000
0001
,
0000
0001
0010
0000
0100
1000
0001
0000
,
1000
0010
0100
0001
,
1000
0100
1000
0100
,
0010
0001
0100
0010
,
1000
0001
1000
0000
0010
0000
0100
0000
,
0001
0010
0001
0100
,
0010
1000
0010
0000
0100
0001
0100
0000
,
0010
1000
0010
0000
1000
0001
1000
0000
,
0010
0100
0010
0000
0100
0010
0100
0010
,
0100
0000
0010
0000
0100
0010
0100
0000
,
1001
0000
0000
0000
1010
0000
0000
0101
,
0000
0000
0011
0000
0000
1100
0000
0000
,
1001
0000
0010
0000
1001
0000
0000
1100
,
0000
0000
0011
0000
0000
0101
0000
0000
,
1010
0000
1000
0000
1100
0000
0000
0110
,
0000
0000
0011
0000
0000
0110
0000
0000
,
1100
0101
2002
0000
,
0000
3003
0220
0000
,
0000
0330
0000
0000
;

//---------------dance-single - ----------------
#NOTES:
     dance-single:
     :
     Challenge:
     19:
     1.000000,1.000000,0.710185,0.242837,0.224510,1626.000000,155.000000,53.000000,0.000000,0.000000,0.000000,1.000000,1.000000,0.710185,0.242837,0.224510,1626.000000,155.000000,53.000000,0.000000,0.000000,0.000000:
// measure 0
0000
0000
0000
0000
,  // measure 1
0000
0000
0000
0000
,  // measure 2
0000
0000
0000
0000
,  // measure 3
0000
0000
0000
0000
,  // measure 4
0010
0000
0100
0000
0001
0000
0010
0000
0100
0000
1000
0000
0100
0000
0010
0001
0010
0000
0000
0000
0110
0000
0000
0000
1100
0000
0000
0000
1001
0000
0000
0000
,  // measure 5
0010
0000
0001
0000
0010
0000
0100
0000
0010
0000
1000
0000
0010
0000
0100
0000
0001
0000
0000
0000
1000
0000
0000
0000
0110
0000
0000
0000
0000
0000
1000
0001
,  // measure 6
0010
0000
0100
0000
0010
0000
0001
0000
0100
0000
0010
0000
1000
0000
0001
0010
0001
0000
0100
0000
0010
0000
1000
0000
0100
0000
0000
0000
0010
0100
0010
0000
,  // measure 7
0100
0000
0010
0000
1000
0000
0100
0000
0010
0000
0001
0000
1000
0000
0010
0100
0001
0000
0010
0000
0100
0000
0010
0000
0100
0000
0000
0000
0110
0000
0000
0000
,  // measure 8
2002
0000
0000
0000
,  // measure 9
0000
0000
0000
0000
,  // measure 10
0000
0000
0000
0000
,  // measure 11
0000
0000
0000
3003
,  // measure 12
0011
0000
0000
1100
0000
0000
1010
0000
0000
0101
0000
0000
0110
0000
1001
0000
,  // measure 13
0110
0000
0000
0101
0000
0000
0011
0000
0000
0110
0000
0000
1100
0000
0110
0000
,  // measure 14
1100
0000
0000
1010
0000
0000
0110
0000
0000
0101
0000
0000
0011
0000
0110
0000
,  // measure 15
1100
0000
1000
0010
1000
0000
0001
0000
1000
0100
0010
0000
1001
0000
0000
0000
1000
0000
0000
0000
0000
0000
0000
0000
0001
0000
0000
0000
0100
0000
0000
0000
,  // measure 16
0001
0000
1000
0000
0001
0010
0001
0000
,  // measure 17
1000
0010
1000
0000
0100
0000
0010
0001
,  // measure 18
0010
0000
0100
0000
0010
1000
0010
0000
,  // measure 19
0100
0001
0100
0000
0010
0000
1000
0001
,  // measure 20
1000
0000
0010
0000
0100
0001
0100
0000
,  // measure 21
0010
1000
0010
0000
0100
0001
0010
0000
,  // measure 22
0100
1000
0000
0010
0100
0001
0010
0100
,  // measure 23
1000
0000
0010
0000
1000
0000
0100
1000
,  // measure 24
0010
0000
0100
0000
0001
0010
0100
0000
,  // measure 25
1000
0010
0100
0000
0001
0000
1000
0100
,  // measure 26
0010
0000
0001
0000
1000
0010
0100
0000
,  // measure 27
0001
0010
0100
0000
1000
0000
0010
1000
,  // measure 28
0100
0000
0010
0000
0001
0100
0010
0000
,  // measure 29
1000
0100
0010
0000
0001
0010
0001
0010
,  // measure 30
0100
0010
0100
0010
0100
1000
0010
0100
,  // measure 31
0002
0000
0000
0000
1003
0000
0001
0010
,  // measure 32
0100
0000
1000
0000
0010
0100
0001
0000
,  // measure 33
0010
0100
1000
0000
0010
0000
1000
0100
,  // measure 34
0010
0000
0001
0000
0100
0010
1000
0000
,  // measure 35
0001
0010
0100
0000
1000
0000
0001
0100
,  // measure 36
0010
0000
1000
0000
0001
0010
0100
0000
,  // measure 37
1000
0010
0100
0000
0001
0010
0001
1000
,  // measure 38
0010
1000
0100
0010
0001
0100
0010
1000
,  // measure 39
0001
0000
1000
0000
0001
0000
0100
0010
,  // measure 40
1000
0000
0100
0000
0010
0001
1000
0000
,  // measure 41
0010
1000
0001
0000
0010
0000
0001
0100
,  // measure 42
1000
0000
0010
0000
1000
0100
0010
0000
,  // measure 43
0001
0010
1000
0000
0010
1000
0010
0100
,  // measure 44
0001
0100
0010
1000
0001
0010
0100
1000
,  // measure 45
0010
0100
0001
1000
0100
0010
0100
0010
,  // measure 46
0100
0000
1001
0000
0010
0100
0010
0000
,  // measure 47
2002
3003
0000
0000
1010
0000
0000
0000
0100
0000
0001
0000
0100
0000
0000
0000
,  // measure 48
0001
0000
0010
0100
1000
0010
0000
0100
,  // measure 49
0001
1000
0100
0010
0100
1000
0001
0000
,  // measure 50
0100
0000
1000
0010
0100
0000
0010
0000
,  // measure 51
0100
0000
1001
0000
0100
0010
0001
0000
,  // measure 52
0100
0000
0010
1000
0001
0010
0000
0100
,  // measure 53
0010
0001
0100
0010
1000
0001
0010
0000
,  // measure 54
0100
1000
0100
0010
0001
0000
0010
0100
,  // measure 55
0010
0100
0010
0001
1000
0000
0010
0000
,  // measure 56
1000
0001
0010
0000
0100
0000
1001
0000
,  // measure 57
0000
0000
0010
1000
0010
0100
0001
0000
,  // measure 58
0010
0000
0100
1000
0100
0000
0010
0000
,  // measure 59
0001
0000
0100
0010
0100
0010
0100
0010
,  // measure 60
0100
0010
1000
0000
0000
0000
0001
0000
,  // measure 61
1000
0000
0001
0000
0010
0100
1000
0000
,  // measure 62
0010
0000
0100
0001
0010
0000
1000
0001
,  // measure 63
1000
0001
1000
0000
0010
0100
0001
0000
,  // measure 64
1000
0000
0010
0100
0001
0000
1000
0100
,  // measure 65
0001
0100
1000
0000
0010
0100
0001
0000
,  // measure 66
1000
0000
0010
0100
0001
0000
1000
0100
,  // measure 67
0010
0000
0001
1000
0010
0000
1000
0001
,  // measure 68
0010
0001
1000
0000
0001
1000
0010
1000
,  // measure 69
0001
0101
0010
1010
,  // measure 70
0100
2002
0000
3003
,  // measure 71
0000
0000
1001
0000
0010
1000
0000
1000
,  // measure 72
0100
0000
0100
0010
0001
0010
0100
0000
,  // measure 73
1000
0001
0100
0000
0010
1000
0000
1000
,  // measure 74
0001
0000
0010
0100
1000
0100
0020
0000
,  // measure 75
0031
0000
1000
0010
0100
0001
0010
0001
,  // measure 76
0100
0010
1000
0100
0010
0001
0100
0010
,  // measure 77
1000
0001
0010
0100
0010
0100
0010
0100
,  // measure 78
0010
0100
0010
0100
0010
0100
0010
0100
,  // measure 79
0010
0000
0100
0000
0010
0000
0001
0000
1000
0010
0000
1000
0010
0000
1000
0010
,  // measure 80
0000
1000
0010
0000
1000
0000
0010
0000
0100
0001
0000
0100
0001
0000
0100
0001
,  // measure 81
0000
0100
0001
0000
0100
0000
0010
0000
1000
0001
0000
0100
0001
0000
1000
0001
,  // measure 82
0000
0010
0001
0000
0010
0000
0100
0000
1000
0010
0000
0100
0001
0000
1000
0100
,  // measure 83
0000
0010
0001
0000
1000
0000
0010
0000
0101
0000
0001
0000
0010
0000
0100
0000
,  // measure 84
0110
1000
0001
0010
0011
0100
1000
0010
,  // measure 85
1010
0100
0001
0010
0110
0100
1000
0010
,  // measure 86
0110
0100
0001
0010
0011
1000
1010
0100
,  // measure 87
0101
0100
1000
0100
1000
0100
0001
0100
,  // measure 88
0001
0100
0101
0000
1001
0000
1200
0000
,  // measure 89
0310
0000
0001
0100
0001
0100
1000
0100
,  // measure 90
1000
0100
1100
0000
1001
0000
0102
0000
,  // measure 91
0013
0000
1000
0010
0100
0000
0001
0000
0010
0000
0001
0000
0100
0000
0010
0000
,  // measure 92
1000
0000
0001
0010
0100
0000
1000
0000
0010
0000
0100
0000
0020
0000
0000
0000
,  // measure 93
0130
0000
0100
0001
1000
0100
1000
0100
0010
0001
0010
0001
0100
0010
1000
0001
,  // measure 94
0010
0100
1000
0010
0100
0000
0000
0000
0100
0000
0000
0000
0100
0000
0000
0000
,  // measure 95
1001
0000
0100
0000
0010
1000
0100
0000
,  // measure 96
0010
0001
0100
0000
0010
1000
0000
0001
,  // measure 97
0010
0000
0100
0000
1000
0010
0100
0001
,  // measure 98
0010
0100
1000
0001
0100
0001
0000
0001
,  // measure 99
1000
0100
0101
0010
,  // measure 100
0011
1000
1100
0001
,  // measure 101
0101
1000
1010
0001
,  // measure 102
0011
0100
0110
2002
,  // measure 103
3003
0000
1000
0000
0010
0100
0001
0000
,  // measure 104
0100
0010
1000
0000
0001
0010
0000
0100
,  // measure 105
1000
0000
0001
0000
0010
0001
0100
0010
,  // measure 106
0100
0001
0010
0100
1000
0010
0000
0010
,  // measure 107
1000
0010
0110
1000
,  // measure 108
1001
0000
0010
0000
0010
0001
0010
0100
,  // measure 109
1000
0000
0010
0100
0010
0100
0010
0100
,  // measure 110
0010
0100
2002
0000
0000
0000
0000
0000
,  // measure 111
3003
0000
1000
0010
1000
0100
0010
0001
,  // measure 112
0100
0010
0100
0001
1000
0010
1000
0100
,  // measure 113
1000
0010
0100
0010
0100
0010
0100
0010
,  // measure 114
0100
0010
0100
0000
0000
0000
0101
0000
,  // measure 115
0101
1100
1100
1010
,  // measure 116
1010
0000
0011
0000
0011
0000
0100
0010
,  // measure 117
0100
0010
0100
2002
,  // measure 118
0000
0000
3003
0000
0100
0010
1000
0000
,  // measure 119
0100
0000
0010
0000
0001
0000
1000
0100
,  // measure 120
0010
0001
1000
0010
0001
0100
0010
1000
,  // measure 121
0010
0000
0100
0000
0001
0000
1000
0100
,  // measure 122
0010
0000
1001
0000
0100
0000
0001
0010
,  // measure 123
0100
0010
0001
0100
0010
1000
0001
0010
,  // measure 124
0001
1000
0010
0100
0001
1000
0010
0100
,  // measure 125
0010
0100
0010
0100
0010
0100
0020
0000
,  // measure 126
0000
0000
0030
1001
,  // measure 127
0001
0000
1000
0100
,  // measure 128
0001
0000
1010
0000
,  // measure 129
0011
0000
0101
1000
,  // measure 130
0100
0001
0000
1001
,  // measure 131
1000
0000
0001
0010
,  // measure 132
1000
0000
1100
0000
,  // measure 133
0101
0000
0011
1000
,  // measure 134
0010
0001
0000
1000
,  // measure 135
0010
0100
0001
0010
,  // measure 136
0001
0100
0010
1000
,  // measure 137
0001
0010
1000
0010
,  // measure 138
0001
0100
1000
0100
,  // measure 139
0001
0010
0100
1000
,  // measure 140
0010
0100
0001
2000
,  // measure 141
3200
0302
2003
3020
,  // measure 142
0032
0203
0320
1030
,  // measure 143
0001
0010
0100
0000
1000
0000
0010
0100
,  // measure 144
0001
0000
1000
0100
0010
0000
0001
0000
,  // measure 145
1000
0010
0100
0000
0001
0000
1000
0100
,  // measure 146
0010
0000
0001
0100
0010
0000
1000
0000
,  // measure 147
0001
0010
0100
0000
1000
0000
0010
0100
,  // measure 148
0001
0000
1000
0100
0010
0000
0001
1000
,  // measure 149
0100
1000
0001
0100
0010
1000
0001
0010
,  // measure 150
0100
1000
0020
0000
0000
0000
1030
0000
,  // measure 151
0001
0100
0010
0000
1000
0000
0001
0010
,  // measure 152
1000
0000
0001
0100
0010
0000
1000
0000
,  // measure 153
0100
0010
0001
0000
1000
0000
0010
0001
,  // measure 154
1000
0000
0001
0010
1000
0000
0010
0001
,  // measure 155
0100
0001
0010
0100
1000
0010
0100
0010
,  // measure 156
1000
0001
0010
0001
1000
0010
0100
0010
,  // measure 157
0100
0010
0100
0000
1001
0000
0010
0100
,  // measure 158
0010
0000
0000
0000
2002
3003
0000
0000
0110
0000
0000
0000
0010
0000
1000
0000
,  // measure 159
0010
0000
0100
0000
0001
0010
0100
1000
,  // measure 160
0000
0010
0100
0001
1000
0100
0010
0100
,  // measure 161
1000
0000
0001
0000
1000
0100
0010
0000
,  // measure 162
0001
0000
1000
0000
0110
0000
1000
0001
,  // measure 163
0010
0000
0001
0000
0100
0010
1000
0100
,  // measure 164
0000
0010
0001
0000
0100
0010
1000
0010
,  // measure 165
0100
0000
0001
0010
0100
1000
0010
0000
,  // measure 166
0100
0010
0100
0010
0100
0001
1000
0100
,  // measure 167
0010
0000
0001
1000
0001
0000
0010
0000
,  // measure 168
0110
0000
0100
0000
1000
0100
0010
0000
,  // measure 169
0001
0100
0010
0000
1000
0001
0010
0100
,  // measure 170
1000
0000
0010
0000
0100
0010
0100
0010
,  // measure 171
0100
0010
0100
0010
1000
0000
0000
0000
,  // measure 172
0001
0000
0010
0000
0100
0000
1000
0001
,  // measure 173
1000
0100
0010
0001
,  // measure 174
1000
0010
1000
0010
1000
0000
0010
0100
,  // measure 175
0001
0000
1000
0000
0010
0100
0001
0000
,  // measure 176
1000
0100
0001
0100
1000
0000
0100
0010
,  // measure 177
0001
0000
1000
0000
0100
0010
0001
0000
,  // measure 178
1000
0000
0001
0000
1000
0001
0010
0001
,  // measure 179
1000
0000
0001
1000
0010
1000
0001
0000
,  // measure 180
1000
0001
0010
0000
0101
0000
0100
0000
,  // measure 181
1010
0010
2002
0000
,  // measure 182
0000
0000
3003
0000
1100
0000
1000
0100
,  // measure 183
0000
0100
0010
0000
0010
0001
1000
0001
,  // measure 184
0100
0000
0010
1000
0001
0000
0100
0010
,  // measure 185
0000
0010
1000
0000
0001
0010
0100
1000
,  // measure 186
0020
0000
1030
0000
0001
0010
0001
0100
,  // measure 187
0010
1000
0100
1000
0010
0100
0001
0010
,  // measure 188
0100
1000
0001
1000
0010
0100
0010
0100
,  // measure 189
0010
0100
0010
0100
0010
0100
0010
0100
,  // measure 190
0010
0100
0010
0100
1000
0100
1000
0100
,  // measure 191
0001
0100
0001
0100
0101
0000
1001
0000
,  // measure 192
1200
0000
0310
0000
0001
0100
0001
0100
,  // measure 193
1000
0100
1000
0100
1100
0000
1001
0000
,  // measure 194
0102
0000
0000
0000
0013
0000
1000
0100
0010
0000
0001
0000
0100
0000
0010
0000
,  // measure 195
1000
0000
0001
0000
1000
0000
0010
0100
0001
0000
0010
0000
0100
0000
0010
0000
,  // measure 196
1000
0000
0010
0000
0100
0001
1000
0100
0010
0001
0010
0001
1000
0010
1000
0010
,  // measure 197
0100
0001
1000
0100
0010
0100
1000
0001
0100
0000
0000
0000
0100
0000
0000
0000
,  // measure 198
0100
0000
1001
0000
0100
0000
0010
0001
,  // measure 199
0100
0000
0010
1000
0100
0000
0010
0001
,  // measure 200
0000
1000
0010
0100
0001
0000
1000
0100
,  // measure 201
1000
0001
0010
0100
1000
0010
0100
0010
,  // measure 202
0000
0010
1000
0000
0001
0000
0011
0000
,  // measure 203
1000
1010
0100
0101
,  // measure 204
0100
1100
0010
0011
,  // measure 205
0001
0101
0010
0110
,  // measure 206
2002
0000
3003
0000
0010
0000
1000
0001
,  // measure 207
0010
0000
0001
1000
0010
0000
0100
0001
,  // measure 208
0000
0010
0001
0000
0100
0000
0010
1000
,  // measure 209
0100
1000
0010
0100
0001
0010
0001
0100
,  // measure 210
0000
0100
0010
0000
1000
0000
1100
0000
,  // measure 211
0001
0000
0101
0000
0010
0000
0010
1000
,  // measure 212
0100
0010
0001
0000
0100
0010
0100
0010
,  // measure 213
0100
0010
0100
0010
2002
0000
0000
0000
,  // measure 214
0000
0000
3003
0000
1000
0010
1000
0001
,  // measure 215
0010
0100
1000
0001
0010
0001
0100
0010
,  // measure 216
1000
0001
0010
0001
0100
0010
0100
0010
,  // measure 217
0100
0010
0100
0010
0100
0000
0000
0000
,  // measure 218
1100
1100
1010
1010
,  // measure 219
0011
0011
0101
0101
,  // measure 220
0010
0100
0010
0000
0100
0000
0010
0000
,  // measure 221
2002
0000
0000
0000
3003
0000
0100
0010
,  // measure 222
1000
0001
0010
0001
,  // measure 223
0100
1000
0010
0001
0100
0010
1000
0001
,  // measure 224
0010
0100
1000
0010
,  // measure 225
0100
0010
0100
0000
1001
0000
0100
0000
,  // measure 226
1000
0100
0010
0100
1000
0010
0100
0001
,  // measure 227
0010
0001
0100
0010
1000
0001
0010
0100
,  // measure 228
1000
0001
1000
0001
1000
0001
1000
0001
,  // measure 229
2000
0000
0000
3000
,  // measure 230
1100
0000
0000
0011
0000
0000
0101
0000
0000
1010
0000
0000
0110
0000
1001
0000
,  // measure 231
0110
0000
1000
0100
0000
0100
0010
0000
0001
0000
1000
0010
1000
0000
0001
0000
,  // measure 232
0011
0000
0000
1100
0000
0000
1010
0000
0000
0101
0000
0000
0110
0000
1001
0000
,  // measure 233
0110
0000
0100
0001
0000
0001
0010
0000
0100
0000
1000
0010
1000
0000
0100
0000
,  // measure 234
0011
0000
0000
1100
0000
0000
1010
0000
0000
0101
0000
0000
0110
0000
1001
0000
,  // measure 235
0110
0000
0000
1010
0000
0000
1100
0000
0000
0110
0000
0000
0011
0000
0110
0000
,  // measure 236
0011
0000
0000
1100
0000
0000
1010
0000
0000
0101
0000
0000
0110
0000
1001
0000
,  // measure 237
0110
0000
0100
0001
1000
0000
0001
0000
0010
0100
1000
0000
0110
0000
0000
0000
1000
0000
0000
0000
0000
0000
0000
0000
0001
0000
0000
0000
0010
0000
0000
0000
,  // measure 238
0001
0000
0100
0000
0010
1000
0010
0000
,  // measure 239
0100
0001
0100
0000
0010
0000
1000
0001
,  // measure 240
1000
0000
0100
0000
0010
0001
0010
0000
,  // measure 241
0100
1000
0100
0000
0010
0000
0001
1000
,  // measure 242
0001
0000
0100
0000
0010
0100
0010
0000
,  // measure 243
1000
0001
1000
0000
0100
0010
0100
0010
,  // measure 244
0001
1000
0001
1000
0001
0010
0100
1000
,  // measure 245
0020
0000
0000
0000
1030
0000
0001
0010
,  // measure 246
0100
0000
1000
0000
0010
0100
0001
0000
,  // measure 247
1000
0100
0010
0000
0100
0000
1000
0001
,  // measure 248
0100
0000
0010
0000
1000
0001
0010
0000
,  // measure 249
1000
0010
0001
0000
0100
0000
0010
1000
,  // measure 250
0100
0000
0010
0000
0001
0100
0010
0000
,  // measure 251
1000
0001
0010
0000
2000
0000
3200
0000
,  // measure 252
0302
2003
3020
0032
,  // measure 253
0203
0000
0320
0000
1030
0000
0001
0010
,  // measure 254
0001
0000
0100
0000
0010
1000
0100
0010
,  // measure 255
0000
0100
0010
0000
0001
0000
1000
0010
,  // measure 256
0100
0000
0001
0000
1000
0010
0100
0010
,  // measure 257
1000
0000
0001
0000
0010
0000
0100
1000
,  // measure 258
0010
0000
0100
0000
0001
0010
0100
1000
,  // measure 259
0000
0010
0100
0000
0001
0000
1000
0100
,  // measure 260
0010
0000
0001
0000
1000
0010
0100
0001
,  // measure 261
0010
0000
0100
0000
0010
0001
0010
0001
,  // measure 262
1000
0010
1000
0010
0100
0010
0100
0010
,  // measure 263
1000
0001
1000
0001
0010
0001
0100
0001
,  // measure 264
0010
0001
0100
0001
0010
0100
1000
0010
,  // measure 265
1000
0100
1000
0010
0100
0001
0010
0100
,  // measure 266
1000
0001
0010
0001
1000
0010
0100
0001
,  // measure 267
1000
0100
0010
0100
1000
0001
1000
0001
,  // measure 268
1000
0000
0110
0000
0001
1000
0001
0000
,  // measure 269
0220
0000
0330
0000
1001
0000
0010
0001
,  // measure 270
0000
0001
0100
0000
0100
0010
0000
0010
,  // measure 271
1000
0000
0001
0010
1000
0000
0001
0010
,  // measure 272
0000
0010
0100
0000
0100
1000
0001
1000
,  // measure 273
0001
0000
1000
0100
0001
0000
1000
0010
,  // measure 274
0000
0100
0001
0000
1000
0100
0000
0010
,  // measure 275
0001
0000
0110
0000
1000
0100
0010
0001
,  // measure 276
0100
0001
0010
0100
2000
0000
0000
0000
,  // measure 277
0000
3000
0000
0000
;
