#TITLE:Bright Lights;
#SUBTITLE:;
#ARTIST:aran;
#TITLETRANSLIT:;
#SUBTITLETRANSLIT:;
#ARTISTTRANSLIT:;
#GENRE:;
#CREDIT:;
#BANNER:bright-lights-bn.png;
#BACKGROUND:bright-lights-bg.png;
#LYRICSPATH:;
#CDTITLE:arsa-cd.png;
#MUSIC:Bright Lights.ogg;
#OFFSET:0.298000;
#SAMPLESTART:77.059998;
#SAMPLELENGTH:12.000000;
#SELECTABLE:YES;
#BPMS:0.000000=180.000000
,64.000000=90.000000
,68.000000=180.000000
,123.000000=90.000000
,127.000000=180.000000
,183.000000=90.000000
,187.000000=180.000000
,215.000000=90.000000
,216.000000=180.000000
,217.000000=360.000000
,219.000000=180.000000
,243.000000=90.000000
,247.000000=180.000000
,310.000000=90.000000
;
#STOPS:99.000000=0.360000,
278.000000=0.320000
;
#BGCHANGES:;
#KEYSOUNDS:;
#ATTACKS:;

//---------------dance-single - ----------------
#NOTES:
     dance-single:
     :
     Beginner:
     3:
     0.157206,0.164864,0.000000,0.161829,0.000000,116.000000,0.000000,20.000000,0.000000,0.000000,0.000000,0.157206,0.164864,0.000000,0.161829,0.000000,116.000000,0.000000,20.000000,0.000000,0.000000,0.000000:
0000
0000
0000
0000
,
0000
0000
0000
0000
,
0000
0000
0000
0000
,
0000
0000
0000
0000
,
0000
0000
0000
0000
,
0000
0000
0000
0000
,
2000
0000
3000
0000
,
0020
0000
0030
0000
,
2000
0000
3000
0000
,
0200
0000
0300
0000
,
0010
0000
0010
0000
,
0010
0000
0000
0000
,
0100
0000
0100
0000
,
0100
0000
0000
0000
,
1000
0000
0001
0000
,
1000
0000
0001
0000
,
2000
0000
0000
3000
,
0010
0000
0100
0000
,
0020
0000
0030
0000
,
1000
0000
0001
0000
,
1000
0000
0001
0000
,
0100
0000
0010
0000
,
0200
0000
0300
0000
,
0010
0000
0100
0000
,
0010
0000
0100
0000
,
0010
0000
0100
0000
,
0010
0010
0000
0000
,
1000
0000
0001
0000
,
1000
1000
0000
0000
,
0001
0000
0001
0000
,
0001
0001
0000
2000
,
0000
0000
3000
0010
,
0000
0000
0000
0100
,
0000
0000
0000
0001
,
0000
1000
0000
0001
,
0000
0000
0000
0100
,
0000
0000
0000
0010
,
0000
0000
0000
1000
,
0000
0001
0000
2000
,
0000
3000
0000
0010
,
0000
0000
0010
0000
,
0000
0010
0000
0000
,
0010
0000
0000
0010
,
0000
0010
0000
0100
,
0000
0000
0100
0000
,
0000
0100
0000
0200
,
0000
0000
0300
2000
,
0000
0000
0000
3000
,
0000
0000
0000
0002
,
0000
0000
0000
0003
,
0000
0000
0000
0020
,
0000
0000
0000
0000
,
0000
0030
0000
0200
,
0000
0300
0000
0010
,
0020
0000
0000
0030
,
0000
1000
0000
0001
,
0000
1000
0000
0002
,
0000
0003
0000
0100
,
0100
0100
0000
0010
,
0000
0100
0000
0010
,
0000
0100
0000
0020
,
0000
0000
0030
1000
,
0000
0100
0000
1000
,
0000
0100
0000
2000
,
0000
3000
0000
0001
,
0001
0001
0000
0100
,
0000
0010
0000
0100
,
0000
0010
0000
0100
,
0000
0010
0000
1000
,
1000
1000
0000
0100
,
0000
0100
0000
0200
,
0300
0000
0000
0010
,
0000
0010
0000
0020
,
0030
0000
0001
0000
,
1000
0000
0001
0000
,
1000
0000
0001
0000
,
0010
0000
0100
0000
,
1000
0000
0010
0000
,
0000
0000
0100
0000
,
0000
0000
0001
0000
,
0000
0000
1000
0000
,
0000
0000
0010
0000
;

//---------------dance-single - ----------------
#NOTES:
     dance-single:
     :
     Easy:
     7:
     0.323659,0.428645,0.032366,0.250835,0.000000,245.000000,4.000000,31.000000,0.000000,0.000000,0.000000,0.323659,0.428645,0.032366,0.250835,0.000000,245.000000,4.000000,31.000000,0.000000,0.000000,0.000000:
0000
0000
0000
0000
,
0000
0000
0000
0000
,
0000
0000
0000
0000
,
0000
0000
0000
0000
,
0000
0000
0000
0000
,
0000
0000
0000
0000
,
0010
0000
0100
0000
,
0010
0000
1000
0000
,
0100
0000
0010
0000
,
0100
0000
1000
0001
,
2000
0000
3100
0000
,
0002
0000
0103
0000
,
0020
0000
0130
0000
,
0002
0000
1003
0000
,
0200
0310
0002
0013
,
0200
2300
3020
0130
,
2002
0000
3003
0000
0100
0010
0010
0000
,
1000
0100
1000
0001
,
0010
0010
0010
0000
,
0001
0100
0010
1000
,
0001
0001
1000
1000
,
0100
0010
0100
1000
,
0010
0010
0010
0000
,
0100
0001
0010
0100
,
1000
0010
0100
0000
,
0001
1000
0000
0100
,
0010
0100
0000
1000
,
0100
0010
0000
0001
,
0100
0010
0000
1000
,
0100
1000
0100
0010
,
0001
0100
0000
0001
,
1000
0000
0010
0010
0010
0000
2000
0000
,
0000
3001
0000
0002
,
0000
1003
0000
0010
,
0000
0100
0000
0010
,
0100
0110
0000
2000
,
0000
3100
0000
0020
,
0000
0031
0000
0100
,
0000
0010
0000
2000
,
0001
3001
0000
1000
,
0100
1000
0001
0100
,
0001
1000
0010
0001
,
0001
0010
1000
0100
,
0010
1001
0000
0001
,
0100
0001
1000
0100
,
1000
0010
0100
0002
,
0023
0000
0130
0100
1000
0000
2000
0000
,
0000
0000
3000
0002
,
0000
0000
0003
0020
,
0000
0000
0030
0200
,
0000
0000
0300
1000
,
1000
0001
0001
0010
,
0010
0100
0100
1000
,
0100
0000
0010
0000
0001
0000
0100
0010
,
0020
0000
0000
0030
,
1000
0100
1000
0010
,
0010
0100
0100
0001
,
0010
0001
0100
0010
,
1000
0001
1000
0100
,
0010
0001
0010
0100
,
1000
0000
0010
0000
0100
0000
0001
0001
,
1000
1000
0001
1000
0001
0000
1000
0000
,
0100
1000
0010
0100
,
0010
1000
0100
0010
,
0001
0010
0001
1000
,
0010
0100
0001
1000
,
0100
0001
0100
1000
,
0010
0001
0010
1000
,
0100
0010
0100
0001
,
0100
0010
0000
1000
,
1000
0001
0100
0010
,
0110
0000
1000
0001
,
0010
0001
0100
0010
,
0010
0000
1000
1000
,
0100
0001
0010
0010
,
0001
0100
1000
0010
,
0100
0001
1000
0100
,
0010
0010
0002
0003
,
2000
3000
0020
0030
,
0200
0300
0002
0003
,
0020
0030
0200
0300
,
2000
3000
0010
0000
;

//---------------dance-single - ----------------
#NOTES:
     dance-single:
     :
     Medium:
     10:
     0.519010,0.527159,0.113281,0.412665,0.004046,384.000000,14.000000,51.000000,0.000000,0.000000,0.000000,0.519010,0.527159,0.113281,0.412665,0.004046,384.000000,14.000000,51.000000,0.000000,0.000000,0.000000:
0000
0000
0000
0000
,
0000
0000
0000
0000
,
0000
0000
0000
0000
,
0000
0000
0000
0000
,
0000
0000
0000
0000
,
0000
0000
0000
0000
,
1000
0100
1000
0010
,
0100
0001
0100
0010
,
1000
0001
0010
0100
,
1000
0000
0010
0000
0100
0000
0001
1000
,
0002
0000
0000
0000
0013
0000
0100
1000
,
0002
0000
0000
0000
0103
0000
0010
1000
,
0200
0000
0000
0000
0310
0000
0001
0100
,
0020
0000
0000
0000
1030
0000
0001
0010
,
0100
1100
1000
1010
,
0010
0110
0101
1001
,
1100
0100
0010
0010
0001
1000
1001
0000
,
0001
0100
0001
0000
0010
0000
0100
1000
,
0200
0010
2300
3000
,
0001
0100
0010
0000
1000
0000
0001
0010
,
0200
0310
0002
1003
,
0010
0100
0010
0000
1000
0000
0001
0010
,
0200
1000
0320
0030
,
0001
1000
0010
0000
1000
0000
0100
0010
,
0001
0000
0100
0000
1000
0000
0000
0010
,
0100
0010
0100
0000
0001
1000
0002
0000
,
0023
0000
0230
0000
0000
0000
0300
1000
,
0001
1000
0001
0000
0010
0100
1000
0000
,
0001
0100
0010
1000
0001
0000
0000
1000
,
0100
0010
0100
0000
1000
0001
2000
0000
,
3020
0000
0230
0000
0000
0000
0301
0001
,
0010
0010
0100
1000
1001
0000
2000
0000
,
0000
3200
0000
0320
,
0000
0230
0000
2300
,
0000
3020
0000
0032
,
0000
0203
0000
0302
,
0000
0023
0000
0230
,
0000
2300
0000
3002
,
0000
0000
2003
0000
0000
0000
3100
0010
,
0001
1000
0000
0010
0100
0001
2000
0000
,
3200
2300
3020
0230
,
0302
0000
0023
0000
0031
0100
0020
0000
,
2030
0000
3100
0010
0002
0000
0203
0000
,
0310
1000
0002
0000
1003
0000
0002
0000
,
0203
0320
2030
3200
,
0320
0000
0032
0000
1003
0100
0010
0010
,
0001
0001
1000
0001
0110
0000
1000
0000
,
0100
0001
0010
0001
,
0100
1000
0010
1000
,
1000
0001
0001
0010
,
0100
0000
0010
0000
0100
0000
1000
0100
,
1000
0000
0001
0100
0001
0000
1000
0010
,
0100
0000
0001
0010
0100
0000
1000
0010
,
0100
0001
0010
0100
1000
0010
0100
0100
,
2002
0000
0000
3003
,
1000
0100
0010
0000
0010
0001
0100
0000
,
0010
1000
0000
1000
0001
0000
1000
0100
,
0010
0100
1000
0000
0001
0000
0100
0010
,
0100
0010
0100
0000
0001
0000
1000
0000
,
0001
0010
0100
0000
0100
1000
0010
0000
,
0100
0001
0000
0001
1000
0000
0100
0100
,
0010
0010
0001
1000
1001
0000
1000
0100
,
1000
0100
1000
0010
1000
0000
0001
0100
,
0001
0100
0001
0010
0001
0000
0100
0010
,
0100
0000
0010
0100
0010
0000
1000
0100
,
0010
0001
1000
0000
0001
0000
0010
0100
,
0010
0100
0010
0001
0010
0000
0100
1000
,
0100
1000
0100
0010
0001
0000
1000
0010
,
0100
0001
0100
0010
1000
0000
0001
0010
,
0100
1000
0001
0000
0000
1000
0000
0100
,
0000
1000
0001
1000
0000
0001
0000
0010
,
0000
0001
0100
0010
1000
0001
1000
0001
,
0000
1000
0001
1000
0001
0010
0100
1000
,
0001
0000
1000
0000
0001
0010
0100
0000
,
1000
0010
0100
0000
0001
1000
0100
0000
,
1000
0001
0100
0000
0001
0000
0001
0000
,
1000
1000
0101
1100
,
1001
0000
0000
0000
1000
0100
1000
0010
,
0100
0001
0010
0001
0100
0010
0100
0001
,
0010
0100
0010
0001
1000
0010
0100
0001
,
1000
0100
0010
0001
1000
0001
0100
0001
,
1000
0000
0100
0000
0010
0000
0001
1000
0000
0000
0000
0000
0000
0000
0000
0000
;

//---------------dance-single - ----------------
#NOTES:
     dance-single:
     :
     Hard:
     13:
     0.643849,0.791345,0.178012,0.372207,0.137555,489.000000,22.000000,46.000000,3.000000,0.000000,1.000000,0.643849,0.791345,0.178012,0.372207,0.137555,489.000000,22.000000,46.000000,3.000000,0.000000,1.000000:
0000
0000
0000
0000
,
0000
0000
0000
0000
,
0000
0000
0000
0000
,
0000
0000
0000
0000
,
0000
0000
0000
0000
,
0000
0000
0000
0000
,
2000
0000
3200
0000
,
0302
0000
0203
0000
,
2300
0000
3020
0000
,
0230
0000
0000
0000
0301
0000
0010
0100
,
1000
0000
1000
0000
1000
0000
0010
0100
,
0001
0000
0001
0000
0010
0000
0100
1000
,
0001
0000
1000
0000
0001
0000
1000
0010
,
0100
0000
0001
0000
0010
0000
0100
1000
,
0001
0100
0001
0000
1000
0100
1000
0000
,
0010
0100
0001
0100
0010
1000
0100
0000
,
0001
1000
0001
1000
0001
0000
0010
0100
0010
0000
0001
1000
0010
0000
1001
0000
,
1000
0100
0001
0100
2000
0000
3010
0100
,
0002
0010
2000
3003
,
0100
0010
1000
0001
0020
0000
0130
1000
,
0002
0000
0100
0100
0100
0000
1003
0000
,
1000
0010
0100
0000
0100
0001
0010
0000
,
0001
0100
1000
0100
0001
0000
1001
0000
,
1000
0010
0001
0000
0001
0010
1000
0000
,
0100
0010
0001
1000
0010
0000
0100
0001
,
1000
0000
0100
1000
0001
2000
0000
0000
,
3100
0000
0010
0001
0010
0200
0000
0000
,
0310
0000
0001
0100
0010
2000
0000
0000
,
3100
0000
0010
0001
1000
0010
0100
0001
,
0010
0001
0100
0010
1000
0100
1000
0010
,
1000
0000
0010
0000
0100
0000
0001
0000
0100
0000
0001
0000
1000
0001
1000
0001
,
1000
0000
0100
0010
0100
0000
1000
0001
0010
0000
1001
0000
1000
0000
0000
0000
,
0100
1100
1000
0010
,
0100
0101
0001
0010
,
0010
0000
1001
0000
0100
0000
0010
1000
,
0001
0010
0000
0010
0001
1000
0010
0000
,
0100
0101
0001
1000
,
0100
1100
1000
0010
,
0100
0000
0110
0000
0100
0000
0001
0010
,
0001
0010
0100
1000
0100
1000
0002
0000
,
0103
0010
2000
0000
3200
0000
0310
0001
,
2000
0000
3002
0000
0013
0100
0020
0000
,
0032
0000
0103
0010
2000
0000
3200
0000
,
1300
0001
0020
0000
0030
0000
0002
0000
,
1003
0010
0200
0000
0320
0000
1030
0100
,
0020
0000
0000
0000
0032
0000
0000
0000
1003
0000
0010
0000
0100
0000
0001
0100
,
0010
1000
0010
0000
0100
0001
1000
0010
0100
0000
0110
0000
2001
0000
0000
0000
,
0000
0100
0000
0010
,
0000
0001
3000
0002
,
0000
0203
0000
0320
,
0000
0000
2030
0000
0000
0000
3001
0010
,
0001
1000
0010
1000
0001
0010
0100
1000
,
0100
0010
0001
0010
0100
1000
0010
0100
,
0010
0000
0100
0000
0001
0000
1000
0000
0001
0000
1000
0000
0010
0100
0001
1000
,
0020
0000
0430
0000
M00M
0000
0301
0010
,
0100
0010
0001
0100
0010
0100
0001
1000
,
0100
1000
0010
0100
0001
1000
0100
0010
,
0001
0100
0010
0100
0001
1000
0100
0100
,
0010
0010
0001
0001
1000
0010
0100
0010
,
1000
0100
0010
0100
0001
0100
0010
1000
,
0001
0010
0001
1000
0010
0100
0102
1003
,
2100
0000
3001
0000
1000
0010
0100
0001
0010
0000
1001
0000
1000
0000
1000
0000
,
0001
0001
0010
0010
0001
0001
0100
0010
,
0100
0010
1000
0010
1000
0010
0100
0001
,
1000
0100
0010
0001
0010
0100
0010
1000
,
0100
0001
0100
1000
0010
0100
0001
1000
,
0100
1000
0010
0100
0010
1000
0100
0010
,
0001
0100
0001
0010
0001
0100
0010
1000
,
0100
0010
0100
1000
0010
0100
0001
1000
,
0001
1000
0010
0100
0010
1010
0000
0101
,
0000
0011
0000
0110
0000
0011
0000
0101
,
0000
0110
0000
1010
1000
0100
0010
0200
,
0000
1300
0010
0100
0001
0001
0010
0010
,
0002
0000
1000
1000
1003
0010
0100
0001
,
0010
0001
0100
0010
1000
0100
0001
0100
,
1000
0010
0001
0010
2000
0000
3010
0100
,
0002
0000
0013
0100
2000
0000
3002
0000
,
0023
0000
0000
0000
0230
0000
0000
0000
1300
0001
1000
0000
0001
1000
0001
0000
,
0010
0100
0010
0000
0100
0010
0100
0000
1000
0010
1000
0000
0001
0010
0001
0000
,
1000
0100
1000
0000
0001
0100
0001
0000
1000
0100
0010
0000
0001
0100
0010
0000
,
1000
0100
0001
0000
0001
0100
1000
0000
0010
0100
0010
0000
1000
0001
1000
0000
,
0010
0100
0010
0100
0001
0010
0100
1000
000M
0000
0000
0000
0000
0000
0000
0000
;

//---------------dance-single - ----------------
#NOTES:
     dance-single:
     :
     Challenge:
     16:
     0.868099,1.000000,0.356025,0.558311,0.400528,638.000000,44.000000,69.000000,15.000000,0.000000,0.000000,0.868099,1.000000,0.356025,0.558311,0.400528,638.000000,44.000000,69.000000,15.000000,0.000000,0.000000:
// measure 0
0000
0000
0000
0000
,  // measure 1
0000
0000
0000
0000
,  // measure 2
0000
0000
0000
0000
,  // measure 3
0000
0000
0000
0000
,  // measure 4
0000
0000
0000
0000
,  // measure 5
0000
0000
0000
0000
,  // measure 6
1000
0100
1000
0100
0010
0001
0010
0100
,  // measure 7
0010
0001
0010
0001
0100
0010
1000
0010
,  // measure 8
0100
0001
1000
0001
0010
0001
1000
0001
,  // measure 9
0010
0000
0100
0000
1000
0000
0010
0000
0100
0000
0010
0000
1000
0001
1000
0001
,  // measure 10
0020
0000
0001
0000
0130
1000
0001
2000
,  // measure 11
0010
0000
0100
0000
3001
0010
0100
0020
,  // measure 12
0001
0000
1000
0000
0130
0010
0001
0200
,  // measure 13
0010
0000
1000
0000
0310
1000
0001
0010
,  // measure 14
0001
0100
0101
0001
1000
0100
1100
1000
,  // measure 15
0010
0100
0110
0100
0001
0010
0011
0010
,  // measure 16
0110
0100
1000
0001
2000
0000
3010
0100
0002
0000
0023
0100
0130
0000
1001
0000
,  // measure 17
0011
0001
0100
0010
2010
0000
3100
0100
,  // measure 18
0012
1003
1010
MMMM
,  // measure 19
1000
0100
0001
0100
2100
0000
3010
0010
,  // measure 20
0102
0010
1003
1001
,  // measure 21
0110
0100
0101
0000
0010
0001
0011
0000
,  // measure 22
0100
1000
1100
1000
1001
0000
MMMM
0000
,  // measure 23
0010
1000
0100
0001
0100
1000
0010
0100
,  // measure 24
0002
0000
0000
0000
0000
0000
0000
0000
0000
0000
0000
0000
0000
0000
0000
0000
0010
0000
0000
0000
0000
0000
0000
0000
0010
0000
0000
0000
0000
0000
0000
0000
2000
0000
0000
0000
0000
0000
0000
0000
0000
0000
0000
0000
0000
0000
0000
0000
0000
3003
0000
0000
0000
0000
0000
0000
1000
0000
0000
0000
0000
0000
0000
0000
,  // measure 25
0010
0100
0001
0010
0100
0001
0100
0010
,  // measure 26
1000
0100
0010
1000
0001
0010
0001
0100
,  // measure 27
0010
0001
1000
0100
0001
0100
1000
0010
,  // measure 28
0100
0001
0100
0001
0100
0000
0001
0000
0010
0100
0010
0100
0010
0000
0001
0000
,  // measure 29
1000
0010
0100
0010
1000
0000
0001
0000
0010
0100
1000
0100
0010
0000
0001
0000
,  // measure 30
0100
0010
1000
0001
0010
0001
0010
0001
1000
0010
1000
0010
0100
0001
1000
0001
,  // measure 31
2001
0000
3100
0010
0012
0000
0103
0010
0110
0000
1001
0000
1000
0000
0100
0000
,  // measure 32
0001
0100
000M
0100
0001
0010
0001
0100
,  // measure 33
0010
1000
00M0
1000
0100
0010
0100
0001
,  // measure 34
0100
0010
0M00
1000
0100
0010
0001
0100
,  // measure 35
0001
0000
0100
0001
0100
0000
0001
0000
0001
0000
1000
0000
0001
0000
0010
0000
,  // measure 36
0001
0100
000M
0010
1000
0100
1000
0010
,  // measure 37
0001
0010
000M
1000
0100
0010
0001
0100
,  // measure 38
0010
0000
1000
0000
00M0
0000
0100
0000
0010
0000
0100
0000
0020
0030
0002
0003
,  // measure 39
0020
0030
0002
0003
2000
3000
0020
0030
0200
0300
0002
0003
2000
0000
0000
0000
,  // measure 40
3200
0302
0203
2300
,  // measure 41
3020
0000
0032
0000
0023
2030
3002
0000
,  // measure 42
2003
0000
3200
0320
0032
0000
0203
0000
,  // measure 43
0320
0000
0000
0000
2030
0000
0000
0000
3002
0000
0000
0000
0000
0000
0000
0000
2003
0000
0000
3000
2000
0000
0000
3000
2000
0000
0000
0000
0000
0000
0000
0000
,  // measure 44
3020
0032
0023
2030
,  // measure 45
3200
0000
0000
0000
0302
0000
0000
0000
0203
0000
2300
0000
3001
0100
0010
1000
,  // measure 46
0001
0100
0010
0000
1000
0010
0100
0001
2000
0000
3100
0000
0010
0000
0001
0000
,  // measure 47
0100
0001
0010
0010
0001
0100
0010
1000
,  // measure 48
0001
0000
0001
0000
1000
0000
0100
0000
0010
0100
0010
0100
1000
0000
1000
0000
,  // measure 49
0001
0100
0010
1000
0001
0001
1000
0100
,  // measure 50
0010
0100
1000
0001
1000
0001
2000
0100
,  // measure 51
0100
0000
0100
0000
3002
0000
0010
0000
0010
0000
0010
0000
1003
0010
1000
0010
,  // measure 52
0100
0001
0100
0001
1000
0100
1000
0100
0010
0001
0010
0001
1000
0010
1000
0100
,  // measure 53
1000
0010
0100
0001
0010
0001
0100
0010
1000
0001
1000
0001
1000
0100
0010
0001
,  // measure 54
0110
0000
1000
0001
1000
0001
0010
0001
,  // measure 55
0100
0000
0010
0000
1000
0000
0001
0000
1000
0010
1000
0000
0100
0000
0010
0000
,  // measure 56
0100
0000
1000
0000
0001
0000
0010
0000
0001
0100
0010
1000
0001
0000
0010
0000
,  // measure 57
0001
0100
0010
0100
0001
0010
0110
0100
,  // measure 58
1100
1000
1001
0000
1100
0100
0010
0001
,  // measure 59
0010
0100
1000
0001
0100
1000
0010
0100
,  // measure 60
0001
0100
0010
1000
0100
0001
0011
1100
,  // measure 61
0010
0000
0000
0000
1000
0000
0000
0000
0001
0000
0000
0000
0100
0000
0000
0000
1010
0000
0000
0000
0000
0000
0000
0000
0101
0000
0000
0000
0000
0000
0000
0000
2002
0000
0000
0000
0000
0000
0000
3003
1001
0000
0000
0000
0000
0000
0000
0000
1000
0000
0000
0000
0000
0000
0000
0000
1000
0000
0000
0000
0000
0000
0000
0000
,  // measure 62
0100
0100
0001
0001
0010
0010
0001
0100
,  // measure 63
1000
0000
0100
0000
0001
0000
0010
0000
1000
0100
0010
0001
0100
0000
0010
0000
,  // measure 64
1000
0001
0100
0001
0010
0100
0110
0010
,  // measure 65
0011
0001
1001
0000
0101
0100
0110
0001
,  // measure 66
0010
0001
0100
1000
0010
0100
1000
0100
,  // measure 67
0010
0001
0100
0001
1000
0100
0010
0100
,  // measure 68
1000
0001
0010
0001
0100
0010
1000
0001
,  // measure 69
1000
0000
0000
0000
0000
0000
0000
0000
0001
0000
0000
0000
0000
0000
0000
0000
0020
0000
0000
0000
0000
0000
0000
0000
0000
0000
0000
0000
0000
0000
0000
0000
0200
0330
0000
0000
0000
0000
0000
0000
1000
0000
0000
0000
0000
0000
0000
0000
0100
0000
0000
0000
0000
0000
0000
0000
0002
0000
0000
0000
0000
0000
0000
0000
,  // measure 70
0000
1003
0010
0100
0001
0010
0100
0001
,  // measure 71
0100
0000
0010
0000
0001
1000
0100
0010
0001
0000
1000
0000
0100
0000
1000
0000
,  // measure 72
0010
0100
0010
1000
1100
0100
0110
0010
,  // measure 73
0011
0000
1001
0110
1001
0100
0100
0010
,  // measure 74
0010
0000
1000
0000
1000
0000
0001
1000
0010
0000
0100
0001
0100
0000
0010
1000
,  // measure 75
0010
0000
0100
0001
0010
0100
1000
0010
0200
0000
0000
0000
0320
0000
0000
0000
,  // measure 76
2030
3002
0023
0230
2300
0000
3002
0000
,  // measure 77
0023
0000
0000
0000
0000
0000
0000
0000
0031
0100
0001
0010
0100
0100
0010
0001
,  // measure 78
0100
0010
1000
1000
0001
0010
0001
0100
0010
0010
1000
0001
1000
0100
0010
0010
,  // measure 79
0001
0100
0010
1000
0100
0100
0001
0100
1000
0010
0100
0001
0010
0010
0001
0100
,  // measure 80
0010
1000
0100
0100
1000
0001
0100
0001
0010
0010
0001
0100
1000
0100
0010
0010
,  // measure 81
0001
0000
0100
0000
0010
0000
1000
0000
0001
0000
0010
0000
0100
1000
0100
1000
000M
0000
0000
0000
0000
0000
0000
0000
0000
0000
0000
0000
0000
0000
0000
0000
;
