#TITLE:BITTER CHOCOLATE STRIKER;
#SUBTITLE:;
#ARTIST:L.E.D.-G;
#TITLETRANSLIT:;
#SUBTITLETRANSLIT:;
#ARTISTTRANSLIT:;
#GENRE:;
#CREDIT:;
#BANNER:bitter-chocolate-striker-bn.png;
#BACKGROUND:bitter-chocolate-striker-bg.png;
#LYRICSPATH:;
#CDTITLE:arsa-cd.png;
#MUSIC:BITTER CHOCOLATE STRIKER.ogg;
#OFFSET:-0.003000;
#SAMPLESTART:37.820000;
#SAMPLELENGTH:12.000000;
#SELECTABLE:YES;
#BPMS:0.000000=165.000000
;
#STOPS:
;
#BGCHANGES:;
#KEYSOUNDS:;
#ATTACKS:;

//---------------dance-single - ----------------
#NOTES:
     dance-single:
     :
     Beginner:
     1:
     0.098817,0.133783,0.015203,0.000000,0.000000,89.000000,2.000000,0.000000,0.000000,0.000000,0.000000,0.098817,0.133783,0.015203,0.000000,0.000000,89.000000,2.000000,0.000000,0.000000,0.000000,0.000000:
0000
0000
0000
0000
,
0000
0000
0000
0000
,
0000
0000
0000
0000
,
0000
0000
0000
0000
,
0000
0000
0000
0000
,
0000
0000
0000
0000
,
0000
0000
0000
0000
,
0000
0000
0000
0000
,
0010
0000
0100
0000
,
0010
0000
0000
0000
,
1000
0000
0001
0000
,
1000
0000
0000
0000
,
0001
0000
0000
0000
,
0001
0000
0000
0000
,
1000
0000
0000
0000
,
1000
0000
0000
0000
,
0010
0000
0000
0000
,
0010
0000
0000
0000
,
0010
0000
0000
0000
,
0010
0000
0000
0000
,
0100
0000
0000
0000
,
0010
0000
0000
0000
,
0100
0000
0000
0000
,
0010
0000
0000
0000
,
0100
0000
0000
0000
,
0000
0000
0000
0000
,
1000
0000
1000
0000
,
1000
0000
0000
0000
,
0001
0000
0000
0000
,
1000
0000
0000
0000
,
0001
0000
0001
0000
,
0001
0000
0000
0000
,
1000
0000
0000
0000
,
0001
0000
0000
0000
,
1000
0000
1000
0000
,
1000
0000
1000
0000
,
1000
0000
0000
0000
,
1000
0000
0000
0000
,
0001
0000
0001
0000
,
0001
0000
0001
0000
,
0001
0000
0000
0000
,
0001
0000
0000
0000
,
0100
0000
0010
0000
,
0100
0000
0000
0000
,
0010
0000
0100
0000
,
0010
0000
0000
0000
,
1000
0000
0001
0000
,
1000
0000
0000
0000
,
0001
0000
1000
0000
,
0001
0000
0000
0000
,
0010
0000
0000
0000
,
0000
0000
0000
0000
,
0000
0000
0000
0000
,
0000
0000
0000
0000
,
0000
0000
0000
0000
,
0000
0000
0000
0000
,
0000
0000
0000
0000
,
0000
0000
0000
0000
,
1001
0000
0000
0000
,
0000
0000
0000
0000
,
0010
0000
0000
0000
,
0100
0000
0000
0000
,
0010
0000
0000
0000
,
1000
0000
0000
0000
,
0010
0000
0000
0000
,
1000
0000
0000
0000
,
0001
0000
1000
0000
,
0001
0000
0000
0000
,
1000
0000
0001
0000
,
1000
0000
0000
0000
,
0010
0000
0000
0000
,
0000
0000
0000
0000
,
1000
0000
0100
0000
,
1000
0000
0000
0000
,
0001
0000
0100
0000
,
0001
0000
0000
0000
,
1000
0000
0010
0000
,
1000
0000
0000
0000
,
0001
0000
0010
0000
,
0001
0000
0000
0000
,
1000
0000
0000
0000
,
0001
0000
0000
0000
,
1000
0000
0000
0000
,
0001
0000
0000
0000
,
0100
0000
0000
0000
,
0010
0000
0000
0000
,
0100
0000
0000
0000
,
0010
0000
0000
0000
,
1001
0000
0000
0000
;

//---------------dance-single - ----------------
#NOTES:
     dance-single:
     :
     Easy:
     6:
     0.272562,0.304433,0.098817,0.068412,0.000000,229.000000,13.000000,9.000000,0.000000,0.000000,0.000000,0.272562,0.304433,0.098817,0.068412,0.000000,229.000000,13.000000,9.000000,0.000000,0.000000,0.000000:
0000
0000
0000
0000
,
0000
0000
0000
0000
,
0000
0000
0000
0000
,
0000
0000
0000
0000
,
1000
0000
0000
0000
,
0001
0000
0000
0000
,
0010
0000
0000
0000
,
0100
0000
0000
0000
,
1000
0000
0010
0000
,
1000
0000
0010
0000
,
0100
0000
0001
0000
,
0100
0001
0001
0000
,
1001
0000
0110
0000
,
1001
0000
0110
0000
,
1000
0001
1000
1000
,
0001
0000
1000
0000
,
0002
0000
0013
0000
,
2000
0000
3010
0000
,
0200
0000
0310
0000
,
0010
0010
0010
0000
,
0100
0001
0100
0001
,
1000
0100
1000
0100
,
0010
0001
1000
0001
,
0010
0100
0010
0100
,
0010
0000
0000
0000
,
0000
0000
0000
0000
,
1000
1000
0100
0001
,
0100
0000
0010
0010
,
1000
0001
0010
0001
,
1000
0001
1000
0000
,
0010
0100
0001
0100
,
0010
0000
1000
1000
,
0100
0010
0100
1000
,
0001
0010
0100
0000
,
1001
0000
0110
0000
,
1001
0000
0110
0000
,
1000
1000
0001
0001
,
1000
0001
1000
0000
,
0110
0000
1001
0000
,
0110
0000
1001
0000
,
0001
0001
1000
1000
,
0001
1000
0001
0000
,
1000
0100
0010
0100
,
1000
0000
0001
0001
,
0100
0010
1000
0001
,
0100
0010
0100
0000
,
0001
0001
1000
0001
,
0010
0000
0001
0001
,
0100
0010
1000
0001
,
0010
0002
0103
0010
,
1000
0000
0000
0000
,
0000
0000
0000
0000
,
0000
0000
0000
0000
,
0000
0000
0000
0000
,
0000
0000
0000
0000
,
0000
0000
0000
0000
,
0000
0000
0000
0000
,
0000
0000
0000
0000
,
0100
0000
0100
0000
,
0010
0000
0010
0000
,
1000
1000
0001
0001
,
2000
0000
3001
0000
,
1000
0100
0001
0100
,
1000
0000
0001
0000
,
1000
0010
0001
0010
,
1000
0001
1000
0000
,
0001
0100
0001
0100
,
0010
1000
0010
1000
,
0100
0010
0001
1000
,
0001
0020
0130
1000
,
0010
0000
0000
0000
,
0000
0000
0000
0000
,
1000
0100
1000
0100
,
0010
0000
0001
0000
,
0100
0001
1000
0001
,
0100
0010
0100
0000
,
0001
0010
0001
0010
,
0100
2000
3010
0000
,
0100
0001
1000
0001
,
0100
0010
1000
0000
,
0001
0100
0001
0100
,
0001
0010
0100
1000
,
0010
0100
0010
0100
,
0010
1001
0100
0100
,
0001
0010
0001
1000
,
0010
1000
0100
0010
,
0100
2000
3010
0100
,
0001
0010
0001
0100
,
0020
0000
0000
0000
,
0030
0000
0000
0000
;

//---------------dance-single - ----------------
#NOTES:
     dance-single:
     :
     Medium:
     9:
     0.433276,0.541214,0.326857,0.152027,0.235641,336.000000,43.000000,20.000000,0.000000,0.000000,0.000000,0.433276,0.541214,0.326857,0.152027,0.235641,336.000000,43.000000,20.000000,0.000000,0.000000,0.000000:
0000
0000
0000
0000
,
0000
0000
0000
0000
,
0000
0000
0000
0000
,
0000
0000
0000
0000
,
0020
0030
0100
0001
,
2000
3000
0100
0010
,
0200
0300
1000
0010
,
0200
0300
0020
0030
,
0001
0001
1000
1000
,
0001
1000
0001
1000
,
0010
0100
0001
0100
,
0010
1000
0001
0010
,
0011
0011
0011
0011
,
1000
1000
0001
0001
,
1010
0000
0000
1010
0000
0000
0001
0000
1000
0001
0000
0000
,
0120
0100
0100
0130
,
1000
0000
0100
1000
0000
0000
0010
0000
0000
0010
0000
0000
,
0100
0000
0001
0100
0000
0000
0010
0000
0000
0010
0000
0000
,
1000
0000
0001
1000
0000
0000
0001
0000
1000
0001
0000
0000
,
0010
0100
0010
0001
,
1000
0000
1000
0010
0000
0010
1000
0000
0000
0001
0000
0000
,
0010
0000
0010
0001
0000
0001
0010
0000
0000
0001
0000
0000
,
0100
0000
0010
1000
0000
0000
0001
0000
0010
0100
0000
0000
,
1000
0000
1001
0000
0000
0110
0000
0000
1001
0000
0000
0100
,
0020
0000
0000
0000
,
0000
0000
0000
0030
,
1000
0000
0000
0001
0000
0000
0010
0000
0001
0010
0000
0001
,
0000
0100
0100
0100
,
0010
0000
0000
1000
0000
0000
0001
1000
0001
1000
0000
0010
,
0000
0100
0001
0100
,
0010
0000
0000
1000
0000
0000
0100
0000
1000
0100
0000
1000
,
0000
0010
0010
0010
,
0100
0000
0000
0001
0000
0000
1000
0100
1000
0100
0000
0000
,
0110
1001
0110
1001
,
0110
0100
0101
0001
,
0011
0010
0110
0100
,
1100
0101
1100
0101
,
1000
0000
1000
0100
0000
0100
0010
0000
0010
0001
0000
0001
,
1000
0010
0110
0100
,
0101
0001
1001
1000
,
1100
0011
0101
1010
,
2001
0001
3001
0000
,
1000
0000
0000
0100
0000
0000
0001
0000
0010
0001
0000
0010
,
0000
0100
1000
0100
,
0010
0000
0000
0001
0000
0000
1000
0010
1000
0010
0000
0100
,
0001
0000
0100
0001
0000
0100
0001
0000
0100
0001
0000
0100
,
0001
0000
0000
1000
0000
0000
0100
0000
0010
0100
0000
0010
,
0000
0001
1000
0001
,
0100
0000
0000
0010
0000
0000
1000
0001
1000
0001
0000
0000
,
0110
0000
0000
2001
0000
0000
3100
0000
0010
0000
0001
0000
,
2000
0000
0000
0000
,
3000
0000
0000
0000
,
0002
0000
0000
0000
,
0003
0000
0000
0000
,
0020
0000
0000
0000
,
0030
0000
0000
0000
,
0200
0000
0000
0000
,
0300
0000
0000
0000
,
1000
1000
1000
1000
,
0001
0001
1000
1000
,
0110
0100
0001
0001
,
2000
0100
3001
0000
,
1000
0010
0100
0001
,
0010
0001
0100
0010
,
1010
1000
0100
0100
,
0010
0001
1000
0001
,
0010
0000
0000
0010
0000
0000
0010
0000
0100
0010
0000
0100
,
0010
0000
0000
0001
0000
0000
0001
0000
1000
0001
0000
1000
,
0001
0101
1001
1100
,
0010
0000
0000
0002
0000
0000
0103
0000
0010
0000
0100
0000
,
0020
0000
0000
0000
,
0000
0000
0000
0030
,
1000
0100
0001
0100
,
1000
0000
1000
0000
0000
0000
0010
0000
0100
0010
0000
0000
,
0001
0010
0100
1000
,
1000
0010
0100
0001
,
1001
1000
0100
1000
,
0010
0000
0200
0000
0000
0000
0301
0000
1000
0001
0000
0000
,
0100
0000
0010
0100
0000
0000
1000
0000
0001
1000
0000
0000
,
0001
1000
0100
0100
,
0011
0001
1000
1000
,
0010
0000
0010
0000
0000
0000
0100
0000
0001
1000
0000
0000
,
1100
1100
0100
0010
,
0001
1001
0001
0001
,
0100
0010
1000
0001
,
1000
0010
0100
0001
,
1000
0000
0100
2000
0000
0000
3001
0000
0100
0001
0000
0000
,
0010
0000
0100
0010
0000
0000
0100
0000
0010
0000
0100
0000
,
2002
0000
0000
0000
,
3003
0000
0000
0000
;

//---------------dance-single - ----------------
#NOTES:
     dance-single:
     :
     Hard:
     13:
     0.626566,0.777996,0.319256,0.220438,0.889355,506.000000,42.000000,29.000000,0.000000,0.000000,0.000000,0.626566,0.777996,0.319256,0.220438,0.889355,506.000000,42.000000,29.000000,0.000000,0.000000,0.000000:
0000
0000
0000
0000
,
0000
0000
0000
0000
,
0000
0000
0000
0000
,
0000
0000
0000
0000
,
2000
0000
0000
0000
,
3200
0000
0000
0000
,
0302
0000
0000
0000
,
0023
0000
0000
0000
,
0031
0100
0001
1000
,
0100
0000
0100
1000
0000
1000
0001
0000
0001
0100
0000
0100
,
0010
1000
0001
1000
,
0010
0000
0010
0100
0000
0100
0001
0000
0001
1000
0000
0000
,
1100
1001
0101
0110
,
1010
1001
0011
0110
,
1100
0000
0000
0101
0000
0000
1000
0100
0010
0001
0000
0000
,
0110
0000
0000
1001
0000
0000
0110
0000
0000
1001
0000
0001
,
1000
0100
1000
0100
0000
0000
0010
0000
0010
0001
0000
0001
,
0100
0010
0100
0010
0000
0000
1000
0000
1000
0001
0000
0001
,
0010
0001
1000
0001
0000
0000
0010
0000
0010
1000
0000
1000
,
0010
0100
0001
1000
0000
1001
0000
0000
0000
0210
0000
0000
,
0301
0010
0001
0100
0000
0000
0100
0010
1000
0010
0000
0000
,
0010
0100
0001
1000
0000
0000
1000
0100
0010
0100
0000
0000
,
1000
0000
1000
0001
0000
0001
0100
0000
0100
0010
0000
0010
,
1000
0000
0001
0010
0000
0100
1000
0000
0010
0100
0000
0001
,
2000
0000
0000
0000
,
0000
0002
0000
3003
,
1000
0000
1000
0010
0100
0010
0100
0000
0100
0001
0000
1000
,
0000
0000
0000
0001
0000
0001
0010
0000
0010
0100
0000
0100
,
1000
0000
1000
0001
0000
1000
0100
0010
0001
0100
0000
0010
,
1000
0000
1000
0001
0000
1000
0001
0000
1000
0001
0000
1000
,
0001
0000
0100
0010
1000
0010
1000
0000
0100
0010
0000
0001
,
0000
0000
0000
0100
0000
0100
0010
0000
0010
1000
0000
1000
,
0001
0000
1000
0001
0000
0001
0010
0100
0010
0200
0000
0000
,
1300
0000
0000
0110
0000
0001
0000
0000
0110
0000
0000
0000
,
1001
0000
0000
1000
0100
1000
0100
0000
0000
0010
0001
0010
,
0001
0000
0000
0100
0010
0100
0010
0000
0001
1000
0001
1000
,
0001
0000
1000
0100
0000
0001
0100
0000
1000
0100
0000
0001
,
0100
0110
1001
0100
,
1001
0000
0000
1000
0100
0010
0100
0000
0000
1000
0001
0100
,
0001
0000
0000
1000
0010
0100
0010
0000
0100
0001
1000
0001
,
0100
0110
1001
0110
,
1200
0000
0000
0310
0000
0000
2002
0000
0000
3003
0000
1000
,
0001
0000
0000
0100
0010
1000
0010
0000
0100
0001
0000
0100
,
0000
0000
0000
0010
0000
1000
0010
0000
1000
0100
0000
1000
,
0010
0000
0100
0000
0000
0001
1000
0100
1000
0001
0000
0100
,
0010
0000
1000
0001
0000
0010
0100
0000
1000
0001
0000
0100
,
0010
0000
0010
1000
0001
1000
0010
0000
0010
0100
0000
0100
,
0001
0000
1000
0010
0000
0001
0010
0000
0001
0010
0000
0100
,
0010
0000
0001
1000
0001
1000
0001
1000
0010
0100
0010
0100
,
0010
0000
0010
2000
0000
0000
3001
0000
0001
0010
0000
0010
,
0200
0000
0000
0000
,
0000
0000
0000
0000
,
2000
0000
0000
0300
,
0002
0000
0000
3000
,
0200
0000
0000
0000
,
0000
0000
0000
0003
,
0020
0000
0000
0300
,
2000
0000
0000
3030
,
1001
0001
0001
0001
,
1000
1000
0100
0100
,
0110
0001
1000
0001
,
0210
0010
0310
0000
,
1100
0000
0100
0010
0000
0010
0001
0000
0001
1000
0000
0001
,
1000
0000
1000
0010
0000
0010
0100
0000
0100
0001
0000
1000
,
0001
0000
0001
0100
0000
1000
0100
0000
0001
0010
0000
1000
,
0010
0000
0000
0110
0000
0000
1001
0000
0000
0110
0000
1000
,
0001
0000
1000
0100
0000
0000
0001
0000
0001
0100
0000
0100
,
1000
0000
0000
0110
0000
0000
0001
0000
0001
0010
0001
0010
,
0100
1100
1001
0101
,
0100
0010
1000
0002
0000
0000
0103
0000
0010
0000
0100
0000
,
0020
0000
0000
0000
,
0000
0200
0000
0330
,
1000
0000
1000
0100
0010
0100
1000
0000
1000
0010
0100
0001
,
0010
0000
0001
0000
0000
0000
0001
0100
0001
0100
0000
0010
,
1000
0000
1000
0100
0000
0000
0010
0001
0010
0001
0000
1000
,
0001
0000
1000
0001
0000
0001
0100
0000
0100
0010
0000
0010
,
1000
0000
0001
0100
0010
0100
0001
0000
1000
0100
0010
0001
,
1000
0000
0220
0000
0000
0030
0301
1000
0001
0100
0010
0100
,
0001
0000
0001
0100
0000
0000
1000
0000
1000
0100
0000
0000
,
0010
0000
0010
0001
0000
0001
0100
0000
0100
0010
1000
0001
,
1000
0000
1000
0100
0000
0100
0010
0000
0010
0001
0000
0001
,
1000
0000
0010
1000
0000
1000
0100
0010
0001
1000
0100
1000
,
0100
0000
0100
0010
0001
0010
0100
0000
0100
1000
0001
1000
,
0100
0000
0000
0220
0000
0000
0330
0000
1001
0000
0000
0010
,
0100
0001
0100
0001
0100
0001
0100
0001
0100
0001
0000
0001
,
1000
0100
1000
0100
1000
0100
0010
0001
0010
0100
1000
0100
,
0010
0001
0010
0002
0000
0000
0103
0010
1000
0001
0100
0001
,
1000
0100
0010
0001
1000
0010
0100
0000
0010
0000
0100
0000
,
2002
0000
0000
0000
,
3003
0000
0000
0000
;

//---------------dance-single - ----------------
#NOTES:
     dance-single:
     :
     Challenge:
     16:
     0.802483,0.879473,0.486485,0.205236,1.000000,648.000000,64.000000,27.000000,0.000000,0.000000,1.000000,0.802483,0.879473,0.486485,0.205236,1.000000,648.000000,64.000000,27.000000,0.000000,0.000000,1.000000:
// measure 0
0000
0000
0000
0000
,  // measure 1
0000
0000
0000
0000
,  // measure 2
0000
0000
0000
0000
,  // measure 3
0000
0000
0000
0000
,  // measure 4
2000
0000
3200
0000
,  // measure 5
2300
0000
3002
0000
,  // measure 6
0203
0000
0320
0000
,  // measure 7
2030
0000
0000
3002
0023
0000
0000
0000
,  // measure 8
0130
0000
0100
1000
0000
1000
0001
0000
0001
0100
0000
0100
,  // measure 9
0010
0000
1000
0010
0000
0100
0001
0000
1000
0100
0000
0010
,  // measure 10
0001
0000
0001
1000
0000
1000
0010
0000
0010
0100
0000
0100
,  // measure 11
0001
0000
1000
0100
0000
1000
0100
0000
0010
0001
0000
0010
,  // measure 12
0011
1001
1010
0110
,  // measure 13
0101
1001
1100
0110
,  // measure 14
0011
0000
0000
0011
0000
0000
1000
0010
0100
0110
0000
0000
,  // measure 15
1001
0000
0000
0110
0000
0000
1001
0000
0000
0110
0000
0010
,  // measure 16
1000
0100
1000
0001
0100
0001
1000
0100
1000
0001
0100
0010
,  // measure 17
1000
0100
0010
0100
1000
0010
0100
0001
0010
0100
0010
0001
,  // measure 18
0100
0001
1000
0100
1000
0001
0010
0001
1000
0010
1000
0001
,  // measure 19
1000
0001
1000
0001
0000
0110
0000
0000
0000
1001
0000
0100
,  // measure 20
0010
1000
0010
0100
0001
0100
0001
0010
0001
1000
0010
1000
,  // measure 21
0010
0100
0001
0100
0010
1000
0100
0010
0100
1000
0001
1000
,  // measure 22
0100
0010
0100
0010
0001
0010
0001
1000
0001
1000
0010
1000
,  // measure 23
0010
0000
0000
0000
0100
0001
0100
0000
0000
0000
0010
1000
0010
0000
0000
0000
0100
0001
0100
0000
0000
0000
0010
0100
,  // measure 24
0020
0000
0000
0000
,  // measure 25
0000
0200
0000
0330
,  // measure 26
1000
0000
0001
0010
0001
0100
0010
0000
0010
1000
0000
1001
,  // measure 27
0000
0000
0000
0001
0000
0001
0100
0000
0100
1000
0000
1000
,  // measure 28
0010
0000
0100
0001
1000
0001
0100
0010
1000
0001
0000
0001
,  // measure 29
1000
0000
0100
1000
0000
0100
1000
0000
0100
0001
0000
0100
,  // measure 30
0101
0000
1000
0100
1000
0001
0100
0000
0100
0010
0000
0110
,  // measure 31
0000
0000
0000
1000
0000
1000
0001
0000
0001
0010
0000
0010
,  // measure 32
0001
0000
1000
0010
1000
0100
0010
0001
0010
0100
0000
0100
,  // measure 33
1000
0000
1000
0001
0100
0010
0000
0000
1001
0000
0000
0010
,  // measure 34
0110
0000
1000
0100
0010
0001
0101
0000
0001
0100
0010
1000
,  // measure 35
1001
0000
1000
0100
0010
0100
0110
0000
0001
0100
0010
1000
,  // measure 36
1001
0000
1000
0100
0000
0000
1001
0000
0001
0100
0000
0000
,  // measure 37
0110
0000
1000
0100
0000
1000
0100
0000
0001
0100
0000
0001
,  // measure 38
0101
0000
0001
0100
0010
1000
1010
0000
1000
0100
0010
0100
,  // measure 39
0110
0000
1000
0100
0010
0001
1001
0000
0001
0100
0010
1000
,  // measure 40
1001
0000
1000
0010
0000
0000
1001
0000
0001
0010
0000
0000
,  // measure 41
0110
0000
0000
0000
0000
0000
1001
0000
0000
0000
0000
0000
0110
0000
0000
0000
1000
0000
0001
0000
0000
0000
1000
0001
,  // measure 42
1000
0000
1000
0100
0010
0100
1000
0000
1000
0010
0000
1010
,  // measure 43
0000
0000
0000
0100
0000
0100
0001
0000
0001
1000
0001
1000
,  // measure 44
0100
0000
0100
0010
0100
1000
0001
0100
0010
1000
0100
0010
,  // measure 45
0001
0000
0000
0000
1000
0100
1000
0000
0000
0000
0100
1000
0100
0000
0000
0000
1000
0001
1000
0000
0000
0000
0001
0100
,  // measure 46
0001
0000
1000
0100
0010
0001
0100
0001
1000
0100
1000
0010
,  // measure 47
0100
0001
1000
0100
0010
0100
1000
0001
1000
0100
0010
0100
,  // measure 48
1000
0000
0000
0000
1000
0000
0100
0000
1000
0000
0010
0000
0100
0000
0001
1000
0001
0000
0100
0000
0010
0000
1000
0000
,  // measure 49
0001
0010
0100
4000
0000
0000
3010
0100
0001
1000
0100
0010
,  // measure 50
0002
0000
0000
0000
,  // measure 51
0000
0000
0000
0000
,  // measure 52
0200
0000
0000
0003
,  // measure 53
0020
0000
0000
0300
,  // measure 54
2000
0000
0000
0000
,  // measure 55
0000
0000
0000
0030
,  // measure 56
0001
0000
0001
0000
0002
0000
0000
0000
0000
0003
0000
0000
,  // measure 57
0020
0000
0000
3030
,  // measure 58
1010
0000
1000
0100
0000
0100
0010
0000
0010
0001
0000
0001
,  // measure 59
0100
0000
0100
0010
0000
0010
1000
0000
1000
0001
0000
0010
,  // measure 60
0001
0000
0100
0010
0000
1000
0001
0000
0010
0100
0000
1000
,  // measure 61
1010
0110
2002
3003
,  // measure 62
1100
0000
0001
0100
0001
0100
0010
1000
0001
1000
0010
0100
,  // measure 63
0001
1000
0001
0100
0010
0100
0001
0010
0100
1000
0100
0010
,  // measure 64
0001
0100
0001
1000
0100
1000
0010
0100
0010
1000
0001
1000
,  // measure 65
0100
0010
0100
0010
0001
0010
0001
1000
0001
1000
0001
1000
,  // measure 66
1010
0000
0000
0110
0000
0000
1000
0100
0010
0001
0000
0001
,  // measure 67
0101
0000
0000
0110
0000
0000
0001
0100
0010
1000
0100
1000
,  // measure 68
1100
1001
0101
0110
,  // measure 69
1000
0000
0100
0000
0010
0000
0001
1000
0001
1000
0001
0000
1000
0000
0000
0000
0110
0000
0000
0000
1001
0000
0000
0000
,  // measure 70
0220
0000
0000
0000
,  // measure 71
0330
2002
0000
3003
,  // measure 72
1001
0000
1000
0100
0010
0001
0100
0000
0100
0001
0010
0001
,  // measure 73
0100
0000
0101
0000
0000
0100
0010
1000
0001
1000
0010
0100
,  // measure 74
0001
0000
0001
1000
0100
0001
0100
0000
0100
0010
1000
0001
,  // measure 75
0100
0010
0100
0010
1000
0001
1000
0000
1000
0100
0000
0100
,  // measure 76
0010
0000
0010
0001
0010
0100
1000
0001
1000
0100
0010
0001
,  // measure 77
0100
0000
0000
0000
0010
1000
0010
1000
0010
1000
0010
1000
0010
0000
0100
0000
0010
0000
1000
0000
0001
0000
1000
0000
,  // measure 78
0010
0000
0100
0110
0000
0000
1000
0001
0010
0100
1000
0001
,  // measure 79
0100
0000
0100
0001
1000
0001
0100
0010
0100
0001
0010
0100
,  // measure 80
1000
0000
1000
0100
0010
0100
1000
0000
1000
0010
0100
0001
,  // measure 81
0010
0000
0100
0010
0000
0000
0001
1000
0001
0100
0010
0100
,  // measure 82
0001
0000
0001
1000
0100
1000
0010
0000
0010
0100
0001
1000
,  // measure 83
0000
0000
0000
2002
0000
0000
3003
0000
0110
0000
0000
0110
,  // measure 84
0010
1000
0100
0010
0001
0100
0001
0010
0100
1000
0010
0001
,  // measure 85
0010
1000
0001
1000
0100
0001
0100
1000
0010
0100
0001
0010
,  // measure 86
0001
0000
0100
0000
0010
0000
1000
0010
1000
0010
0000
0000
0100
0000
0001
0000
1000
0000
0001
0000
0100
0010
0100
0000
,  // measure 87
0001
0010
0100
1000
0010
0100
0010
0000
0110
0000
1001
0000
,  // measure 88
0220
0000
0000
0000
,  // measure 89
0330
0000
0000
0000
;
