#TITLE:Alone;
#SUBTITLE:;
#ARTIST:Alan Walker;
#TITLETRANSLIT:;
#SUBTITLETRANSLIT:;
#ARTISTTRANSLIT:;
#GENRE:;
#CREDIT:;
#BANNER:;
#BACKGROUND:;
#LYRICSPATH:;
#CDTITLE:arsa-cd.png;
#MUSIC:Alone.ogg;
#OFFSET:-0.616000;
#SAMPLESTART:21.639999;
#SAMPLELENGTH:12.000000;
#SELECTABLE:YES;
#BPMS:0.000000=97.000000
;
#STOPS:
;
#BGCHANGES:;
#KEYSOUNDS:;
#ATTACKS:;

//---------------dance-single - ----------------
#NOTES:
     dance-single:
     :
     Beginner:
     1:
     0.082117,0.077475,0.000000,0.006248,0.000000,91.000000,0.000000,1.000000,0.000000,0.000000,0.000000,0.082117,0.077475,0.000000,0.006248,0.000000,91.000000,0.000000,1.000000,0.000000,0.000000,0.000000:
0000
0000
0000
0000
,
1000
0000
0001
0000
,
1000
0000
0001
0000
,
1000
0000
0000
0000
,
0001
0000
0000
0000
,
0100
0000
0010
0000
,
0100
0000
0010
0000
,
0100
0000
0000
0000
,
0010
0000
0000
0000
,
1000
0000
1000
0000
,
1000
0000
1000
0000
,
0001
0000
0001
0000
,
0001
0000
0001
0000
,
1000
0000
1000
0000
,
0001
0000
0001
0000
,
1000
0000
0001
0000
,
1000
0000
0000
0000
,
0010
0000
0000
0000
,
0010
0000
0000
0000
,
0100
0000
0000
0000
,
0010
0000
0000
0000
,
1000
0000
0000
0000
,
1000
0000
0000
0000
,
0001
0000
0000
0000
,
1000
0000
0000
0000
,
0010
0000
0000
0000
,
0100
0000
0001
0000
,
0100
0000
0001
0000
,
0100
0000
0000
0000
,
0001
0000
0000
0000
,
1000
0000
0100
0000
,
1000
0000
0100
0000
,
1000
0000
0000
0000
,
0100
0000
0000
0000
,
0010
0000
0000
0000
,
0100
0000
0000
0000
,
0010
0000
0000
0000
,
0100
0000
0000
0000
,
0001
0000
0001
0000
,
0001
0000
0001
0000
,
1000
0000
1000
0000
,
1000
0000
1000
0000
,
0001
0000
0001
0000
,
1000
0000
1000
0000
,
0001
0000
1000
0000
,
0001
0000
0000
0000
,
0100
0000
0000
0000
,
0100
0000
0000
0000
,
0010
0000
0000
0000
,
0100
0000
0000
0000
,
1000
0000
0000
0000
,
1000
0000
0000
0000
,
0001
0000
0000
0000
,
1000
0000
0000
0000
,
0020
0000
0000
0030
,
0010
0000
0001
0000
,
0010
0000
0001
0000
,
0010
0000
0010
0000
,
1000
0000
0010
0000
,
1000
0000
0010
0000
,
1000
0000
0010
0000
,
1000
0000
0010
0000
,
1000
0000
0000
0000
;

//---------------dance-single - ----------------
#NOTES:
     dance-single:
     :
     Easy:
     5:
     0.196366,0.196812,0.006248,0.174944,0.000000,191.000000,1.000000,28.000000,0.000000,0.000000,0.000000,0.196366,0.196812,0.006248,0.174944,0.000000,191.000000,1.000000,28.000000,0.000000,0.000000,0.000000:
0000
0000
0000
0000
,
1000
0000
0001
0000
,
1000
0000
0001
0000
,
0010
0000
0000
0100
,
0100
0000
0000
0001
,
0001
0000
1000
0000
,
0001
0000
1000
0000
,
0010
0000
0000
0100
,
0100
0000
0010
0010
,
0010
1000
1000
0000
,
0010
0001
0001
0000
,
2000
0000
3000
0000
,
0002
0000
0003
0000
,
1000
0100
1000
0100
,
0001
0100
0001
0100
,
1000
0100
0010
0001
,
0020
0000
0000
0030
,
1000
1000
0200
0310
,
0001
0001
0200
0310
,
1000
0001
0010
0001
,
1000
1000
0001
0001
,
0010
0010
0200
1300
,
0010
0010
0200
0301
,
0010
0100
0010
0100
,
1000
0010
0100
0001
,
0020
0000
0000
0030
,
2000
3000
0002
0003
,
0020
0030
0002
0003
,
2000
0010
3010
0100
,
0002
0010
0013
0100
,
1000
0010
0001
0010
,
1000
0100
0001
0100
,
2000
0100
3100
0010
,
0002
0100
0103
0010
,
1000
0000
0001
0000
,
1000
0000
0001
0000
,
0010
0000
0100
0000
,
0010
0000
0100
0100
,
0100
0001
0001
0000
,
0100
1000
1000
0000
,
0002
0000
0003
0000
,
2000
0000
3000
0000
,
0010
1000
0100
0010
,
0010
0001
0100
0010
,
1000
0001
0010
0100
,
2000
0000
0000
3000
,
0001
0001
0200
0310
,
1000
1000
0200
0310
,
0001
0010
0001
0100
,
0010
0010
1000
1000
,
0100
0100
0020
0031
,
0100
0100
0020
1030
,
0100
1000
0001
1000
,
0100
0010
0001
0100
,
0000
0000
0000
1001
,
0100
0100
0020
1030
,
0100
0100
0020
0031
,
1000
0100
0010
0001
,
1000
1000
0020
0130
,
0001
0001
0020
0130
,
1000
0010
0100
0010
,
0001
0010
0100
1000
,
0020
0000
0000
0000
,
0030
0000
0000
0000
;

//---------------dance-single - ----------------
#NOTES:
     dance-single:
     :
     Medium:
     7:
     0.283838,0.255856,0.006248,0.293656,0.000000,270.000000,1.000000,47.000000,0.000000,0.000000,0.000000,0.283838,0.255856,0.006248,0.293656,0.000000,270.000000,1.000000,47.000000,0.000000,0.000000,0.000000:
0000
0000
0000
0000
,
2000
0000
3200
0000
,
0320
0000
0032
0000
,
2003
0000
0000
3010
,
0002
0000
0000
0013
,
0020
0000
0230
0000
,
2300
0000
3002
0000
,
0203
0000
0000
0310
,
2000
0000
0000
0000
3002
0000
0020
0033
,
1000
1000
1000
0000
0010
0000
0100
0000
,
0001
0001
0001
0000
0010
0000
0100
0000
,
1000
0001
1000
0001
2000
0000
3000
0000
,
0010
0100
0010
0100
0020
0000
0030
0000
,
1000
0100
1000
0000
0010
0000
0100
0000
,
0001
0010
0001
0000
0100
0000
0010
0000
,
1000
0001
1000
0001
0020
0000
0030
0000
,
0200
0000
0020
0330
,
1000
0000
0100
0000
1000
1000
0010
0000
,
0001
0000
0100
0000
0001
0001
0010
0000
,
1000
0000
0100
0000
0010
0001
1000
0000
,
0002
0013
2000
3020
,
0130
0000
0001
0000
1000
1000
0100
0000
,
0010
0000
0100
0000
0001
0001
0100
0000
,
0010
0000
1000
0000
0001
0010
0100
0000
,
0002
0103
2000
3200
,
0320
0000
0000
0030
,
0001
0001
0100
1000
,
0010
0010
1000
0100
,
0001
0000
0010
0000
0001
0000
0100
0010
,
1000
0000
0100
0000
1000
0000
0010
0100
,
0001
0001
0001
0000
1000
1000
1000
0000
,
0001
1000
0001
0000
1000
0001
1000
0000
,
0001
0000
0010
0000
1000
0000
0100
0001
,
1000
0000
0100
0000
1000
0001
1000
0001
,
0010
0000
0000
0000
1000
0100
1000
0100
,
0010
0000
0000
0000
0001
0100
0001
0100
,
0010
0000
1000
0000
0001
0010
0100
1000
,
0010
0000
0000
0000
0200
0000
0020
0330
,
0001
0001
0001
0000
0100
0000
0010
0000
,
1000
1000
1000
0000
0100
0000
0010
0000
,
0001
1000
0001
1000
0002
0000
0003
0000
,
0010
0100
0010
0100
0020
0000
0030
0000
,
0001
0100
0001
0000
0010
0000
0100
0000
,
1000
0010
1000
0000
0100
0000
0010
0000
,
0001
1000
0001
1000
0020
0000
0030
0000
,
2000
0000
0002
3003
,
1000
0000
0100
0000
0010
0001
0010
0001
,
0100
0000
0001
0000
0010
0100
0010
0100
,
1000
0000
0010
0000
1000
0001
1000
0001
,
2000
3100
0002
0023
,
0130
0000
1000
0000
0100
1000
0100
1000
,
0010
0000
1000
0000
0100
0010
0100
0010
,
0001
0000
0100
0000
0001
0010
0100
0010
,
0002
0103
2000
3020
,
0230
0000
0000
0000
0000
0300
0110
0000
,
1000
0000
0100
0000
1000
1000
0010
0000
,
0001
0000
0010
0000
0001
0001
0100
0000
,
0002
0013
2000
3200
,
0310
0000
0001
0000
0100
0010
1000
0000
,
0010
0000
0100
0000
0001
0010
0100
0000
,
0001
0000
0100
0000
1000
0100
0010
0000
,
0002
0103
2000
3200
,
0320
0000
0000
0000
,
0030
0000
0000
0000
;

//---------------dance-single - ----------------
#NOTES:
     dance-single:
     :
     Hard:
     11:
     0.481989,0.472349,0.199936,0.368632,0.156200,449.000000,32.000000,59.000000,0.000000,0.000000,0.000000,0.481989,0.472349,0.199936,0.368632,0.156200,449.000000,32.000000,59.000000,0.000000,0.000000,0.000000:
0000
0000
0000
0000
,
2000
3100
0002
0103
,
2000
3010
0002
0023
,
0230
0000
0010
0000
0001
0000
0310
0010
,
0002
0000
0100
0000
1000
0000
0013
0010
,
2000
3100
0020
0031
,
0200
0310
2000
3002
,
0023
0000
0100
0000
1000
0000
0130
0100
,
2000
0000
0000
0010
0000
0000
3001
0000
0000
1000
0001
1000
,
0001
0010
0100
0010
0001
0010
0100
0010
,
0001
1000
0100
1000
0001
1000
0100
1000
,
0001
1000
0100
0010
0002
0000
0103
0000
,
1000
0010
0100
0001
2000
0000
3100
0000
,
0011
0001
0100
0000
1010
1000
0100
0000
,
0110
0100
1000
0000
0110
0100
0001
0000
,
1000
0100
0001
0100
1000
0010
0100
0001
,
0020
0000
0000
0100
0000
0100
0030
0000
1000
0100
0010
0001
1000
0000
0110
0000
,
0001
0000
0000
1000
0000
0000
0100
0000
0000
1000
0000
0000
0010
0000
0100
0010
0000
0100
0010
0000
0000
1000
0000
0000
,
0001
0000
0000
0010
0000
0000
0001
0000
0000
0100
0000
0000
0010
0000
1000
0010
0000
1000
0010
0000
0000
1000
0000
0000
,
0100
0000
0000
1000
0000
0000
0001
0000
0000
1000
0000
0000
0100
0000
0010
0001
0000
0010
0100
0000
0000
1000
0000
0000
,
0002
0103
2000
3100
0002
0023
0130
1001
,
0100
0000
0000
0010
0000
0000
1000
0000
0000
0001
0000
0000
1000
0000
0010
1000
0000
0010
1000
0000
0000
0100
0000
0000
,
0010
0000
0000
0001
0000
0000
0010
0000
0000
0001
0000
0000
0100
0000
0010
0100
0000
0010
0100
0000
0000
0001
0000
0000
,
1000
0000
0000
0100
0000
0000
1000
0000
0000
0010
0000
0000
0100
0000
0001
0010
0000
0100
1000
0000
0000
0001
0000
0000
,
2000
3100
0002
0103
2000
3020
0130
0110
,
2002
0000
0000
0000
0000
0000
0000
3003
,
1000
0100
1000
0010
0100
0100
0001
0000
,
0001
0010
0001
0100
0010
0010
1000
1000
,
0002
0000
0010
0000
0100
0000
1003
1000
,
0020
0000
1000
0000
0100
0000
1030
1000
,
0100
0010
0011
0000
0001
0100
0101
0000
,
0100
0010
1010
0000
1000
0100
0110
0010
,
0002
0000
0010
0000
0100
0000
1003
0010
,
0200
0000
0000
0000
0001
0000
0000
0000
0310
0100
0001
0000
0100
0000
0010
1000
,
0200
0000
0000
0000
0300
0000
0000
0000
1000
0100
0001
0000
1000
0000
0001
0100
,
2000
0000
0000
0000
3000
0000
0000
0000
0010
0100
0001
0000
0010
0000
0001
0100
,
0020
0000
0000
0000
2030
0000
0000
0000
3001
0010
0001
0000
0100
0000
0010
2000
,
0002
0000
0000
3003
0000
0000
1000
0000
0000
0001
1000
0001
,
1000
0001
0010
0001
1000
0010
0100
0001
,
1000
0100
1000
0001
1000
0100
0010
0001
,
0100
0010
1000
0010
0200
0000
0301
0000
,
0010
0100
1000
0100
0020
0000
0031
0000
,
1010
1000
1010
0000
0011
0001
0011
0000
,
1100
1000
1100
0000
0101
0001
0101
0000
,
0101
0001
1100
1000
0011
0001
1010
1000
,
2001
0000
0000
0100
0000
0100
3000
0000
0001
1000
0100
0010
0001
0000
0110
0000
,
1000
0000
0000
0100
0000
0000
1000
0000
0000
0010
0000
0000
0100
0000
0001
0100
0000
0001
0100
0000
0000
0001
0000
0000
,
0010
0000
0000
0001
0000
0000
0100
0000
0000
0010
0000
0000
1000
0000
0100
1000
0000
0100
1000
0000
0000
0010
0000
0000
,
0100
0000
0000
1000
0000
0000
0100
0000
0000
0010
0000
0000
0001
0000
1000
0001
0000
1000
0001
0000
0000
1000
0000
0000
,
0002
0013
2000
3010
0002
0203
0310
1001
,
0100
0000
0000
0010
0000
0000
1000
0000
0000
0001
0000
0000
0010
0000
0100
0010
0000
0001
0010
0000
0000
0001
0000
0000
,
1000
0000
0000
0010
0000
0000
0100
0000
0000
0001
0000
0000
1000
0000
0100
1000
0000
0010
1000
0000
0000
0100
0000
0000
,
0010
0000
0000
0001
0000
0000
1000
0000
0000
0001
0000
0000
0010
0000
0100
1000
0000
0100
0010
0000
0000
0001
0000
0000
,
2000
3010
0002
0013
2000
3200
0310
1001
,
0200
0000
0000
0000
0310
0010
1001
0000
,
1000
0100
0001
0100
1000
0010
0100
0001
,
0010
0100
0010
0001
0100
1000
0100
0001
,
0020
0130
2000
3001
2000
3020
0130
1001
,
0001
0000
0000
0010
0000
0000
0001
0000
0000
0100
0000
0000
0010
0000
1000
0010
0000
0100
0010
0000
0000
1000
0000
0000
,
0001
0000
0000
0010
0000
0000
0001
0000
0000
0100
0000
0000
0001
0000
0010
0001
0000
0100
0001
0000
0000
1000
0000
0000
,
0100
0000
0000
1000
0000
0000
0010
0000
0000
0100
0000
0000
0001
0000
0010
0100
0000
1000
0001
0000
0000
0100
0000
0000
,
0020
1030
0002
0013
0200
2300
3001
0110
,
2002
0000
0000
0000
,
3003
0000
0000
0000
;

//---------------dance-single - ----------------
#NOTES:
     dance-single:
     :
     Challenge:
     13:
     0.635512,0.610118,0.374881,0.381129,0.468601,590.000000,60.000000,61.000000,0.000000,1.000000,0.000000,0.635512,0.610118,0.374881,0.381129,0.468601,590.000000,60.000000,61.000000,0.000000,1.000000,0.000000:
// measure 0
0000
0000
0000
0000
,  // measure 1
2000
0100
3020
0100
,  // measure 2
2030
0001
3020
0001
,  // measure 3
0230
0000
0000
0000
0010
0000
0000
0000
0001
0000
0000
0310
0001
0100
0010
0000
,  // measure 4
2000
0000
0100
0000
0010
0000
3001
1000
,  // measure 5
0002
0010
0203
0010
,  // measure 6
0302
0100
2003
0100
,  // measure 7
3002
0000
0000
0000
0100
0000
0000
0000
1000
0000
0013
0001
0100
0010
1000
0000
,  // measure 8
0200
0000
0000
0310
0000
0000
0110
0000
0000
1100
1000
0001
,  // measure 9
0101
1000
0100
1000
0001
1000
0100
1000
,  // measure 10
0010
0000
0000
0100
0000
0000
0001
0000
0000
0100
0000
0000
0010
0000
0000
0100
0000
0000
0001
0000
0001
0010
0000
0010
,  // measure 11
0100
1000
0001
1000
0100
0010
0001
0010
,  // measure 12
0001
0000
0000
1000
0000
0000
0100
0000
0000
1000
0000
0000
0001
0000
0000
1000
0000
0000
0010
0000
0100
0001
0000
0010
,  // measure 13
0100
1000
0010
1000
1100
1000
1100
0100
,  // measure 14
0010
0001
0100
0001
0011
0010
0011
0001
,  // measure 15
0101
0100
1100
1000
1010
0010
0011
0001
,  // measure 16
0101
0000
0000
0000
1000
0000
0100
0000
0000
0000
0001
0000
0000
0000
0100
0000
1000
0010
1000
0010
1000
0000
0100
0000
0110
0000
0000
0000
1001
0000
0000
0000
,  // measure 17
1000
0000
0000
0100
0000
0100
0010
0000
0000
0001
0000
0000
1000
0100
1000
0001
0100
0001
1000
0000
0000
0110
0000
0000
,  // measure 18
0001
0000
0000
0010
0000
0010
0001
0000
0000
0100
0000
0000
0010
1000
0010
0100
0001
0100
0010
0000
0000
1010
0000
0000
,  // measure 19
1000
0000
0000
0100
0000
0100
0010
0000
0000
0001
0000
0000
1000
0010
1000
0001
0010
0001
1000
0000
0000
0110
0000
0000
,  // measure 20
0002
0000
0000
0013
0000
0010
0200
0000
0000
1300
0000
0000
0020
0000
0000
0230
0000
0000
0302
0000
0000
2003
0000
0000
,  // measure 21
3100
0000
0000
0010
0000
0010
0001
0000
0000
0100
0000
0000
0001
0010
0001
1000
0010
1000
0001
0000
0000
0110
0000
0000
,  // measure 22
1000
0000
0000
0100
0000
0100
0010
0000
0000
0001
0000
0000
1000
0100
0010
0001
0010
0100
1000
0000
0000
1001
0000
0000
,  // measure 23
0001
0000
0000
1000
0000
1000
0010
0000
0000
0100
0000
0000
0001
0010
0001
0100
0010
0100
0001
0000
0000
0110
0000
0000
,  // measure 24
2000
3100
0020
0031
2000
3020
0230
0302
,  // measure 25
0013
0000
0000
0000
0000
0000
0000
0000
0000
0100
0000
0000
0000
0000
0000
0000
0000
0000
1000
0000
0000
0000
0000
0000
0010
0000
0000
0000
1000
0000
0001
0000
0000
0000
1000
0000
0002
0000
0000
0000
0000
0000
0023
0000
0000
0000
0000
0000
,  // measure 26
0130
0000
0000
1000
0000
0001
1000
0000
0000
0010
0000
0000
0100
0000
0000
0001
0000
1000
0001
0000
0000
0010
0000
0000
,  // measure 27
0100
0000
0000
1000
0000
0100
1000
0000
0000
0010
0000
0000
0100
0000
0000
0001
0000
0010
0001
0000
0000
0100
0000
0000
,  // measure 28
0010
0010
1000
1000
0001
0001
0010
0010
,  // measure 29
0002
0103
2000
3100
0002
0013
2000
3020
,  // measure 30
0130
0100
0101
0001
0010
0010
0011
0001
,  // measure 31
1000
1000
1010
0010
0100
0100
0101
0001
,  // measure 32
0011
0000
0000
0000
0000
0000
0010
0000
0000
0000
0100
0000
0010
0000
0000
0000
0000
0000
0001
0000
0000
0000
0000
0000
1000
0000
0000
0000
0000
0000
0010
0000
0000
0100
0000
0000
0001
0000
0000
1000
0000
0000
0100
0000
0000
0000
0000
0000
,  // measure 33
0010
0000
0000
0000
0000
0000
0001
0000
0000
0000
1000
0000
0001
0000
0000
0000
0000
0000
1000
0000
0000
0000
0000
0000
0010
0000
0000
1000
0000
0000
0001
0000
0000
0000
0000
0000
1000
0000
0000
0000
0000
0000
0010
0000
0000
0100
0000
0000
,  // measure 34
0220
0000
0000
0000
0000
0000
0000
0000
0330
0000
0000
0000
0000
0000
0000
0000
1000
0000
0100
0000
0010
0000
0000
0000
0001
0000
0000
0000
0010
0000
0100
1000
,  // measure 35
0200
0000
0000
0000
0000
0000
0000
0000
0000
0000
0000
0000
0300
0000
0000
0000
0000
0000
0010
0000
0001
0000
1000
0000
0010
0000
0000
0000
0000
0000
0100
0000
0000
0000
0000
0000
0001
0000
0000
0000
0000
0000
2000
0000
0000
0010
0000
0000
,  // measure 36
3020
0000
0000
0000
0000
0000
0000
0000
0230
0000
0000
0000
0000
0000
0301
0000
1000
0000
0100
0000
0001
0000
0100
0000
1000
0000
0000
0000
0010
0000
0100
0010
,  // measure 37
0200
0000
0000
0300
0000
0000
0110
0000
0000
1010
1000
0001
,  // measure 38
0101
1000
0100
1000
0001
1000
0100
1000
,  // measure 39
0010
0000
0000
0100
0000
0000
0001
0000
0000
0100
0000
0000
0010
0000
0000
0100
0000
0000
0001
0000
0001
0010
0000
0010
,  // measure 40
1000
0001
1000
0100
1000
0001
1000
0010
,  // measure 41
0100
0000
0000
0001
0000
0000
0010
0000
0000
0100
0000
0000
1000
0000
0000
0001
0000
0000
1000
0000
1000
0010
0000
0010
,  // measure 42
0200
0301
0002
0013
0020
0130
0200
1300
,  // measure 43
2000
3020
0032
0023
2030
3200
0320
0032
,  // measure 44
1003
0010
1000
0010
0100
0001
0010
0001
0100
0010
0100
0010
1000
0100
0010
0001
,  // measure 45
0100
0000
0000
0000
0010
0000
1000
0000
0000
0000
0001
0000
0000
0000
1000
0000
0010
0100
0010
0100
0010
0000
1000
0000
1001
0000
0000
0000
0110
0000
0000
0000
,  // measure 46
1000
0000
0000
0010
0000
0010
0100
0000
0000
0001
0000
0000
1000
0100
1000
0001
0100
0001
1000
0000
0000
0110
0000
0000
,  // measure 47
0001
0000
0000
0010
0000
0010
0100
0000
0000
1000
0000
0000
0001
0010
0001
1000
0010
1000
0001
0000
0000
0011
0000
0000
,  // measure 48
0010
0000
0000
0100
0000
0100
1000
0000
0000
0010
0000
0000
1000
0100
0010
0100
1000
0001
0100
0000
0000
0110
0000
0000
,  // measure 49
0200
0000
0000
0301
0000
0001
0020
0000
0000
0130
0000
0000
2000
0000
0000
3020
0000
0000
0130
0000
0000
0110
0000
0000
,  // measure 50
1001
0000
0000
0001
0000
0001
0010
0000
0000
0100
0000
0000
1000
0100
1000
0010
0100
0010
1000
0000
0000
0110
0000
0000
,  // measure 51
0001
0000
0000
1000
0000
1000
0100
0000
0000
0010
0000
0000
0001
0100
0001
0010
0100
0010
0001
0000
0000
0110
0000
0000
,  // measure 52
0001
0000
0000
1000
0000
1000
0100
0000
0000
0010
0000
0000
0100
1000
0100
0010
0001
0010
0100
0000
0000
0110
0000
0000
,  // measure 53
2000
3010
0200
0301
0020
0032
0203
0310
,  // measure 54
1001
0000
0000
0100
0000
0000
0010
0000
1000
0000
0001
0000
1101
0000
0000
0000
,  // measure 55
1000
0000
0000
0010
0000
0010
0100
0000
0000
0001
0000
0000
1000
0100
0010
0100
1000
0001
0100
0000
0000
0110
0000
0000
,  // measure 56
0100
0000
0000
0001
0000
0001
1000
0000
0000
0100
0000
0000
0010
0001
0010
0100
1000
0100
0010
0000
0000
0011
0000
0000
,  // measure 57
1001
0010
0110
1000
1100
1001
0101
1001
,  // measure 58
0011
0000
0000
0010
0000
0010
0100
0000
0000
1000
0000
0000
0001
0010
0001
0100
0010
1000
0001
0000
0000
0110
0000
0000
,  // measure 59
1000
0000
0000
0100
0000
0100
0010
0000
0000
0001
0000
0000
1000
0100
0010
0100
1000
0001
0100
0000
0000
0110
0000
0000
,  // measure 60
1000
0000
0000
0001
0000
0001
0010
0000
0000
0001
0000
0000
0100
0010
0100
0001
1000
0001
0010
0000
0000
0110
0000
0000
,  // measure 61
0011
0001
0101
0100
1010
1100
0011
0101
,  // measure 62
0220
0000
0000
0000
,  // measure 63
0330
0000
0000
0000
;
