#TITLE:will o' the wisp;
#ARTIST:XIzE;
#BANNER:will o' the wisp-bn.png;
#BACKGROUND:will o' the wisp-bg.png;
#JACKET:will o' the wisp-jacket.png;
#MUSIC:will o' the wisp.ogg;
#SAMPLESTART:24.187;
#SAMPLELENGTH:20;
#DISPLAYBPM:159;
#BPMS:0=159;
#BGCHANGES:;

//---------------dance-single - ----------------
#NOTES:
     dance-single:
     :
     Hard:
     15:
     :
0000
0000
0000
0000
,
0000
0000
0000
0000
,
1000
0010
0001
0100
,
1000
0000
0010
0000
0001
0100
0010
1000
,
0001
0010
1000
0100
,
0001
0000
0010
0000
1000
0100
0010
0001
,
1000
0100
0001
0010
,
1000
0000
0001
0000
0100
0010
0100
0000
0001
0010
0001
0000
1000
0010
1000
0000
,
1001
0000
0101
0000
1000
0010
0001
0100
,
0000
0010
0100
0010
1000
0100
0001
1000
,
0000
0000
0001
0000
1000
0010
1000
0000
0100
0000
0010
0000
0001
0000
1000
0000
,
0000
0000
0001
0010
0001
0000
0100
0000
1000
0000
0001
0000
0010
0000
0100
0000
,
1000
0000
0010
0100
0010
0000
1000
0000
0001
0000
0010
0000
0100
0000
1000
0000
,
0000
0001
0100
0001
1000
0010
0001
0100
,
0000
0000
0010
1000
0010
0000
0100
0000
0001
0000
0010
0000
1000
0000
0001
0000
,
0000
0000
1000
0100
0010
0100
1000
0000
0001
0100
0001
0000
1000
0100
1000
0000
,
0001
0000
0010
0100
0010
0000
0001
0000
1000
0000
0010
0100
0010
0000
1000
0000
,
0001
0010
1000
0001
0100
0000
0010
0000
,
1000
0000
0100
0010
0100
0000
1000
0000
0001
0000
0010
0100
0010
0000
0001
0000
,
1000
0000
0010
0000
0001
0000
1000
0000
0100
0000
0010
0001
1000
0000
0100
0000
,
0010
0000
0001
0100
0001
0000
0010
0000
0100
0000
1000
0001
1000
0000
0010
0000
,
0100
0000
0001
0000
0010
0000
0100
0000
1000
0000
0000
0000
1000
0001
1000
0001
,
0100
0000
0010
1000
0010
0000
0100
0000
0001
0000
1000
0001
1000
0000
0010
0000
,
0100
0000
0001
0000
0010
0000
0001
0000
1000
0000
0100
0010
0001
0000
1000
0000
,
0001
0000
0100
0010
0000
1000
0000
0001
0000
1000
0100
0010
0100
1000
0001
0000
,
0100
0000
0001
0010
0001
0000
0010
0100
1000
0000
0010
1000
0010
0000
0100
0000
,
0001
0000
0010
0100
0000
0010
0000
0001
0000
1000
0010
1000
0100
0010
0001
0000
,
0100
0000
0001
0010
0001
0000
0010
0100
1000
0010
1000
0010
1000
0010
0100
0001
,
1000
0000
0001
0010
0000
0001
0000
1000
0000
0010
0100
0010
0100
0001
1000
0000
,
0001
0000
0010
0001
0100
0000
0010
1000
0100
0000
1000
0001
0100
0010
1000
0000
,
0001
0000
0010
0001
0000
0100
0000
0010
0000
1000
0100
1000
0010
0100
0001
1000
,
0010
0000
0000
0010
0000
0000
1000
0000
0001
0000
0100
0000
0100
0000
0000
0000
,
0010
0000
1000
0100
0010
0000
0001
0000
0100
0000
0001
0010
0100
0000
1000
0000
,
0001
0000
0100
0000
0010
0000
1000
0000
0001
0000
1000
0000
1000
0100
0010
0001
,
0100
0000
0001
1000
0010
0000
1000
0000
0100
0000
0010
0100
1000
0000
0001
0000
,
0100
0010
1000
0100
0001
0010
0001
1000
,
0010
0000
1000
0100
1000
0000
0001
0000
0010
0000
0100
1000
0001
0000
0100
0000
,
0010
0000
1000
0000
0100
0000
0010
0000
0001
0000
1000
0000
1000
0001
0010
0100
,
1000
0000
0001
0010
0001
0000
0100
0000
0010
0000
1000
0001
1000
0000
0100
0000
,
0010
0000
0001
0000
0100
0000
0010
1000
0010
0000
1000
0001
1000
0000
0100
0000
,
0010
0000
0001
0000
0100
0010
1000
0001
,
0010
0100
1000
0000
0001
1000
0001
0100
,
0010
0000
1000
0000
0100
1000
0010
0001
,
0100
0000
0001
0000
0010
0001
1000
0010
,
1000
0000
0100
0000
1000
0010
0001
0100
,
0001
0000
0010
0100
1000
0000
0001
1000
,
0010
0000
0100
0001
0010
0001
1000
0100
,
0001
0000
0010
0000
0100
0000
1000
0000
0010
0000
1000
0001
1000
0000
0100
0000
,
0010
0000
0001
0100
0001
0000
1000
0100
0000
0000
0010
0000
0100
1000
0001
0100
,
0000
0000
0010
1000
0010
0000
1000
0001
0000
1000
0001
0000
0010
0100
1000
0010
,
0100
0000
0001
0010
0001
0010
0100
1000
0000
0001
1000
0000
0010
0100
0010
1000
,
0001
0000
0100
0010
0100
0000
0001
0010
0000
1000
0000
0100
1000
0000
0001
0000
,
0100
0000
0001
0010
0100
0000
1000
0001
0000
1000
0010
0000
1000
0100
0010
0001
,
0100
0000
0010
1000
0001
0000
1000
0100
0000
0010
0001
0000
0100
0010
0000
1000
,
0001
0000
0010
0001
0100
0000
0001
1000
0000
1000
0100
0000
0010
0001
0010
0100
,
1000
0000
0001
0010
0001
0000
1000
0010
0000
0100
0000
0001
0010
0000
1000
0000
,
0100
0000
1000
0010
1000
0000
0001
0000
0010
0000
0100
0000
1000
0000
1010
0000
,
0000
0000
0001
0000
0010
0000
1000
0000
0100
0010
0001
0000
1000
0000
0001
0000
,
0100
0000
0010
0000
1000
0000
0001
0010
0002
0000
0000
0000
0000
0000
1003
0100
,
2000
0000
0000
0000
0000
0000
3010
0100
0020
0000
0000
0000
2030
0000
0000
0000
,
3001
0010
0001
1000
0100
0000
0010
0000
0001
0000
0100
0000
1000
0000
0110
0000
,
0000
0000
1000
0000
0010
0000
0001
0000
1000
0100
1000
0000
0001
0000
0010
0000
,
0100
0000
1000
0000
0010
0000
1000
0001
0200
0000
0000
0000
0000
0000
0310
1000
,
0002
0000
0010
0000
0013
0001
1000
0000
0100
1000
0010
0000
1000
0001
0100
0000
,
0001
0000
0010
0000
1000
0001
0100
0000
0010
0000
1000
0000
0100
1000
0001
0010
,
0100
0000
1000
0000
0010
0100
0001
0000
1000
0001
0010
0000
0100
0010
0001
1000
,
0010
0000
1000
0000
0001
1000
0100
0000
0010
0000
0001
0000
0100
0001
1000
0000
,
0000
0000
0010
1000
0100
0000
0010
0000
0001
0000
0100
0001
0010
0001
0010
0100
,
1000
0000
0001
0000
0010
0001
0100
0000
0010
1000
0100
0000
1000
0001
0010
0000
,
0000
0000
0100
0000
1000
0001
1000
0000
0010
0100
0010
0000
1000
0100
0010
0001
,
0100
0000
0001
0010
0001
0010
0100
0000
1000
0000
0010
1000
0001
1000
0100
0000
,
0000
0000
0011
0000
0000
0000
1100
0000
0000
0000
0001
0100
1000
0000
0000
0000
;
