#TITLE:the keel (Nu-Style Gabba Mix);
#SUBTITLE:;
#ARTIST:teranoid;
#TITLETRANSLIT:;
#SUBTITLETRANSLIT:;
#ARTISTTRANSLIT:;
#GENRE:;
#CREDIT:;
#BANNER:the keel (Nu-Style Gabba Mix)-bn.png;
#BACKGROUND:the keel (Nu-Style Gabba Mix)-bg.png;
#LYRICSPATH:;
#CDTITLE:;
#MUSIC:the keel (Nu-Style Gabba Mix).mp3;
#OFFSET:-0.694000;
#SAMPLESTART:89.480003;
#SAMPLELENGTH:20.000000;
#SELECTABLE:YES;
#DISPLAYBPM:43.000000:346.000000;
#BPMS:0.000000=86.500000
,12.000000=173.000000
,96.000000=86.500000
,97.000000=173.000000
,121.000000=86.500000
,122.000000=173.000000
,128.000000=86.500000
,129.000000=173.000000
,144.000000=86.500000
,174.000000=173.000000
,199.000000=346.000000
,215.000000=173.000000
,303.000000=43.250000
,305.000000=346.000000
;
#STOPS:143.000000=0.347000,
174.000000=1.040000
;
#BGCHANGES:;
#KEYSOUNDS:;
#ATTACKS:;

//---------------dance-single - X Scale 14----------------
#NOTES:
     dance-single:
     :
     Hard:
     14:
     0.576143,0.739919,0.385626,0.473998,0.723048,502.000000,454.000000,48.000000,59.000000,0.000000,0.000000,0.576143,0.739919,0.385626,0.473998,0.723048,502.000000,454.000000,48.000000,59.000000,0.000000,0.000000:
0000
0000
0000
0000
,
0000
0000
0000
0000
,
0000
0000
0000
0000
,
2200
3300
0202
0303
,
0220
0000
0000
0330
,
1001
0000
0000
1000
0000
0100
0001
0000
0000
1000
0000
0010
,
0100
0000
0100
0010
0000
0010
1000
0000
1000
0001
0000
0000
,
0011
0000
0001
0100
0000
0010
1000
0000
0100
0010
0000
0001
,
0100
0000
0000
1010
0000
0000
0010
1000
0000
0010
0000
0100
,
0001
0000
0100
0010
0000
1000
0100
0000
1000
0001
0000
0000
,
0010
0000
0100
0010
0000
0001
0100
0000
0001
1000
0000
0000
,
0010
0000
0100
0010
0000
1000
0100
0000
0010
0001
0000
0000
,
0011
0000
0000
1100
0000
0000
1000
0001
1000
0001
1000
0001
,
0200
0000
0000
0310
0000
0020
1000
0000
0000
1030
0000
2000
,
0001
0000
0000
3001
0000
0002
0100
0003
0000
1001
0000
0000
,
0120
0000
0000
0130
0000
0200
0001
0000
0000
0301
0000
0002
,
1000
0000
0000
1003
0000
2000
0001
0000
0000
3100
0000
0010
,
1000
0000
0000
1010
0000
0000
0101
0000
0000
0100
0010
0001
,
0010
0000
0000
0100
0000
0000
1000
0000
0001
0100
0010
1000
,
0002
0003
2000
3000
,
2002
0000
0000
3003
,
1010
0000
0000
1000
0000
0100
0010
0000
0000
0001
0000
0100
,
0001
0000
0001
0100
0000
0100
0010
0000
0010
1000
0000
0000
,
1100
0000
1000
0100
0000
0100
0001
0000
0001
0010
0000
0010
,
0200
0000
0000
0310
0100
0010
0100
0010
0100
0001
0000
0010
,
0100
0000
0100
1000
0000
0001
1000
0000
0000
0010
0000
0010
,
0001
0000
0001
1000
0000
0100
1000
0000
0000
0100
0000
0010
,
0001
0000
0100
1000
0000
0001
1000
0000
0010
0100
0000
0100
,
0010
0000
0010
1000
0001
1000
0001
1000
0001
2000
0000
0000
,
3010
0000
0020
0100
0000
0000
0130
0000
0200
0001
0000
0000
,
0301
0000
0000
0000
0002
0000
0103
0000
0000
0101
0000
0000
0012
0000
0000
0000
0000
0000
1003
0000
0000
0000
2000
0000
,
0010
0000
0000
3010
0000
0020
0100
0000
0000
0130
0000
0200
,
0001
0000
0000
0310
0000
0000
0120
0000
0000
0000
0000
0000
1030
0000
0000
0000
2000
0000
0001
0000
0000
0000
0000
0000
,
3001
0000
0002
0100
0000
0000
0103
0000
0200
0010
0000
0000
,
0301
0000
1000
0002
0000
0000
0023
0000
0000
0230
0000
0000
,
2300
0000
0000
3010
0000
1010
0000
0101
0000
0012
0000
0000
,
0100
0000
0000
0000
0013
0000
0000
0010
0001
1000
0100
0000
1100
0000
0000
1000
,
0100
0010
0001
0000
1001
0000
0000
0001
1000
0010
0100
0000
0120
0000
0000
0000
,
1000
0000
0000
0000
0130
0000
0000
0010
0100
0001
1000
0000
0101
0000
0000
1000
,
0001
1000
0001
0000
1001
0000
0000
0100
0010
0100
0010
0000
1100
0000
0000
0000
,
1010
0000
0000
0100
0020
1000
0000
0001
0000
0100
0000
0001
0000
1030
0100
0000
,
1000
0000
0000
0000
1000
0000
0000
0000
1000
0000
0000
0000
0010
0000
0000
0000
0000
0000
0000
0000
0000
0100
0000
0000
0001
0000
0000
0100
0000
0000
0001
0000
0000
0000
0000
0000
0010
0000
0000
0000
0000
0000
0110
0000
0000
0000
0000
0000
,
0002
2003
3020
0230
,
0320
1030
0011
0220
,
0000
0000
0000
0000
,
0000
0000
0000
0000
0000
0000
0330
0000
0000
0001
0000
0001
,
0010
0000
0010
0100
0000
0100
1000
0000
1000
0010
0000
0010
,
0100
0000
0100
0001
0000
0001
1000
0000
2000
0002
0000
0000
,
0000
0000
0000
0000
,
0000
0000
3003
0010
,
0000
0100
0000
0000
0000
0001
0000
0000
0000
1000
0000
0000
,
0000
0100
0000
0000
0000
0010
0000
0000
0000
0011
0000
0000
,
0000
0101
0000
0000
0000
1100
0000
0000
0000
1010
0000
0000
,
0000
0010
0000
0100
0000
0000
0000
0000
0000
1001
0000
0100
,
0010
0000
0100
0001
0000
1000
0010
0000
1000
0100
0000
0001
,
0100
0000
1000
0001
0000
0010
1000
0000
0010
0001
0000
0100
,
1000
0000
0001
1000
0000
0100
0010
0000
0010
0001
0000
0001
,
1000
0000
1000
0010
0100
0001
0100
0000
0010
1000
0000
0001
,
0010
0000
0100
0010
0000
0100
1000
0000
0001
0010
0000
0100
,
0001
0000
0010
1000
0000
0100
1000
0000
0001
0100
0000
0001
,
0010
0000
1000
0100
0000
0010
1000
0000
0001
0100
0000
0100
,
0010
0000
0010
1000
0001
0010
0001
0000
1000
0020
0000
0000
,
1030
0000
0100
2000
0000
0000
3001
0000
0100
0001
0000
0100
,
0010
0000
1000
0100
0000
0010
0001
0000
0000
0200
0000
0000
,
0301
0000
0010
0002
0000
0000
1003
0000
0010
0100
0000
0001
,
0010
0000
0100
1000
0000
0001
0010
0000
0000
2000
0000
0000
,
3010
0000
0100
0002
0000
0000
0103
0000
0010
0100
0000
0001
,
0010
0000
0100
1000
0000
0001
1000
0000
0000
0010
0000
0010
,
0100
0000
0100
0001
0000
0001
1000
0000
1000
0100
0000
0100
,
0001
0000
0000
0000
0001
0000
1000
0000
0000
0000
1000
0000
0010
0000
0000
0000
0010
0000
1000
0000
0000
0001
0000
0000
,
1000
0001
1001
0010
0000
1010
1000
0100
,
0010
0001
0022
0000
0033
0000
0100
0010
,
0100
0010
0110
1000
0000
1100
1000
0010
,
0100
0001
0202
0000
0303
0000
0010
0000
,
0010
0000
0000
0100
0000
0000
0100
0000
0000
0110
0000
0101
,
0000
0000
0000
0000
0000
0000
0000
0000
0000
0000
0000
0000
0000
0000
0000
0000
1100
0000
0000
0000
0000
0000
0000
0000
0000
0000
0000
0000
0000
0000
0000
0000
0000
0000
0000
0000
0000
0000
0000
0000
0000
0000
0000
0000
0000
0000
0000
0000
1010
0000
0000
0000
0000
0000
0000
0000
0000
0000
0000
0000
0000
0000
0000
0000
0000
0000
0000
0000
0000
0000
0000
0000
0000
0000
0000
0000
0000
0000
0000
0000
0011
0000
0000
0000
0000
0000
0000
0000
0000
0000
0000
0000
0000
0000
0000
0000
0000
0000
0000
0000
0000
0000
0000
0000
0000
0000
0000
0000
0000
0000
0000
0000
0001
0000
0000
0000
0000
0000
0000
0000
0000
0000
0000
0000
0000
0000
0000
0000
1000
0000
0000
0000
0000
0000
0000
0000
0000
0000
0000
0000
0000
0000
0000
0000
0001
0000
0000
0000
0000
0000
0000
0000
0000
0000
0000
0000
0000
0000
0000
0000
0000
0000
0000
0000
0000
0000
0000
0000
0000
0000
0000
0000
0000
0000
0000
0000
0000
0000
0000
0000
0000
0000
0000
0000
0000
0000
0010
0000
0000
0000
0000
0000
,
1000
0100
0001
0100
1000
0000
0000
0000
2002
0000
0000
0000
0000
0000
0000
0000
0000
0000
0000
0000
0000
0000
0000
0000
3003
0000
0000
0000
0000
0000
0000
0000
;

//---------------dance-single - X Scale 10----------------
#NOTES:
     dance-single:
     :
     Medium:
     10:
     0.443011,0.616600,0.482032,0.562371,0.281185,386.000000,326.000000,60.000000,70.000000,0.000000,0.000000,0.443011,0.616600,0.482032,0.562371,0.281185,386.000000,326.000000,60.000000,70.000000,0.000000,0.000000:
0000
0000
0000
0000
,
0000
0000
0000
0000
,
0000
0000
0000
0000
,
1100
0000
0101
0000
,
0220
0000
0000
0330
,
1001
0010
0100
0010
,
1000
0100
1000
0001
,
1000
0010
0100
0001
,
0011
0000
0000
1010
0000
0000
1000
0001
0000
0100
0000
0010
,
0100
0001
0100
0010
,
1000
0001
1000
0010
,
0100
0010
1000
0001
,
0011
0000
0000
1100
0000
0000
0010
0100
0000
0001
0000
2000
,
0000
0000
0000
3010
0000
0020
0000
0000
0000
0130
0000
0200
,
0000
0000
0000
0301
0000
0002
1000
0000
0000
0013
0000
0000
,
2001
0000
0000
3001
0000
0002
0000
0000
0000
0103
0000
0200
,
0000
0000
0000
0310
0000
0020
0000
0000
0000
1030
0000
0001
,
0100
0000
0000
0010
0000
0000
1000
0000
0000
0001
1000
0001
,
1000
0000
0000
0010
0000
0000
0100
0000
0010
1000
0000
0000
,
1010
0000
0101
0000
,
0220
0000
0000
0330
,
1001
0001
0010
0100
,
1000
0100
0010
0001
,
0010
0001
0100
1000
,
0110
0000
0000
0010
0100
0010
0100
0000
0000
0101
0000
0000
,
0010
0001
0100
1100
,
1000
0001
0100
0011
,
0100
0010
1000
1010
,
0001
0000
0000
1000
0000
0000
0010
0000
0200
0000
0000
0000
,
0310
0000
0020
0000
0000
0000
1030
0000
2000
0000
0000
0000
,
3001
0000
0000
0000
0002
0000
0000
0000
0000
0013
0000
0000
0102
0000
0000
0000
0000
0000
1003
0000
0000
0000
2000
0000
,
0000
0000
0000
3010
0000
0020
0000
0000
0000
0130
0000
0200
,
0000
0000
0000
0310
0000
0000
1020
0000
0000
0000
0000
0000
0130
0000
0000
0000
0200
0000
0000
0000
0000
0000
0000
0000
,
0301
0000
0002
0000
0000
0000
1003
0000
2000
0000
0000
0000
,
3010
0000
0100
0002
0000
0000
0023
0000
0000
0230
0000
0000
,
2300
0000
0000
3010
0000
0010
0000
0010
0000
0110
0000
0000
,
1002
0000
0000
0000
0203
0000
0000
0310
1000
0000
0100
0000
0001
0000
0000
0100
,
0001
0000
1000
0000
0010
0000
0000
1000
0100
0000
0010
0000
0001
0000
0000
0000
,
0011
0000
0000
0000
1100
0000
0000
0001
1000
0000
0100
0000
0010
0000
0000
1000
,
0010
0000
0100
0000
0001
0000
0000
0000
1010
0000
0000
0110
0000
0000
0101
0000
,
0011
0000
0000
0001
0100
0000
0000
0000
0010
0000
1000
0000
0100
0000
1000
0000
,
0001
0000
0000
0000
0001
0000
0000
0000
0001
0000
0000
0000
0010
0000
0000
0000
0000
0000
0000
0000
0000
0000
0000
0000
0010
0000
0000
0100
0000
0000
1000
0000
0000
0000
0000
0000
1000
0000
0000
0000
0000
0000
1001
0000
0000
0000
0000
0000
,
2000
3200
0320
0032
,
0203
0320
1030
2200
,
0000
0000
0000
0000
,
0000
0000
3000
2300
,
3200
0320
0032
2003
,
3002
0000
0000
0103
0000
0100
0010
0000
0020
0200
0000
0000
,
0000
0000
0000
0000
,
0000
0000
0330
0001
,
0000
0010
0000
0000
0000
0100
0000
0000
0000
1000
0000
0000
,
0000
0100
0000
0000
0000
0010
0000
0000
0000
0001
0000
0000
,
0000
1000
0000
0000
0000
0010
0000
0000
0000
1000
0000
0000
,
0000
0001
0000
0100
0000
0000
0000
0000
0000
0110
0000
0000
,
0101
0011
1001
1100
,
1010
0000
0000
1000
0000
0100
0010
0000
0001
0200
0000
0000
,
0320
2030
3002
0023
,
0230
0000
0000
1300
0000
1000
0001
0000
0001
2000
0000
0000
,
3002
0203
0302
0023
,
0230
0000
0000
1300
0000
1000
0010
0000
0010
0200
0000
0000
,
0302
2003
3200
0320
,
0032
0000
0000
0103
0000
0100
0010
0000
0010
1000
0000
0000
,
1100
0001
0101
1001
,
1000
0000
0100
0010
0000
0001
0100
0000
0000
0001
0000
0000
,
0011
1000
1010
0110
,
0010
0000
1000
0001
0000
0010
0100
0000
0000
0101
0000
0000
,
1010
0011
1100
1001
,
0110
0000
0000
1000
0000
0100
0010
0000
0000
1010
0000
0000
,
1100
0011
0101
1001
,
0110
0000
0000
0000
0000
0000
1000
0000
0000
0000
0010
0000
0100
0000
0000
0000
0001
0000
0100
0000
0000
0010
0000
0000
,
0100
0010
2000
0000
3000
0000
0001
1000
,
0001
1000
0200
0000
0300
0000
0001
0100
,
0001
0100
0020
0000
0030
0000
1000
0010
,
1000
0010
0002
0000
0003
0000
0011
0000
,
1100
0000
0000
1010
0000
0000
0101
0000
0000
0010
0000
0010
,
0000
0010
0000
0100
0000
0100
0000
0100
0000
0110
0000
0000
,
1000
0100
0001
0100
1000
0000
0000
0000
2002
0000
0000
0000
0000
0000
0000
0000
0000
0000
0000
0000
0000
0000
0000
0000
3003
0000
0000
0000
0000
0000
0000
0000
;

//---------------dance-single - X Scale 7----------------
#NOTES:
     dance-single:
     :
     Easy:
     7:
     0.367263,0.493280,0.482032,0.289219,0.004017,320.000000,260.000000,60.000000,36.000000,0.000000,0.000000,0.367263,0.493280,0.482032,0.289219,0.004017,320.000000,260.000000,60.000000,36.000000,0.000000,0.000000:
0000
0000
0000
0000
,
0000
0000
0000
0000
,
0000
0000
0000
0000
,
2000
3000
0002
0003
,
0220
0000
0000
0330
,
1001
1000
0100
0000
,
0001
0010
0100
1000
,
0010
1000
0001
0100
,
0001
1000
2200
3300
,
0011
1000
0001
0000
,
0010
0100
0001
1000
,
0100
0010
0202
0303
,
1000
0001
2020
3030
,
1000
1100
0001
0101
,
1000
0100
0010
1001
,
0001
0011
1000
1010
,
0010
0100
0001
0110
,
1000
0100
0001
0010
,
0100
0010
1000
0001
,
0200
0300
0020
0030
,
0202
0000
0000
0303
,
1001
0010
0001
0000
,
0100
1000
0010
0001
,
1000
0100
0010
0001
,
1200
0001
1300
1010
,
0100
0010
0000
0001
,
0100
1000
0010
0100
,
0010
0220
0330
1000
,
0001
0022
0033
1000
,
1010
0001
0011
0100
,
0010
0110
1000
1100
,
0001
0101
0010
0100
,
1001
0001
0011
0001
,
0101
1000
1100
1000
,
1010
0010
0100
0001
,
1000
0100
0100
1001
,
0110
0000
0100
0000
0001
1000
0001
0000
,
1000
0100
1000
0000
0001
0100
0001
0000
,
1001
0000
1010
0000
0100
0010
0100
0000
,
0001
0010
0001
0000
0010
1000
0010
0000
,
1100
0000
0101
0000
1000
0001
0100
0000
,
0001
0010
0011
0000
0100
0010
1000
0000
,
0020
0230
0302
2003
,
3200
0310
0110
0020
,
0000
0000
0000
0000
,
0000
0000
0030
1000
,
1000
0001
0001
0100
,
0100
0010
0010
0200
,
0000
0000
0000
0000
,
0000
0000
0300
0001
,
0000
0001
0000
1000
,
0000
1000
0000
0010
,
0000
0010
0000
0100
,
0000
0100
0000
0001
,
0100
1000
0100
0010
,
1000
0010
0001
0100
,
0010
1000
0010
0001
,
0100
0001
1000
0010
,
0100
0001
0010
1000
,
0100
1000
0001
0010
,
1000
0010
0100
1000
,
0001
0100
0001
0010
,
0011
0100
1100
0001
,
0100
1000
1001
0010
,
0101
0100
1010
1000
,
0010
0001
0110
1000
,
1000
0100
0100
0010
,
0010
0001
0001
1000
,
0010
0001
1000
0100
,
0010
0100
0001
1100
,
1010
2002
3003
0101
,
0011
0220
0330
1001
,
0101
2200
3300
0110
,
1010
0022
0033
1000
,
1010
0001
0101
0100
,
0011
0010
1100
0110
,
1000
0001
1000
0000
2002
0000
0000
0000
0000
0000
0000
0000
3003
0000
0000
0000
;

//---------------dance-single - X Scale 4----------------
#NOTES:
     dance-single:
     :
     Beginner:
     4:
     0.183631,0.246640,0.208881,0.024102,0.000000,160.000000,134.000000,26.000000,3.000000,0.000000,0.000000,0.183631,0.246640,0.208881,0.024102,0.000000,160.000000,134.000000,26.000000,3.000000,0.000000,0.000000:
0000
0000
0000
0000
,
0000
0000
0000
0000
,
0000
0000
0000
0000
,
1000
0000
0001
0000
,
0110
0000
0000
0000
,
1001
0000
0000
0000
,
1000
0000
1000
0000
,
0001
0000
0001
0000
,
0100
0000
0000
0000
,
0010
0000
0000
0000
,
0100
0000
0100
0000
,
0010
0000
0010
0000
,
1000
0000
0001
0000
,
1001
0000
0100
0000
,
1001
0000
0010
0000
,
0110
0000
1000
0000
,
0110
0000
0001
0000
,
0010
0010
0010
0000
,
0100
0100
0100
0000
,
0010
0000
0100
0000
,
1001
0000
0000
0000
,
0110
0000
0000
0000
,
1000
0000
0100
0000
,
0010
0000
0001
0000
,
0110
0000
0000
1001
,
0000
0000
0000
0100
,
0000
0001
0000
0010
,
0000
1000
0000
0100
,
0000
0010
0000
1001
,
0000
1000
0000
0001
,
0000
0000
0110
0000
,
0100
0000
0010
0000
,
0000
0110
0000
0001
,
0000
1001
0000
0100
,
0000
0010
0000
0100
,
0000
0002
0000
0003
,
0000
0010
0000
0100
,
0000
0010
0000
0100
,
0000
0001
0000
1000
,
0000
0001
0000
1000
,
0000
0100
0000
0100
,
0000
1000
0000
1000
,
0000
0001
0000
0001
,
0000
0000
0010
0010
,
0000
0000
0000
0000
,
0000
0000
0000
1000
,
0000
0100
0000
0010
,
0000
0001
0000
0100
,
0000
0000
0000
0000
,
0000
0000
0000
0001
,
0000
0000
0000
0010
,
0000
0000
0000
0100
,
0000
0000
0000
1000
,
0000
0000
0000
1001
,
0000
1000
0000
0100
,
0000
0010
0000
0001
,
0000
1000
0000
0001
,
0000
0100
0000
0110
,
0000
0010
0000
1000
,
0000
0100
0000
0010
,
0000
0001
0000
1000
,
0000
0001
0000
1001
,
0000
0010
0000
1001
,
0000
0100
0000
0110
,
0000
1000
0000
0110
,
0000
0001
0000
0110
,
0000
0100
0000
0110
,
0000
0010
0000
1001
,
0000
1000
0000
1001
,
0000
0001
0000
0010
,
0010
0010
0000
0001
,
0001
0001
0000
1000
,
1000
1000
0000
0100
,
0100
0100
0000
0001
,
0000
1000
0000
0010
,
0000
0100
0000
0110
,
0000
2002
0000
3003
;

//---------------dance-double - ----------------
#NOTES:
     dance-double:
     :
     Easy:
     7:
     0.346604,0.462450,0.369558,0.377592,0.004017,302.000000,256.000000,46.000000,47.000000,0.000000,0.000000,0.346604,0.462450,0.369558,0.377592,0.004017,302.000000,256.000000,46.000000,47.000000,0.000000,0.000000:
00000000
00000000
00000000
00000000
,
00000000
00000000
00000000
00000000
,
00000000
00000000
00000000
00000000
,
00200000
00300000
02000000
03000000
,
02000200
00000000
00000000
03000300
,
00011000
00000010
00001000
00000100
,
00000010
00000001
00000100
00001000
,
00010000
00100000
01000000
10000000
,
00100000
01000000
00100000
10000000
,
01100000
00010000
00001000
00010000
,
00010010
00000010
00000100
00001000
,
00001001
00000010
00000100
00000001
,
00001100
00110000
11000000
00010000
,
00200000
00300000
00020000
00030000
,
02000000
03000000
20000000
30001000
,
00020000
00030000
00000200
00000300
,
00000020
00000030
00000002
00000013
,
00001000
00011000
01100000
01000000
,
00100000
00010000
00011000
01010000
,
20000000
30000000
00020000
00030000
,
20002000
00000000
00000000
30003000
,
00000101
00000001
00000100
00001000
,
00010000
10000000
00100000
00010000
,
00001000
00001000
00010000
00010000
,
00012000
00000100
01003000
00110000
,
00100000
10000000
01000000
10010000
,
00000100
00000010
00000001
00001010
,
00000100
00000010
00001000
00010000
,
00010000
00001000
00001000
00200000
,
00300000
00020000
00030000
02000000
,
03000000
00000000
10010000
10010000
02000000
00000000
03000000
00000000
,
00200000
00300000
00020000
00030000
,
00001001
00001001
00000200
00000000
00000300
00000000
00000002
00000000
,
00000003
00000020
00000030
00002000
,
00003000
00020000
00230000
02300000
,
23000000
30200000
10000000
01300000
,
01100000
00000000
10100000
00000000
10000000
01000000
00010000
00000000
,
00001000
00000100
00000001
00000000
00000010
00001000
00000100
00000000
,
00011000
00000000
00000110
00000000
00000100
00001000
00010000
00000000
,
00100000
01000000
10000000
00000000
01000000
00100000
00010000
00000000
,
01010000
00000000
00010100
00000000
00000010
00000010
00000010
00000000
,
00000100
00000100
00000100
00000000
00001000
00000100
00000010
00000001
,
00020000
00032000
02003000
03200000
,
20300000
30010000
01100000
00200200
,
00000000
00000000
00000000
00000000
,
00000000
00000000
00300300
00010000
,
00010000
00001000
00001000
00100000
,
00100000
00000100
00000100
00000220
,
00000000
00000000
00000000
00000000
,
00000000
00000000
00000330
10000000
,
00000000
10000000
00000000
00100000
,
00000000
00100000
00000000
00000100
,
00000000
00000100
00000000
00000001
,
00000000
00000001
00000000
00010010
,
00000100
00001000
00010000
00000100
,
00000010
00000001
00000100
00100000
,
01000000
10000000
00010000
00001000
,
00000100
00000010
00000001
00100000
,
00010000
00001000
00010000
01000000
,
00100000
10000000
01000000
00100000
,
10000000
01000000
00100000
00001000
,
00000100
00010000
00000100
00001000
,
00001100
00000001
00000101
00000010
,
00000100
00000110
00001001
00100000
,
00110000
01000000
11000000
00010000
,
10000000
11000000
00110000
00001000
,
00000110
00000100
00110000
00000010
,
00010000
01001000
00101000
10000000
,
10000000
00010000
00010000
00001000
,
00001000
00000001
00000001
00000100
,
00000100
00000200
00000300
00000010
,
00000010
00000020
00000030
00001000
,
00001000
00002000
00003000
00010000
,
00010000
00020000
00030000
00100000
,
00010000
00000100
00001000
00000001
,
00000001
00001000
00001000
00000110
,
00001000
00010000
10000000
00000000
02000200
00000000
00000000
00000000
00000000
00000000
00000000
00000000
03000300
00000000
00000000
00000000
;

//---------------dance-double - ----------------
#NOTES:
     dance-double:
     :
     Medium:
     11:
     0.490066,0.739919,0.626642,0.522202,0.373575,427.000000,349.000000,78.000000,65.000000,0.000000,0.000000,0.490066,0.739919,0.626642,0.522202,0.373575,427.000000,349.000000,78.000000,65.000000,0.000000,0.000000:
00000000
00000000
00000000
00000000
,
00000000
00000000
00000000
00000000
,
00000000
00000000
00000000
00000000
,
00220000
00330000
00002200
00003300
,
00000022
00000000
00000000
00000033
,
00001010
00000100
00001000
00010000
,
01000000
00000000
01000000
00100000
00000000
00000000
10000000
00000000
10000000
00010000
00000000
00000000
,
00100000
00000000
00000000
00010000
00000000
00000000
00000100
00000000
00000100
00001000
00000000
00000000
,
10000000
00000000
00000000
00010000
00000000
00000000
01000000
00000000
01000000
00100000
00000000
00000000
,
10010000
00000000
00000000
00100000
00000000
00000000
10000000
00000000
10000000
01000000
00000000
00000000
,
00000101
00000000
00000000
00001000
00000000
00000000
00000010
00000000
00000010
00000100
00000000
00000000
,
00010100
00000000
00000000
00001000
00000000
00000000
00000001
00000000
00000001
00000100
00000000
00000000
,
00110000
00000000
00000000
01010000
00000000
00000000
10100000
00000000
00000000
10000000
00000000
20000000
,
00000000
00000000
00000000
31000000
00000000
02000000
00000000
00000000
00000000
03100000
00000000
00200000
,
00000000
00000000
00000000
00310000
00000000
00020000
00000000
00000000
00000000
00030100
00000000
00000000
,
00001002
00000000
00000000
00000013
00000000
00000020
00000000
00000000
00000000
00000130
00000000
00000200
,
00000000
00000000
00000000
00001300
00000000
00002000
00000000
00000000
00000000
00013000
00000000
00001000
,
00000010
00000000
00000000
00001100
00000000
00000000
00000101
00000000
00000000
00000010
00000100
00000010
,
00000100
00000000
00000000
00101000
00000000
00000000
11000000
00000000
00010000
01000000
00000000
00000000
,
22000000
33000000
02020000
03030000
,
00002200
00000000
00000000
00003300
,
01001000
00100000
00010000
01000000
,
10000000
00000000
10000000
00010000
00000000
00010000
00000100
00000000
00000100
00100000
00000000
00000000
,
10000000
00000000
10000000
00100000
00000000
00100000
01000000
00000000
01000000
00010000
00000000
00000000
,
00000120
00000000
00000000
00010030
00000010
00010000
00000010
00000000
00000000
00001100
00000000
00000000
,
00000101
00000000
00000000
00000001
00000000
00000100
00001000
00000000
00000000
01010000
00000000
00000000
,
11000000
00000000
00000000
10000000
00000000
01000000
00010000
00000000
00000000
00100000
00000000
00100000
,
00010000
00000000
00010000
01000000
00000000
01000000
00010000
00000000
00000000
00011000
00000000
00000000
,
00101000
00000000
00000000
00110000
00000000
00000000
01000000
00000000
02000000
00000000
00000000
00000000
,
03001000
00000000
00002000
00000000
00000000
00000000
00103000
00000000
00200000
00000000
00000000
00000000
,
00310000
00000000
00000000
00000000
00020000
00000000
00000000
00000000
00000000
00030100
00000000
00000000
00010200
00000000
00000000
00000000
00000000
00000000
00001300
00000000
00000000
00000000
00002000
00000000
,
00000000
00000000
00000000
00003010
00000000
00000020
00000000
00000000
00000000
00000130
00000000
00000200
,
00000000
00000000
00000000
00000301
00000000
00000000
00001002
00000000
00000000
00000000
00000000
00000000
00000103
00000000
00000000
00000000
00000200
00000000
00000000
00000000
00000000
00000000
00000000
00000000
,
00100300
00000000
00200000
00000000
00000000
00000000
10300000
00000000
20000000
00000000
00000000
00000000
,
30010000
00000000
00100000
00002000
00000000
00000000
00003200
00000000
00000000
00000320
00000000
00000000
,
00000032
00000000
00000000
00000103
00000000
00000100
00000000
00000100
00000000
00001100
00000000
00000000
,
01100000
00000000
00000000
00000000
00110000
00000000
00000000
00010000
01000000
00000000
01010000
00000000
11000000
00000000
00000000
10000000
,
01000000
00000000
00110000
00000000
00101000
00000000
00000000
00100000
00010000
00000000
00101000
00000000
00011000
00000000
00000000
00000000
,
00100010
00000000
00000000
00000000
00010100
00000000
00000000
00001000
00000100
00000000
00000110
00000000
00001001
00000000
00000000
00000001
,
00001000
00000000
00001100
00000000
00001010
00000000
00000000
00000100
00001000
00000000
00010100
00000000
00001010
00000000
00000000
00000000
,
00011000
00000000
00000000
01000000
10000000
00000000
00100000
00000000
00010000
00000000
00110000
00000000
01100000
00000000
00000000
00000000
,
00001000
00000000
00000000
00000000
00001000
00000000
00000000
00000000
00001000
00000000
00000000
00000000
00011000
00000000
00000000
00000000
00000000
00000000
00000000
00000000
00000000
00000100
00000000
00000000
00000010
00000000
00000000
00000000
00000000
00000000
00000011
00000000
00000000
00000000
00000000
00000000
00002100
00000000
00000000
00000000
00000000
00000000
00003001
00000000
00000000
00000000
00000000
00000000
,
00000200
00000320
00020030
00032000
,
01003000
01000000
10010000
02000020
,
00000000
00000000
00000000
00000000
,
00000000
00000000
03000000
00020030
,
00032000
00023000
00032000
00203000
,
02300000
03200000
02300000
20000000
,
00000000
00000000
00000000
00000000
,
00000000
00000000
33000000
10000000
,
00000000
01000000
00000000
00000000
00000000
00010000
00000000
00000000
00000000
00001000
00000000
00000000
,
00000000
00000100
00000000
00000000
00000000
00000001
00000000
00000000
00000000
00000010
00000000
00000000
,
00000000
00000100
00000000
00000000
00000000
00000001
00000000
00000000
00000000
00001000
00000000
00000000
,
00000000
00001000
00000000
00010000
00000000
00000000
00000000
00000000
00000000
00011000
00000000
00000000
,
01010000
00000000
00000000
10000000
00000000
10000000
00010000
00000000
00000000
01000000
00000000
01000000
,
00100000
00000000
00100000
10000000
00000000
00010000
01000000
00000000
00000000
01010000
00000000
00000000
,
00001100
00000000
00000000
00010000
00000000
00010000
00000100
00000000
00000000
00000010
00000000
00000010
,
00000001
00000000
00000001
00001000
00000000
00000100
00000010
00000000
00000000
00000110
00000000
00000000
,
00001001
00000000
00000000
00010000
00000000
00010000
00001000
00000000
00000000
01000000
00000000
01000000
,
00100000
00000000
00100000
00001000
00000000
00001000
00010000
00000000
00000000
11000000
00000000
00000000
,
01010000
00000000
00000000
00100000
00000000
00100000
01000000
00000000
00000000
00100000
00000000
00100000
,
01000000
00000000
01000000
10000000
00000000
00010000
00001000
00000000
00000000
00120000
00000000
00000000
,
01030000
00000000
00000000
21000000
00000000
00000000
30100000
00000000
00000000
10000000
00000000
00010000
,
01000000
00000000
00000000
00010000
00000000
00001000
00000100
00000000
00000000
00000012
00000000
00000000
,
00000013
00000000
00000000
00020010
00000000
00000000
00031000
00000000
00000000
00000100
00000000
00000010
,
00000001
00000000
00000000
00000010
00000000
00000100
00001000
00000000
00000000
01000200
00000000
00000000
,
00010300
00000000
00000000
00201000
00000000
00000000
00310000
00000000
00000000
00100000
00000000
00010000
,
01000000
00000000
00000000
10000000
00000000
00010000
00100000
00000000
00000000
00110000
00000000
00000000
,
00011000
00000000
00000000
00110000
00000000
00000000
10010000
00000000
00000000
01000000
00000000
01000000
,
00100000
00000000
00000000
00000000
00100000
00000000
00010000
00000000
00000000
00000000
01000000
00000000
10000000
00000000
00000000
00000000
00000000
00000000
00100000
00000000
00000000
01000000
00000000
00000000
,
00100000
01000000
00002000
00000000
00003000
00000000
00000010
00000100
,
00000010
00000100
00020000
00000000
00030000
00000000
10000000
00010000
,
10000000
00010000
00000200
00000000
00000300
00000000
00000001
00001000
,
00000001
00001000
00200000
00000000
00300000
00000000
00110000
00000000
,
00001100
00000000
00000000
00001010
00000000
00000000
00000101
00000000
00000000
00000001
00000000
00000100
,
00000000
00001000
00000000
00010000
00000000
01000000
00000000
10000000
00000000
10010000
00000000
00000000
,
00100000
01000000
00010000
01000000
00100000
00000000
00000000
00000000
00202000
00000000
00000000
00000000
00000000
00000000
00000000
00000000
00000000
00000000
00000000
00000000
00000000
00000000
00000000
00000000
00303000
00000000
00000000
00000000
00000000
00000000
00000000
00000000
;

//---------------dance-double - ----------------
#NOTES:
     dance-double:
     :
     Hard:
     14:
     0.605983,0.832409,0.546303,0.433829,0.747150,528.000000,460.000000,68.000000,54.000000,0.000000,0.000000,0.605983,0.832409,0.546303,0.433829,0.747150,528.000000,460.000000,68.000000,54.000000,0.000000,0.000000:
// measure 0
00000000
00000000
00000000
00000000
,  // measure 1
00000000
00000000
00000000
00000000
,  // measure 2
00000000
00000000
00000000
00000000
,  // measure 3
02200000
03300000
00000220
00000330
,  // measure 4
00022000
00000000
00000000
00033000
,  // measure 5
00110000
00000000
00000000
01000000
00000000
01000000
10000000
00000000
00000000
00100000
00000000
00100000
,  // measure 6
10000000
00000000
01000000
00100000
00000000
00010000
00000100
00000000
00100000
00001000
00000000
00000000
,  // measure 7
00000010
00000000
00000010
00000100
00000000
00000100
00000001
00000000
00000001
00001000
00000000
00001000
,  // measure 8
00000010
00000000
00000100
00001000
00000000
00000000
00010000
00001000
00010000
00001000
00000000
00000000
,  // measure 9
00001100
00000000
00000100
00001000
00000000
00001000
00000010
00000000
00000010
00000100
00000000
00000000
,  // measure 10
00110000
00000000
00010000
00001000
00000000
00001000
00100000
00000000
00100000
00010000
00000000
00000000
,  // measure 11
01000000
00000000
01000000
00100000
00000000
00100000
10000000
00000000
10000000
00010000
00000000
00000000
,  // measure 12
11000000
00000000
00000000
01001000
00000000
00000000
00010000
00001000
00010000
00001000
00010000
00001000
,  // measure 13
02000000
00000000
00000000
03010000
00000000
00020000
00100000
00000000
00000000
00130000
00000000
00200000
,  // measure 14
00001000
00000000
00000000
00301000
00000000
00001000
00000001
00000000
00000100
00001000
00000000
00000000
,  // measure 15
00000120
00000000
00000000
00001030
00000000
00002000
00000001
00000000
00000000
00003001
00000000
00000002
,  // measure 16
00000100
00000000
00000000
00000103
00000000
00000200
00000010
00000000
00000000
00000310
00000000
00000020
,  // measure 17
00010000
00000000
00000000
00001030
00000000
00000000
00001100
00000000
00000100
00100000
01000000
00100000
,  // measure 18
01000000
00000000
00000000
11000000
00000000
00000000
01010000
00000000
00100000
00001000
00010000
00001000
,  // measure 19
02000000
03000000
00020000
00030000
,  // measure 20
00200020
00000000
00000000
00300030
,  // measure 21
00010100
00000000
00000000
00000010
00000000
00000010
00000100
00000000
00000000
00000001
00000000
00000001
,  // measure 22
00001000
00000000
00001000
00000010
00000000
00000010
00000100
00000000
00000100
00000001
00000000
00000000
,  // measure 23
00010000
00000000
00010000
00100000
00000000
00100000
01000000
00000000
01000000
10000000
00000000
10000000
,  // measure 24
00020000
00000000
00000000
00130000
00001000
00100000
00001000
00100000
00001000
00010000
00000000
00010000
,  // measure 25
00000100
00000000
00000100
00000010
00000000
00000010
00000001
00000000
00000000
00000101
00000000
00000100
,  // measure 26
00000010
00000000
00000010
00001000
00000000
00001000
00000100
00000000
00000000
01000100
00000000
00100000
,  // measure 27
00010000
00000000
00010000
00001000
00000000
00001000
00100000
00000000
00000000
11000000
00000000
00000000
,  // measure 28
00110000
00000000
00000000
01000000
00100000
01000000
00100000
01000000
00100000
20000000
00000000
00000000
,  // measure 29
30010000
00000000
00020000
01000000
00000000
00000000
01030000
00000000
01000000
00100000
00000000
00100000
,  // measure 30
10000000
00000000
00000000
00000000
10000000
00000000
00010000
00000000
00000000
01100000
00000000
00000000
00021000
00000000
00000000
00000000
00000000
00000000
00030100
00000000
00000000
00000000
00000200
00000000
,  // measure 31
00001000
00000000
00000000
00001300
00000000
00001000
00000001
00000000
00000001
00000010
00000000
00000010
,  // measure 32
00000100
00000000
00000000
00001010
00000000
00000000
00000102
00000000
00000000
00000000
00000000
00000000
00001003
00000000
00000000
00000000
00002000
00000000
00000100
00000000
00000000
00000000
00000000
00000000
,  // measure 33
00003100
00000000
00000200
00010000
00000000
00000000
00010300
00000000
00020000
00001000
00000000
00000000
,  // measure 34
00031000
00000000
00100000
01000000
00000000
00000000
11000000
00000000
00000000
00010000
00000000
00000000
,  // measure 35
01010000
00000000
00000000
11000000
00000000
00110000
00000000
00001100
00000000
00000012
00000000
00000000
,  // measure 36
00001000
00000000
00000000
00000000
00000103
00000000
00000000
00001000
00000100
00001000
00000010
00000100
00000110
00000000
00000000
00000010
,  // measure 37
00001000
00000001
00001000
00000010
00001100
00000000
00000000
00010000
00001000
01000000
00001000
00010000
00201000
00000000
00000000
00000000
,  // measure 38
01000000
00000000
00000000
00000000
00310000
00000000
00000000
10000000
00100000
01000000
00010000
00100000
01001000
00000000
00000000
00010000
,  // measure 39
00100000
00010000
00001000
00000100
00000011
00000000
00000000
00000100
00000010
00001000
00000100
00001000
00001001
00000000
00000000
00000000
,  // measure 40
00000110
00000000
00000000
00000010
00002000
00010000
00000000
00000100
00000000
00000010
00000000
00010000
00000000
00003100
00001000
00000000
,  // measure 41
00110000
00000000
00000000
00000000
00110000
00000000
00000000
00000000
00110000
00000000
00000000
00000000
00101000
00000000
00000000
00000000
00000000
00000000
00000000
00000000
00000000
00010000
00000000
00000000
01000000
00000000
00000000
00100000
00000000
00000000
10000000
00000000
00000000
01000000
00000000
00000000
00100000
00000000
00000000
00000000
00000000
00000000
00120000
00000000
00000000
00000000
00000000
00000000
,  // measure 42
20030000
32000000
03200000
00320000
,  // measure 43
00030200
00001300
00011000
20000020
,  // measure 44
00000000
00000000
00000000
00000000
,  // measure 45
00000000
00000000
00000000
00000000
00000000
00000000
30000030
00000000
00000000
00010000
00000000
00010000
,  // measure 46
00100000
00000000
00100000
01000000
00000000
01000000
10000000
00000000
10000000
00001000
00000000
00001000
,  // measure 47
00000100
00000000
00000100
00000010
00000000
00000010
00000001
00000000
00000002
00020000
00000000
00000000
,  // measure 48
00000000
00000000
00000000
00000000
,  // measure 49
00000000
00000000
00030003
00000011
,  // measure 50
00000000
00000110
00000000
00000000
00000000
00001100
00000000
00000000
00000000
00011000
00000000
00000000
,  // measure 51
00000000
00110000
00000000
00000000
00000000
01100000
00000000
00000000
00000000
11000000
00000000
00000000
,  // measure 52
00000000
00110000
00000000
00000000
00000000
00001100
00000000
00000000
00000000
00000011
00000000
00000000
,  // measure 53
00000000
00000001
00000000
00000100
00000000
00000000
00000000
00000000
00000000
00000010
00000000
00010000
,  // measure 54
00001000
00000000
01000000
00100000
00000000
01000000
00010000
00000000
10000000
01000000
00000000
00010000
,  // measure 55
00100000
00000000
00010000
00001000
00000000
00100000
01000000
00000000
10000000
00010000
00000000
00100000
,  // measure 56
00001000
00000000
00000100
00000010
00000000
00000100
00000001
00000000
00001000
00000100
00000000
00010000
,  // measure 57
00001000
00000000
00010000
00000100
00000000
00000010
00001000
00000000
00000010
00001000
00000000
00100000
,  // measure 58
01000000
00000000
00010000
00100000
00000000
00010000
01000000
00000000
10000000
00001000
00000000
00000001
,  // measure 59
00000010
00000000
00000100
00010000
00000000
00001000
00000100
00000000
00100000
01000000
00000000
10000000
,  // measure 60
00100000
00000000
00010000
00100000
00000000
00010000
00001000
00000000
01000000
10000000
00000000
00010000
,  // measure 61
10000000
00000000
00100000
00010000
00000000
01000000
00001000
00000000
01000000
00200000
00000000
00000000
,  // measure 62
00310000
00000000
00010000
20000000
00000000
00000000
31000000
00000000
01000000
10000000
00000000
00100000
,  // measure 63
01000000
00000000
00010000
00000100
00000000
00000010
00001000
00000000
00000000
00000002
00000000
00000000
,  // measure 64
00000103
00000000
00000100
00000020
00000000
00000000
00001030
00000000
00001000
00000100
00000000
00001000
,  // measure 65
00010000
00000000
00000100
00100000
00000000
10000000
00010000
00000000
00000000
02000000
00000000
00000000
,  // measure 66
03001000
00000000
00001000
00200000
00000000
00000000
00310000
00000000
00010000
20000000
00000000
00000000
,  // measure 67
31000000
00000000
01000000
00020000
00000000
00000000
00130000
00000000
00100000
00001000
00000000
00001000
,  // measure 68
00010000
00000000
00010000
00100000
00000000
00100000
01000000
00000000
01000000
00010000
00000000
00010000
,  // measure 69
00100000
00000000
00000000
00000000
00100000
00000000
00000100
00000000
00000000
00000000
00000100
00000000
00001000
00000000
00000000
00000000
00001000
00000000
00000001
00000000
00000000
00000010
00000000
00000000
,  // measure 70
00000001
00000010
00000110
00000100
00000000
00001100
00010000
00001000
,  // measure 71
00100000
01000000
02020000
00000000
03030000
00000000
00010000
00001000
,  // measure 72
00010000
00001000
10010000
01000000
00000000
00110000
10000000
00010000
,  // measure 73
01000000
00100000
20200000
00000000
30300000
00000000
10010000
00000000
,  // measure 74
01100000
00000000
00000000
00001001
00000000
00000000
00000110
00000000
00000000
01010000
00000000
00110000
,  // measure 75
00000000
00000000
00000000
00000000
00000000
00000000
00000000
00000000
00000000
00000000
00000000
00000000
00000000
00000000
00000000
00000000
01100000
00000000
00000000
00000000
00000000
00000000
00000000
00000000
00000000
00000000
00000000
00000000
00000000
00000000
00000000
00000000
00000000
00000000
00000000
00000000
00000000
00000000
00000000
00000000
00000000
00000000
00000000
00000000
00000000
00000000
00000000
00000000
11000000
00000000
00000000
00000000
00000000
00000000
00000000
00000000
00000000
00000000
00000000
00000000
00000000
00000000
00000000
00000000
00000000
00000000
00000000
00000000
00000000
00000000
00000000
00000000
00000000
00000000
00000000
00000000
00000000
00000000
00000000
00000000
10100000
00000000
00000000
00000000
00000000
00000000
00000000
00000000
00000000
00000000
00000000
00000000
00000000
00000000
00000000
00000000
00000000
00000000
00000000
00000000
00000000
00000000
00000000
00000000
00000000
00000000
00000000
00000000
00000000
00000000
00000000
00000000
10000000
00000000
00000000
00000000
00000000
00000000
00000000
00000000
00000000
00000000
00000000
00000000
00000000
00000000
00000000
00000000
01000000
00000000
00000000
00000000
00000000
00000000
00000000
00000000
00000000
00000000
00000000
00000000
00000000
00000000
00000000
00000000
00100000
00000000
00000000
00000000
00000000
00000000
00000000
00000000
00000000
00000000
00000000
00000000
00000000
00000000
00000000
00000000
00000000
00000000
00000000
00000000
00000000
00000000
00000000
00000000
00000000
00000000
00000000
00000000
00000000
00000000
00000000
00000000
00000000
00000000
00000000
00000000
00000000
00000000
00000000
00000000
00000000
00000000
00001000
00000000
00000000
00000000
00000000
00000000
,  // measure 76
00010000
00000100
00001000
00000100
00010000
00000000
00000000
00000000
20200000
00000000
00000000
00000000
00000000
00000000
00000000
00000000
00000000
00000000
00000000
00000000
00000000
00000000
00000000
00000000
30300000
00000000
00000000
00000000
00000000
00000000
00000000
00000000
;
