#VERSION:0.83;
#TITLE:the Claw & the Dragon;
#SUBTITLE:;
#ARTIST:Re Mongkoh;
#TITLETRANSLIT:;
#SUBTITLETRANSLIT:;
#ARTISTTRANSLIT:;
#GENRE:;
#ORIGIN:;
#CREDIT:;
#BANNER:the Claw & the Dragon-bn.png;
#BACKGROUND:the Claw & the Dragon-bg.png;
#PREVIEWVID:;
#JACKET:the Claw & the Dragon-jacket.png;
#CDIMAGE:;
#DISCIMAGE:;
#LYRICSPATH:;
#CDTITLE:;
#MUSIC:the Claw & the Dragon.ogg;
#OFFSET:0.000000;
#SAMPLESTART:6.399000;
#SAMPLELENGTH:20.000000;
#SELECTABLE:YES;
#DISPLAYBPM:150.000000;
#BPMS:0.000=150.034;
#STOPS:;
#DELAYS:;
#WARPS:;
#TIMESIGNATURES:0.000=4=4;
#TICKCOUNTS:0.000=4;
#COMBOS:0.000=1;
#SPEEDS:0.000=1.000=0.000=0;
#SCROLLS:0.000=1.000;
#FAKES:;
#LABELS:0.000=Song Start;
#BGCHANGES:;
#KEYSOUNDS:;
#ATTACKS:
;

//---------------dance-single - ----------------
#NOTEDATA:;
#CHARTNAME:;
#STEPSTYPE:dance-single;
#DESCRIPTION:;
#CHARTSTYLE:;
#DIFFICULTY:Hard;
#METER:13;
#RADARVALUES:0.832076,0.861092,0.732358,0.114431,0.738079,509.000000,445.000000,64.000000,10.000000,0.000000,0.000000,0.000000,0.000000,0.000000,0.832076,0.861092,0.732358,0.114431,0.738079,509.000000,445.000000,64.000000,10.000000,0.000000,0.000000,0.000000,0.000000,0.000000;
#CREDIT:;
#DISPLAYBPM:150.000000;
#NOTES:
// measure 0
0000
0000
0000
0000
,  // measure 1
0000
0000
0000
0000
,  // measure 2
0000
0000
0000
0000
,  // measure 3
0000
0000
0000
0000
,  // measure 4
0110
0000
0000
0000
1010
0000
0000
1000
0001
0000
0100
0000
0010
1000
0010
0000
,  // measure 5
1000
0000
0000
0000
0101
0000
0000
0001
0010
0000
0100
0000
1000
0001
1000
0000
,  // measure 6
0010
0000
1000
0000
1100
0000
0000
0000
0001
0010
0001
0000
1000
0100
1000
0000
,  // measure 7
0010
0000
0100
0000
0110
0000
0000
0000
0001
0010
0001
0000
1000
0100
1000
0000
,  // measure 8
1001
0000
0000
0000
0101
0000
0000
0001
1000
0000
0100
0000
0010
0001
0010
0000
,  // measure 9
0100
0000
0000
0000
0101
0000
0000
0001
1000
0001
1000
0000
0010
0000
0100
0000
,  // measure 10
0010
0000
1000
0000
1001
0000
0000
0000
0001
0100
0001
0000
0100
0010
0100
0000
,  // measure 11
0001
0000
0010
0000
0011
0000
0000
0000
0001
1000
0001
0000
0100
1000
0100
0000
,  // measure 12
1002
0000
0100
0103
0210
0000
0010
0310
,  // measure 13
1010
0000
0102
0000
1000
1003
0101
0000
,  // measure 14
0120
0000
0000
0000
1030
0000
0000
0000
0001
0100
0001
0000
0100
0010
0100
0000
,  // measure 15
0001
0010
0001
0010
0100
1000
0001
0000
0101
0000
1001
0000
1100
0000
0000
0000
,  // measure 16
1001
0000
0000
0000
0110
0000
0000
0000
0010
1000
0010
0000
1000
0001
1000
0000
,  // measure 17
0001
0000
0011
0000
0011
0000
0100
0000
1001
0000
0001
0000
0100
0010
1000
0000
,  // measure 18
0010
0000
1000
0000
0001
0000
0000
0100
0001
0100
0001
0000
1000
0010
1000
0000
,  // measure 19
0001
0010
0000
0001
0100
0000
0000
0010
1000
0100
1000
0000
0001
0010
0100
0000
,  // measure 20
1000
0000
0001
0000
0010
0000
0000
0001
0100
0001
0100
0000
0010
1000
0100
0000
,  // measure 21
1000
0000
0001
0000
0100
0000
0000
0001
1000
0010
0100
0000
0010
0100
0001
0000
,  // measure 22
1000
0000
0000
0001
0000
0000
0100
0000
0000
0010
0000
0000
1000
0000
0100
0000
1000
0000
0001
0000
0100
0000
0001
0000
,  // measure 23
0010
0000
0001
0000
0100
0000
0000
0001
1000
0010
0100
0000
0010
1000
0001
0000
,  // measure 24
1000
0000
0100
0000
0010
0001
0000
0100
0001
0000
1000
0000
0010
1000
0100
0000
,  // measure 25
1000
0000
0001
0000
0100
0010
0000
0100
0001
0010
0100
0000
1000
0001
1000
0000
,  // measure 26
0010
0000
1000
0000
0100
0010
0000
0100
1000
0001
0010
0000
0001
1000
0001
0000
,  // measure 27
0010
0000
0100
0000
1000
0010
0000
1000
0100
0010
0001
0000
0001
1000
0001
0000
,  // measure 28
0100
0000
0001
0000
1000
0100
0000
0010
0100
1000
0010
0000
1000
0001
0010
0000
,  // measure 29
0001
0000
0001
0000
0001
1000
0000
0010
1000
0100
1000
0000
0010
0100
0010
0000
,  // measure 30
0100
0000
0100
0000
0100
0001
0000
0010
0001
1000
0010
0000
1000
0001
1000
0000
,  // measure 31
0001
0000
0010
0000
0100
1000
0000
0001
1000
0010
0100
0000
0010
1000
0001
0000
,  // measure 32
1000
0000
0001
0000
0100
0010
0000
1000
0100
0010
0001
0000
0010
0100
1000
0000
,  // measure 33
0001
0000
0001
0000
1000
0100
0000
1000
0010
0100
0010
0000
0100
0001
1000
0000
,  // measure 34
0010
0000
0010
0000
1000
0100
0000
1000
0001
0010
0001
0000
0100
0010
1000
0000
,  // measure 35
0110
0000
0110
0000
1000
0010
0000
1000
0100
0010
0001
0000
0100
0001
1000
0000
,  // measure 36
1100
0000
1100
0000
1000
0001
0000
0010
0001
0100
0001
0000
1000
0010
0100
0000
,  // measure 37
0101
0000
0101
0000
0001
1000
0000
0010
1000
0100
0010
0000
0100
1000
0001
0000
,  // measure 38
1001
0000
0000
0000
0101
0000
0000
0010
0100
0001
1000
0000
0010
1000
0100
0000
,  // measure 39
0001
0000
0000
0000
0011
0000
0000
0001
0100
0010
1000
0000
0010
1000
0001
0000
,  // measure 40
0011
0000
0011
0000
1001
0000
0000
1000
0010
0100
0001
0000
1001
0000
0000
0000
,  // measure 41
1100
0000
1100
0000
1001
0000
0000
0010
1000
0001
0100
0000
1001
0000
0000
0000
,  // measure 42
1010
0000
0000
0000
1100
0000
0000
1000
0100
1000
0001
0000
0100
0001
0010
0000
,  // measure 43
0001
0000
0000
0000
0110
0000
0000
0010
1000
0100
0010
0000
0001
0000
1000
0000
,  // measure 44
0010
0000
1010
0000
1100
0000
0000
1000
0001
0100
0001
0000
1000
0010
1000
0000
,  // measure 45
1100
0000
1001
0000
0101
0000
0000
0001
0100
0010
1000
0000
1010
0000
0000
0000
,  // measure 46
2001
0000
0010
3010
0102
0000
0010
0013
,  // measure 47
0011
0000
2100
0000
0100
3100
1001
0000
,  // measure 48
0012
0000
0000
0000
1000
0000
0000
0000
0013
0001
0100
0000
0010
1000
0100
0000
,  // measure 49
0010
1000
0001
1000
0100
0010
0001
0000
0101
0000
0110
0000
1010
0000
0000
0000
,  // measure 50
0010
0000
0000
0000
1001
0000
0000
0001
0010
0100
1000
0000
0001
1000
0100
0000
,  // measure 51
1000
0000
1100
0000
1100
0000
0001
0000
0101
0000
0100
0000
0010
1000
0001
0000
,  // measure 52
2002
0000
0000
0000
,  // measure 53
0000
0000
0000
3003
;
