#VERSION:0.83;
#TITLE:freaky freak;
#SUBTITLE:;
#ARTIST:kamome sano;
#TITLETRANSLIT:;
#SUBTITLETRANSLIT:;
#ARTISTTRANSLIT:;
#GENRE:;
#CREDIT:;
#MUSIC:freaky freak.ogg;
#BANNER:freaky freak-bn.png;
#BACKGROUND:freaky freak-bg.png;
#JACKET:freaky freak-jacket.png;
#DISCIMAGE:;
#CDIMAGE:;
#SELECTABLE:YES;
#LYRICSPATH:;
#CDTITLE:;
#SAMPLESTART:24.827999;
#SAMPLELENGTH:20.000000;
#BPMS:0.000000=145.000000;
#STOPS:;
#WARPS:;
#DELAYS:;
#SPEEDS:0.000000=1.000000=0.000000=0;
#SCROLLS:0.000000=1.000000;
#TICKCOUNTS:0.000000=4;
#TIMESIGNATURES:0.000000=4=4,
196.000000=2=4,
198.000000=4=4
;
#LABELS:0.000000=Song Start;
#COMBOS:0.000000=1;
#FAKES:;
#BGCHANGES:;
#FGCHANGES:;
#ATTACKS:;
#PREVIEWVID:;
#DISPLAYBPM:145.000000;
#KEYSOUNDS:;

//---------------dance-single - ---------------
#NOTEDATA:;
#CHARTNAME:;
#CHARTSTYLE:;
#CREDIT:;
#STEPSTYPE:dance-single;
#DESCRIPTION:;
#DIFFICULTY:Hard;
#METER:12;
#METERF:12;
#RADARVALUES:0.398692,0.392712,0.088598,0.000000,0.234785,315.000000,305.000000,10.000000,0.000000,0.000000,0.000000,0.000000,0.000000,0.000000,0.398692,0.392712,0.088598,0.000000,0.234785,315.000000,305.000000,10.000000,0.000000,0.000000,0.000000,0.000000,0.000000,0.000000;
#NOTES:
// measure 0
0000
0000
0000
0000
,  // measure 1
0000
0000
0000
0000
,  // measure 2
0000
0000
0000
0000
,  // measure 3
0000
0000
0000
0000
,  // measure 4
1000
1000
1000
1000
,  // measure 5
0001
0001
0001
0001
,  // measure 6
0010
0010
0010
0010
,  // measure 7
0100
0100
0100
0100
,  // measure 8
1001
0000
0000
1000
0100
0000
0000
0100
0001
0000
0000
0001
0010
0000
0000
0000
,  // measure 9
0011
0000
0000
0001
0100
0000
0000
0100
1000
0000
0000
1000
0010
0000
0000
0000
,  // measure 10
1010
0000
0000
0010
1000
0000
0000
1000
0100
0000
0000
0100
0001
0000
0000
0000
,  // measure 11
0101
0000
0000
0100
0001
0000
0000
0001
0010
0000
0000
0010
1000
0000
0000
0000
,  // measure 12
0001
0100
0001
0100
0001
0010
1000
0001
,  // measure 13
1000
0010
1000
0001
1000
0100
0010
0001
,  // measure 14
0100
0010
0100
0001
0010
1000
0100
0001
,  // measure 15
1000
1000
1000
1000
1000
1000
1000
1000
,  // measure 16
0001
0001
1000
1000
1001
0000
1001
0000
,  // measure 17
0010
0000
1000
0000
0100
0000
0000
0001
0000
0000
1000
0000
0001
0000
0010
0000
,  // measure 18
0000
0000
0100
0000
1000
0000
0000
0001
0000
0000
1000
0000
0010
0000
0000
0100
,  // measure 19
0000
0000
0001
0000
0010
0000
0000
1000
0000
0000
0001
0000
1000
0000
0010
0000
,  // measure 20
0000
0100
0000
0000
0001
0000
0000
0010
0000
0000
0100
0000
1000
0000
0001
0000
,  // measure 21
1000
0000
1000
0000
1000
0000
0000
0010
0000
0000
0100
0000
0001
0000
0010
0000
,  // measure 22
0100
0000
1000
0000
0010
0000
0000
0100
0000
0000
0001
0000
0010
0000
1000
0000
,  // measure 23
0000
0000
0100
0000
0010
0000
0000
0001
0000
0000
1000
0000
0001
0000
0100
0000
,  // measure 24
0010
1000
0001
1000
0001
0010
0100
0000
,  // measure 25
1000
1000
1000
0001
1000
0010
0100
0001
,  // measure 26
0010
1000
0010
0001
0010
0100
1000
0001
,  // measure 27
0100
0000
1000
0000
0100
0000
0000
0001
0000
0000
0010
0000
0001
0000
1000
0000
,  // measure 28
0010
0100
0010
1000
0100
0010
0001
1000
,  // measure 29
0001
0000
0100
0000
0001
0000
0000
0010
0000
0000
1000
0000
0100
0000
1000
0000
,  // measure 30
0001
0010
0001
0100
1000
0001
0010
0100
,  // measure 31
1000
0000
0010
0000
1000
0000
0000
0100
0000
0000
0010
0000
0001
0000
0100
0000
,  // measure 32
0001
0001
1000
1000
0001
0100
1000
0000
,  // measure 33
0010
0000
0010
0000
0000
1000
0000
0000
0100
0000
0000
0010
0000
0000
0001
0000
,  // measure 34
0000
0100
0000
0000
0001
0000
0000
0000
0010
0000
0000
0010
0000
0000
0010
0000
,  // measure 35
0001
0000
1000
0000
0001
0000
0000
0000
0100
0000
0000
0001
0000
1000
0000
0100
,  // measure 36
0000
1000
0000
0000
0010
0000
0000
0001
0000
0000
0100
0000
1001
0000
0000
0000
,  // measure 37
0010
0000
0010
0000
0100
0000
0000
0000
0001
0000
0000
0010
0000
0000
1000
0000
,  // measure 38
0000
0000
0100
0000
0000
1000
0000
0000
0001
0000
0000
0100
0000
0000
0010
0000
,  // measure 39
1000
1000
0001
0100
0001
0010
0100
1000
,  // measure 40
0010
0100
0010
1000
0100
0001
0110
0000
,  // measure 41
1000
0000
0001
0000
0010
0000
0000
0001
0000
0000
0100
0010
0000
0000
0100
0010
,  // measure 42
0000
0000
1000
0000
0001
0000
0000
0010
0000
0000
0100
1000
0000
0000
0001
0000
,  // measure 43
1000
0000
0000
0000
0000
0000
0010
0000
0000
0000
0000
0000
0100
0000
0000
0001
0000
0000
0000
0000
0000
0000
0000
0000
0010
0000
0000
0100
0000
0000
0000
0000
0000
1000
0000
0000
0000
0000
0000
0000
0001
0000
0000
0000
0100
0000
0000
0000
,  // measure 44
0001
0000
0010
0000
1000
0000
0000
0100
0000
0100
0000
0000
1000
0000
0001
0000
,  // measure 45
0100
0000
0010
0000
1000
0000
0000
0001
0000
0000
0010
0100
0000
0000
0010
0100
,  // measure 46
0000
0000
1000
0000
0010
0000
0000
0001
0000
0000
0100
0010
0000
0000
1000
0000
,  // measure 47
0001
0001
0001
0001
0001
0001
0001
0001
,  // measure 48
1000
1000
1000
1000
1000
1000
1000
1000
,  // measure 49
1001
0000
1001
0000
0010
0100
0001
0100
,  // measure 50
1000
0001
1000
0010
1000
0001
1000
0010
,  // measure 51
0010
0001
0100
0100
0100
0001
1000
0010
,  // measure 52
1000
0001
0010
0100
1000
0010
1000
0010
,  // measure 53
0001
0100
0001
0100
0001
1000
0010
0010
,  // measure 54
0100
0001
1000
0100
0100
0001
1000
1000
,  // measure 55
0010
0100
0010
0001
0010
1000
0001
0100
,  // measure 56
1000
0000
0000
0010
0000
0000
0001
0000
0000
0100
0000
0000
0001
0000
1000
0000
0001
0000
1000
0000
0000
0000
0000
0000
,  // measure 57
0001
0100
0001
0100
0001
0000
0000
0000
0010
0000
0000
0000
1100
0000
0001
0000
,  // measure 58
1000
0010
0100
0001
0010
1000
0010
0001
,  // measure 59
0100
0010
1000
0100
0010
0001
0010
0100
,  // measure 60
1000
0010
1000
0001
0100
0010
0100
0001
,  // measure 61
0010
1000
0100
0001
1000
0001
0010
0001
,  // measure 62
0100
1000
0010
0100
0010
1000
0001
0010
,  // measure 63
0001
0100
1000
0001
1000
0010
1000
0010
,  // measure 64
0100
0000
0001
0000
0010
0000
1000
0000
0100
0010
0100
0010
0100
0000
0000
0000
,  // measure 65
1000
0000
0001
0100
0001
0000
0000
0000
0011
0000
0000
1100
0000
0000
0101
0000
,  // measure 66
0000
1000
0000
0000
0010
0000
0000
0100
0000
0000
0001
0000
0000
0000
0000
0000
;
