#VERSION:0.83;
#TITLE:four pieces of heaven;
#SUBTITLE:;
#ARTIST:Lion;
#TITLETRANSLIT:;
#SUBTITLETRANSLIT:;
#ARTISTTRANSLIT:;
#GENRE:;
#ORIGIN:;
#CREDIT:;
#BANNER:four pieces of heaven-bn.png;
#BACKGROUND:four pieces of heaven-bg.png;
#PREVIEWVID:;
#JACKET:four pieces of heaven-jacket.png;
#CDIMAGE:;
#DISCIMAGE:;
#LYRICSPATH:;
#CDTITLE:;
#MUSIC:four pieces of heaven.ogg;
#OFFSET:0.050000;
#SAMPLESTART:31.334999;
#SAMPLELENGTH:20.000000;
#SELECTABLE:YES;
#DISPLAYBPM:125.000000:195.000000;
#BPMS:0.000=195.000,
184.000=175.000,
200.000=168.000,
208.000=160.000,
212.000=135.000,
216.000=125.000,
224.000=130.000,
232.000=135.000,
240.000=140.000,
248.000=145.000,
256.000=150.000,
264.000=160.000,
268.000=170.000,
272.000=180.000,
276.000=195.000;
#STOPS:;
#DELAYS:;
#WARPS:;
#TIMESIGNATURES:0.000=4=4;
#TICKCOUNTS:0.000=4;
#COMBOS:0.000=1;
#SPEEDS:0.000=1.000=0.000=0;
#SCROLLS:0.000=1.000;
#FAKES:;
#LABELS:0.000=Song Start;
#BGCHANGES:;
#KEYSOUNDS:;
#ATTACKS:
;

//---------------dance-single - ----------------
#NOTEDATA:;
#CHARTNAME:;
#STEPSTYPE:dance-single;
#DESCRIPTION:;
#CHARTSTYLE:;
#DIFFICULTY:Hard;
#METER:13;
#RADARVALUES:0.667342,0.751062,0.186179,0.736252,0.156559,552.000000,530.000000,22.000000,87.000000,0.000000,0.000000,0.000000,0.000000,0.000000,0.667342,0.751062,0.186179,0.736252,0.156559,552.000000,530.000000,22.000000,87.000000,0.000000,0.000000,0.000000,0.000000,0.000000;
#CREDIT:;
#DISPLAYBPM:125.000000:195.000000;
#NOTES:
// measure 0
0000
0000
0000
0000
,  // measure 1
0000
0000
0000
0000
,  // measure 2
0000
0000
0000
0000
,  // measure 3
0000
0000
0000
0000
,  // measure 4
0000
0000
0000
0000
,  // measure 5
0200
0000
0000
0310
,  // measure 6
1001
0000
0110
0000
0000
1000
0001
0100
,  // measure 7
0001
0000
0010
0000
2000
3001
2000
3010
,  // measure 8
2000
3001
0000
0100
0010
1000
0001
1000
,  // measure 9
0100
0000
0010
0000
0002
1003
0002
0103
,  // measure 10
0002
1003
0000
0010
1000
0001
0100
0010
,  // measure 11
1000
0000
0100
0000
0020
0031
0020
1030
,  // measure 12
0020
0031
0000
0100
0001
1000
0001
0010
,  // measure 13
0100
0000
1000
0000
0020
0130
0020
1030
,  // measure 14
0020
0130
0000
0001
0010
0100
1000
0000
,  // measure 15
1100
0000
0101
0000
2000
3001
2000
3010
,  // measure 16
2000
3100
0000
0010
0001
0100
0010
1000
,  // measure 17
0100
0000
0000
0000
0010
0000
0001
1000
0002
0000
0103
0000
0002
0000
0013
0000
,  // measure 18
0002
0103
0000
0010
1000
0001
1000
0100
,  // measure 19
0010
0000
0011
0000
0000
0000
1000
0001
2000
0000
3010
0000
2000
0000
3100
0000
,  // measure 20
2000
3010
0000
0100
0001
1000
0010
0000
,  // measure 21
1010
0000
0000
0000
0000
0000
0100
0010
0200
0000
1300
0000
0200
0000
0301
0000
,  // measure 22
0200
0310
0000
1000
0001
0000
0000
0010
,  // measure 23
0010
0000
0100
0000
2000
3100
2000
3010
,  // measure 24
2000
3001
0110
0000
0000
0000
0000
0000
,  // measure 25
0001
0000
0010
0000
0001
0000
0010
0000
0001
0000
0010
0000
0002
0000
0000
1003
0000
0000
0020
0000
0000
1030
0000
0000
,  // measure 26
0002
1003
0000
0100
0010
0001
0100
0001
,  // measure 27
1000
0000
0010
0000
0001
0000
0010
1000
0020
0000
0130
0000
0002
0000
0103
0000
,  // measure 28
0020
1030
0000
0100
1000
0001
0010
0100
,  // measure 29
0010
0001
0100
0010
2000
3100
0020
0130
,  // measure 30
2000
3001
0000
0100
0001
1000
0100
0001
,  // measure 31
0100
0000
0010
0000
0100
0000
1000
0010
2000
0000
3001
0000
0200
0000
0301
0000
,  // measure 32
0020
0031
0000
0010
0100
1000
0010
0100
,  // measure 33
1000
0100
0001
0100
0020
1030
0200
1300
,  // measure 34
0020
1030
0000
0001
0010
1000
0100
0010
,  // measure 35
0100
1000
0001
0100
0002
0013
0200
1300
,  // measure 36
0020
0130
0001
1000
0001
0010
0100
1000
,  // measure 37
0010
0100
0010
1000
0200
0310
0002
0103
,  // measure 38
0020
1030
0010
0100
0001
0010
1000
0010
,  // measure 39
0001
0100
0010
0100
0002
0013
0200
0310
,  // measure 40
0200
1300
0000
0010
1000
0001
1000
0100
,  // measure 41
0010
1000
0010
0001
0200
0310
0200
0301
,  // measure 42
0200
0310
0000
1000
0001
0000
0000
0000
,  // measure 43
0000
0000
0000
0000
2000
3001
2000
3010
,  // measure 44
2000
3001
0000
0010
0001
0000
0010
0100
,  // measure 45
0000
0000
0000
0000
,  // measure 46
2200
0000
0000
3300
,  // measure 47
0202
0000
0000
0303
,  // measure 48
0022
0033
2020
3030
,  // measure 49
2002
3003
0220
0330
,  // measure 50
1000
0100
0010
0001
0000
0000
1000
0100
0010
0001
0000
0000
,  // measure 51
1000
0100
0010
0001
0000
0000
1000
0100
0010
0001
0000
0000
,  // measure 52
0100
0010
1000
0001
0100
0010
1000
0001
,  // measure 53
0100
0010
1000
0001
0100
0010
1000
0001
,  // measure 54
0010
0100
0010
0001
1001
0000
1010
0000
,  // measure 55
0101
0010
1000
0010
0100
0001
1000
0001
,  // measure 56
0010
0100
1000
0001
2000
0000
3020
0000
,  // measure 57
0130
0000
0000
2020
0000
0030
0000
0000
0000
3002
0000
0000
0203
0000
0000
0320
0000
0000
2030
0000
0000
3002
0000
0000
,  // measure 58
0013
0001
0000
1000
0001
0100
0010
1000
,  // measure 59
0100
0010
0002
0000
1000
0000
0103
0010
,  // measure 60
1000
0100
0000
0020
0000
0032
2003
3002
,  // measure 61
0103
0000
0010
0000
0000
0000
1000
0000
0001
0000
0011
0000
1000
0100
1000
0100
,  // measure 62
2000
0000
0000
0000
3001
0100
0001
0100
0001
0000
0000
0000
0010
0000
0001
0000
,  // measure 63
0100
0010
0100
0001
1000
0010
1000
0001
,  // measure 64
0010
0100
0010
0001
0010
0100
1000
0001
,  // measure 65
0100
0000
0010
0000
0100
0000
0001
0000
1000
0000
0000
0000
0001
0010
0001
0010
,  // measure 66
0001
0000
0000
0000
1000
0010
1000
0010
1000
0000
0000
0000
0010
0100
0010
0100
,  // measure 67
0010
0000
0000
1000
0100
1000
0100
0000
0000
0010
0001
0010
,  // measure 68
0001
0100
0001
0010
0001
1000
0010
0100
,  // measure 69
0101
0000
1100
0000
0010
0100
1001
0000
,  // measure 70
0010
1000
0000
0100
0010
0001
0000
0100
,  // measure 71
0001
0010
0000
0001
1000
0000
0010
1000
,  // measure 72
0100
0010
0000
0001
1000
0001
0000
0100
,  // measure 73
0010
1000
0000
0001
0010
0001
0100
0010
,  // measure 74
1000
0000
0001
0000
0000
0000
0000
0000
0100
0010
0100
0000
0001
0000
1000
0000
,  // measure 75
0100
0000
0010
0001
1000
0001
0100
0010
,  // measure 76
1000
0000
0100
0000
0000
0000
0000
0000
1000
0001
1000
0000
0100
0000
0010
0000
,  // measure 77
0001
0100
0000
0010
1000
0100
0001
0100
,  // measure 78
1000
0001
1000
0000
0000
0000
0010
0000
0100
0000
0000
0000
0001
0000
0100
0000
,  // measure 79
0010
1000
0010
0000
0000
0000
1000
0000
0001
0000
0000
0000
0010
0000
0100
0000
,  // measure 80
0000
1000
0100
0001
0100
1000
0100
0010
,  // measure 81
0001
0100
0000
0001
1000
0010
1000
0001
,  // measure 82
0100
0000
0010
0000
0000
0000
1000
0000
0001
0000
0000
0000
0010
0100
0010
0000
,  // measure 83
0001
1000
0010
0100
1000
0100
0001
1000
,  // measure 84
0001
0000
0100
0000
0000
0000
0010
0000
1000
0000
0000
0000
0001
0100
0001
0000
,  // measure 85
2020
0000
0000
0000
,  // measure 86
0000
0000
0000
0000
,  // measure 87
0000
0000
0000
0000
,  // measure 88
0000
0000
0000
3030
;
