#VERSION:0.83;
#TITLE:Wonderland;
#SUBTITLE:;
#ARTIST:kors k;
#TITLETRANSLIT:;
#SUBTITLETRANSLIT:;
#ARTISTTRANSLIT:;
#GENRE:;
#ORIGIN:;
#CREDIT:;
#BANNER:Wonderland-bn.png;
#BACKGROUND:Wonderland-bg.png;
#PREVIEWVID:;
#JACKET:Wonderland-jacket.png;
#CDIMAGE:;
#DISCIMAGE:;
#LYRICSPATH:;
#CDTITLE:;
#MUSIC:Wonderland.ogg;
#OFFSET:0.000000;
#SAMPLESTART:20.000000;
#SAMPLELENGTH:20.000000;
#SELECTABLE:YES;
#DISPLAYBPM:90.000000:180.000000;
#BPMS:0.000=180.000,
224.000=90.000,
240.000=180.000;
#STOPS:;
#DELAYS:;
#WARPS:;
#TIMESIGNATURES:0.000=4=4;
#TICKCOUNTS:0.000=4;
#COMBOS:0.000=1;
#SPEEDS:0.000=1.000=0.000=0;
#SCROLLS:0.000=1.000;
#FAKES:;
#LABELS:0.000=Song Start;
#BGCHANGES:;
#KEYSOUNDS:;
#ATTACKS:
;

//---------------dance-single - ----------------
#NOTEDATA:;
#CHARTNAME:;
#STEPSTYPE:dance-single;
#DESCRIPTION:;
#CHARTSTYLE:;
#DIFFICULTY:Hard;
#METER:15;
#RADARVALUES:0.864475,1.728950,0.642181,0.082331,0.514568,735.000000,657.000000,78.000000,10.000000,0.000000,0.000000,0.000000,0.000000,0.000000,0.864475,1.728950,0.642181,0.082331,0.514568,735.000000,657.000000,78.000000,10.000000,0.000000,0.000000,0.000000,0.000000,0.000000;
#CREDIT:;
#DISPLAYBPM:90.000000:180.000000;
#NOTES:
// measure 0
0000
0000
0000
0000
,  // measure 1
0000
0000
0000
0000
,  // measure 2
0000
0000
0000
0000
,  // measure 3
0000
0000
0000
0000
,  // measure 4
1000
0010
0001
0000
0100
0010
0100
0010
,  // measure 5
0000
1000
0100
0000
1000
0001
1000
0001
,  // measure 6
0000
0010
0001
0000
0100
0001
0100
0001
,  // measure 7
0000
1000
0001
0000
0100
0010
0110
0000
,  // measure 8
1000
0001
0010
0000
0100
1000
0100
1000
,  // measure 9
0010
0100
0001
0000
1000
0010
1000
0010
,  // measure 10
1000
0100
0001
0000
0010
0001
0010
0001
,  // measure 11
0100
0010
1000
0000
0010
0100
1001
0000
,  // measure 12
1000
0010
0100
0010
1000
0100
0010
0001
,  // measure 13
0100
0001
0010
0100
1000
0001
1000
0010
,  // measure 14
0100
0001
0010
0100
0010
0001
1000
0100
,  // measure 15
1100
0000
0001
0000
0000
0000
0101
0000
0000
0000
1001
0000
0000
0000
1000
0100
,  // measure 16
1000
0000
0001
0100
0001
0000
0010
0000
0100
0000
1000
0000
0001
0000
0100
0000
,  // measure 17
0000
0000
0010
0000
1000
0100
1000
0000
0001
0100
0001
0000
0010
0000
0100
0000
,  // measure 18
1000
0000
0010
0000
0100
0000
0001
0000
0010
0100
0010
0000
0001
0000
1000
0000
,  // measure 19
0100
0000
0010
0000
0001
0100
0001
0000
1000
0000
0010
0000
0100
0000
0001
0010
,  // measure 20
0001
0000
1000
0010
1000
0000
0100
0000
0010
0000
0001
0000
1000
0000
0010
0000
,  // measure 21
0000
0000
1000
0000
0001
0010
0001
0000
1000
0100
1000
0000
0001
0000
0100
0000
,  // measure 22
0010
0000
0001
0000
0100
0000
0010
0000
1000
0100
1000
0000
0010
0000
0100
0000
,  // measure 23
0001
0000
1000
0100
1000
0100
1000
0000
0010
0000
0100
0000
0001
0000
0000
0000
,  // measure 24
0011
0000
0000
0000
1100
0000
0000
0000
0010
1000
0000
0100
0000
1000
0010
0000
,  // measure 25
0110
0000
0101
0000
1100
0001
0100
0000
,  // measure 26
1010
0000
0000
0000
0101
0000
0000
0000
0010
0001
0000
1000
0000
0100
1000
0000
,  // measure 27
1100
0000
0011
0000
0110
1000
0010
0000
,  // measure 28
1001
0000
0000
0000
0011
0000
0000
0000
1000
0100
0000
0010
0000
1000
0010
0000
,  // measure 29
1010
0000
0101
0000
0011
1000
0001
0000
,  // measure 30
0110
0000
0000
0000
1010
0000
0000
0000
1000
0100
0000
0001
0000
0010
0100
0000
,  // measure 31
1000
0100
0010
0001
0100
0110
1001
0000
,  // measure 32
1000
0100
0000
0000
0001
0100
0000
0000
1000
0001
0000
0100
0000
0010
0100
0000
,  // measure 33
0001
0010
0000
0000
1000
0100
0000
0000
0010
0100
0010
0000
1001
0000
0000
0000
,  // measure 34
0001
0010
0000
0000
1000
0010
0000
0000
0100
0001
0000
0010
0000
0100
1000
0000
,  // measure 35
0010
1000
0000
0000
0100
0010
0000
0000
0001
1000
0001
0000
0101
0000
0000
0000
,  // measure 36
1100
0000
1100
0000
0101
0000
0101
0000
1000
0001
0000
0100
0000
0001
1000
0000
,  // measure 37
1010
1010
0110
0110
0101
1000
0001
0000
,  // measure 38
0011
0000
0011
0000
1010
0000
1010
0000
0010
1000
0000
0001
0000
1000
0010
0000
,  // measure 39
1000
0100
0010
0001
0100
0010
0110
0000
,  // measure 40
2001
0100
0010
3001
,  // measure 41
0012
0000
1000
0000
0100
0000
0013
0001
,  // measure 42
0000
0100
0010
0000
1000
0001
1000
0001
,  // measure 43
0000
0010
0001
0000
0100
0010
1010
0000
,  // measure 44
0210
1000
0010
0301
,  // measure 45
0021
0000
0100
0000
0031
0000
1000
0010
,  // measure 46
0000
1000
0100
0000
0010
0001
0010
0001
,  // measure 47
0000
0100
0001
0000
1000
0100
0101
0000
,  // measure 48
1000
0010
0001
0000
0100
0010
0100
0010
,  // measure 49
1000
0100
0010
0000
0001
0100
0001
0100
,  // measure 50
0001
1000
0100
0000
0010
0001
0010
0001
,  // measure 51
1000
0001
0100
0000
0010
1000
0010
1000
,  // measure 52
0001
0010
0001
0010
0100
1000
0100
1000
,  // measure 53
0010
0100
0010
0100
0001
1000
0001
1000
,  // measure 54
0100
0100
0010
0010
0001
0001
1000
1000
,  // measure 55
1010
0000
0100
0000
0000
0000
0110
0000
0000
0000
1001
0000
0000
0000
1000
0001
,  // measure 56
1000
0000
0010
0100
0010
0100
0010
0100
0010
1000
0010
0000
0101
0000
0101
0000
0000
0000
0010
0000
0010
0000
0010
0000
1000
0100
0010
0000
0001
1000
0001
0000
,  // measure 57
0100
0000
0010
0000
0010
0000
0010
0000
1000
0010
0100
0000
0001
0000
0001
0000
0001
0000
0100
0000
0010
1000
0001
0000
0110
0000
0110
0000
0110
0000
1000
0100
,  // measure 58
0010
0000
0001
0100
0001
0100
0001
0100
0001
0010
0100
0000
1100
0000
1100
0000
0000
0000
1000
0000
1000
0000
1000
0000
0100
0010
0001
0000
0100
0010
0100
0000
,  // measure 59
1010
1010
0000
0011
0011
0000
0101
0101
0000
1100
1100
0000
1001
0100
1001
0000
,  // measure 60
0010
1000
0010
0001
0010
0100
1000
0001
,  // measure 61
0010
0100
1000
0010
0001
0010
1000
0001
,  // measure 62
0100
1000
0100
0001
0010
0100
0010
0001
,  // measure 63
0100
0001
1000
0100
0001
0010
1000
0010
,  // measure 64
0100
0010
1000
0001
0010
0100
0010
0001
,  // measure 65
1000
0001
0010
0100
1000
0010
0100
0001
,  // measure 66
0010
0010
0001
0001
1000
1000
0100
0100
,  // measure 67
1001
0000
0010
0000
0000
0000
0101
0000
0000
0000
1010
0000
0000
0000
0100
1000
,  // measure 68
0010
0000
0100
0001
1000
0000
0010
0000
0100
0000
0001
0000
0010
0000
0100
0000
,  // measure 69
0000
0000
1000
0000
0001
0010
0100
0000
1000
0001
0100
0000
0010
0000
1000
0000
,  // measure 70
0001
0000
1000
0000
0100
0000
1000
0000
0001
0100
0010
0000
1000
0000
0001
0000
,  // measure 71
0010
0000
0100
0000
1000
0010
0100
0000
0101
0000
1001
0000
1100
0000
1000
0100
,  // measure 72
0010
0000
0001
1000
0100
0000
0010
0000
0100
0000
1000
0000
0001
0000
0010
0000
,  // measure 73
0000
0000
0010
0000
0001
0100
0010
0000
1000
0001
0010
0000
0100
0000
1000
0000
,  // measure 74
0010
0000
0100
0000
0001
0000
0010
0000
0100
1000
0010
0000
1000
0000
0001
0000
,  // measure 75
0010
0000
0010
0000
0001
0100
0001
0100
0001
0000
0011
0000
1100
0000
0010
0100
,  // measure 76
0010
0000
1000
0100
1000
0000
0001
0100
0001
0000
0010
0000
0100
0000
1000
0000
,  // measure 77
0010
1000
0010
0000
1000
0001
0010
0001
1000
0000
0100
0000
0100
0000
1000
0001
,  // measure 78
0010
0000
0100
0000
1000
0001
0010
0000
0001
1000
0100
0000
0010
0000
0001
0000
,  // measure 79
0100
0000
0001
1000
0100
0010
0100
0000
1100
0000
1010
0000
1001
0000
0001
0010
,  // measure 80
0001
0000
0100
0010
0100
0000
1000
0010
1000
0000
0100
0000
0010
0000
0001
0000
,  // measure 81
0100
0001
0010
0000
0001
1000
0100
1000
0010
0000
0100
0000
0100
0000
0001
0010
,  // measure 82
0002
0000
0000
0023
0000
0000
0230
0000
2300
0000
0000
3002
0000
0000
0203
0000
,  // measure 83
0310
0010
0100
0100
0001
0001
1000
1000
,  // measure 84
1001
0000
0000
0000
;
