#TITLE:UNLIMITED FIRE;
#SUBTITLE:(DJ Amane Remix);
#ARTIST:DJ Amane;
#TITLETRANSLIT:;
#SUBTITLETRANSLIT:;
#ARTISTTRANSLIT:;
#GENRE:;
#CREDIT:;
#BANNER:UNLIMITED FIRE (DJ Amane Remix)-bn.png;
#BACKGROUND:UNLIMITED FIRE (DJ Amane Remix)-bg.png;
#LYRICSPATH:;
#CDTITLE:;
#MUSIC:UNLIMITED FIRE (DJ Amane Remix).ogg;
#OFFSET:1.258000;
#SAMPLESTART:24.871000;
#SAMPLELENGTH:20.000000;
#LASTBEATHINT:0.666500;
#SELECTABLE:YES;
#DISPLAYBPM:155.000000;
#BPMS:0.000000=155.000000
;
#STOPS:
;
#BGCHANGES:;
#KEYSOUNDS:;
#ATTACKS:;

//---------------dance-single - ----------------
#NOTES:
     dance-single:
     :
     Hard:
     15:
     0.663008,0.810711,0.176882,0.067384,0.964430,551.000000,530.000000,21.000000,8.000000,0.000000,0.000000,0.663008,0.810711,0.176882,0.067384,0.964430,551.000000,530.000000,21.000000,8.000000,0.000000,0.000000:
// measure 0
0000
0000
0000
0000
,  // measure 1
0000
0000
0000
0000
,  // measure 2
0000
0000
0000
0000
,  // measure 3
0000
0000
0000
0000
,  // measure 4
0000
0000
0000
0000
,  // measure 5
1000
0000
0010
0000
0100
0000
0001
0010
0000
0000
0000
0000
0000
0100
0000
0100
,  // measure 6
1000
0000
0010
0000
0100
0000
0001
1000
0000
0000
0000
0000
0000
0001
0000
0001
,  // measure 7
0100
0000
0010
0000
0000
1000
0000
1000
0100
0000
0010
0000
0000
0001
0000
0001
,  // measure 8
1000
0000
0010
0000
1000
0000
0001
0100
0000
0000
0110
0000
0000
0010
0000
0010
,  // measure 9
0100
0000
0010
0000
1000
0000
0001
0010
0000
0000
0000
0000
0000
0100
0000
0100
,  // measure 10
1000
0000
0010
0000
0100
0000
0010
1000
0000
0000
0000
0000
0000
0001
0000
0001
,  // measure 11
1000
0000
0010
0000
0000
0100
0000
0100
0001
0000
0010
0000
0000
0100
0000
0100
,  // measure 12
1000
0001
1000
0000
0100
0000
0010
0000
0010
0000
0000
0010
0000
0000
0010
0000
,  // measure 13
0001
0000
0010
0000
0100
0000
1000
0001
1000
0000
0000
0000
0010
0100
0000
0100
,  // measure 14
0001
0000
0010
0000
0100
0000
1000
0001
1000
0000
0000
0000
0010
1000
0000
1000
,  // measure 15
0001
0000
0010
0000
1000
0000
0010
0000
0001
0100
1000
0100
0001
0000
0010
0000
,  // measure 16
0100
0000
1000
0000
0001
0000
1000
0010
0000
0100
0001
0000
1000
0000
0010
0100
,  // measure 17
0001
0000
1000
0100
0000
0100
0000
0100
0000
1000
0000
0010
0100
0000
0001
0000
,  // measure 18
1000
0000
0001
0010
0000
0010
0000
0100
0000
0100
0000
1000
0001
0000
0100
0000
,  // measure 19
0001
0000
0010
0100
0000
0100
0000
1000
0000
0001
0000
1000
0001
0000
0100
0000
,  // measure 20
0010
0000
1000
0001
0000
0010
0000
0100
0000
0100
0000
0100
1000
0000
0001
0000
,  // measure 21
0010
0000
0001
0100
0000
0001
0000
1000
0000
1000
0000
0001
0010
0000
0100
0000
,  // measure 22
1000
0000
0010
0100
0000
0100
0000
0001
0000
0010
0000
0100
1000
0000
0001
0000
,  // measure 23
0100
0000
0010
1000
0000
0001
0000
0010
0000
0001
0000
1000
0010
0000
0100
0000
,  // measure 24
0010
0000
0100
0001
0000
0001
0000
1000
0000
1000
0000
0001
0010
0000
0100
0000
,  // measure 25
1100
0000
1000
0010
0000
0100
0000
0001
0000
1000
0000
0001
0010
0000
0100
0000
,  // measure 26
0110
0000
0100
0010
0000
0010
0000
0001
0000
1000
0000
0100
1000
0000
0001
0000
,  // measure 27
0011
0000
0010
0001
0000
0001
0000
1000
0000
0010
0000
1000
0100
0000
0100
0000
,  // measure 28
1001
0000
0010
0100
0000
0010
0000
1000
0000
1000
0000
0001
0100
0000
0001
0000
,  // measure 29
0101
0000
0100
0010
0000
0010
0000
1000
0000
0001
0000
0010
0100
0000
1000
0000
,  // measure 30
1010
0000
0010
1000
0000
1000
0000
0001
0000
0010
0000
0100
1000
0000
0001
0000
,  // measure 31
0110
0000
0010
1000
0000
1000
0000
0100
0000
0010
0000
0010
0001
0000
0100
0000
,  // measure 32
0101
0000
1000
0001
0000
0001
0000
0010
0000
0010
0000
0010
0100
0000
1000
0000
,  // measure 33
2002
0000
0000
0000
,  // measure 34
0000
0000
0000
0000
,  // measure 35
0000
0000
0000
0000
,  // measure 36
0000
0000
0000
3003
,  // measure 37
0002
0000
0000
0000
,  // measure 38
0023
0000
0000
0000
,  // measure 39
0230
0000
0000
0000
,  // measure 40
1300
0001
1000
0010
0000
0100
0000
0001
,  // measure 41
0010
0000
0000
0001
0000
0000
1000
0000
0000
0010
0000
0000
0100
0000
0001
0000
,  // measure 42
1000
0000
0000
0100
0000
0000
1000
0000
0000
0001
0000
0000
0100
0000
0010
0000
,  // measure 43
1000
0000
0000
0100
0000
0000
0010
0000
0000
0001
0000
0000
0100
0000
0010
0000
,  // measure 44
1000
0001
0010
0100
0000
1000
0000
0010
,  // measure 45
1000
0000
0000
0001
0000
0000
0010
0000
0000
0010
0000
0000
0100
0000
1000
0000
,  // measure 46
0010
0000
0000
0100
0000
0000
0001
0000
0000
0001
0000
0000
1000
0000
0010
0000
,  // measure 47
0100
0000
0000
0001
0000
0000
0010
0000
0000
0010
0000
0000
0001
0000
1000
0000
,  // measure 48
0020
0000
0000
0000
0000
0000
0000
0000
0130
0000
0000
0000
0000
0001
0000
0001
,  // measure 49
1000
0000
0010
0000
0100
0000
0001
1000
0000
0000
0000
0000
0000
0100
0000
0100
,  // measure 50
1000
0000
0010
0000
0100
0000
0010
1000
0000
0000
0000
0000
0000
0001
0000
0001
,  // measure 51
0100
0000
0010
0000
1000
0000
0100
0010
0000
0000
0000
0000
0000
0001
0000
0001
,  // measure 52
1000
0000
0010
0000
1000
0000
0100
0010
0000
0000
0000
0000
0000
0001
0000
0001
,  // measure 53
1000
0000
0010
0000
0100
0001
0000
0001
0100
0000
0010
0000
1000
0100
0000
0100
,  // measure 54
1000
0000
0010
0000
1000
0001
0000
0001
1000
0000
0010
0000
0100
0010
0000
0010
,  // measure 55
1000
0000
0100
0010
0001
0000
1000
0010
1000
0001
0010
0100
1000
0010
0100
0001
,  // measure 56
0010
0000
0000
0010
0000
0000
0010
0000
0000
0010
0000
0000
0010
0000
0010
0000
,  // measure 57
0010
0000
0000
0000
1001
0110
0000
0000
,  // measure 58
1001
0000
0100
0010
0000
0010
0000
0010
0000
0010
0000
0010
1000
0000
0100
0000
,  // measure 59
1000
0000
0001
0100
0000
0110
0000
0110
0000
0110
0000
0010
1000
0000
0001
0000
,  // measure 60
0011
0000
0100
1000
0000
0010
0000
1000
0000
0001
0000
1000
0100
0000
0010
0000
,  // measure 61
0001
0000
1000
0001
0000
0100
0000
0010
0000
0010
0000
0010
1000
0000
0001
0000
,  // measure 62
0100
0000
0001
0010
0000
0100
0000
1000
0000
1000
0000
0001
1000
0000
0100
0000
,  // measure 63
0010
0000
0001
1000
0000
0010
0000
0100
0000
0100
0000
0010
1000
0000
0001
0000
,  // measure 64
0010
0000
0100
1000
0000
1000
0000
1000
0000
0001
0000
1000
0010
0000
0100
0000
,  // measure 65
0001
0000
0010
0001
0000
1000
0000
1000
0000
0010
0000
1000
0001
0000
0010
0100
,  // measure 66
1000
0000
0010
0000
0100
0000
0001
1000
0000
0100
0000
0100
1000
0000
0001
0100
,  // measure 67
0001
0000
0010
0000
0100
0000
1000
0001
0000
0001
0000
1000
0010
0000
0100
0001
,  // measure 68
1000
0000
0010
0000
0100
0001
0000
1000
0100
0000
0010
0000
0001
1000
0000
0001
,  // measure 69
0100
0001
1000
0000
0001
0000
0100
0000
0010
1000
0000
0010
1000
0000
0010
0000
,  // measure 70
0100
0000
0010
0000
0100
0000
0001
1000
0000
0100
0000
0100
0010
0000
0001
1000
,  // measure 71
0001
0000
0010
0000
0100
0000
1000
0010
0000
0010
0000
0100
0001
0000
1000
0100
,  // measure 72
1000
0000
0010
0000
0100
0001
0000
0001
1000
0000
0010
1000
0100
0000
0010
0000
,  // measure 73
0001
0000
0010
0000
0100
0000
1000
0001
0000
0001
0000
0001
0100
0000
0010
0000
,  // measure 74
1010
0000
0001
0000
1000
0000
1100
0000
0010
0001
0100
0000
0110
0000
2002
0000
,  // measure 75
0000
0000
0000
0000
,  // measure 76
0000
0000
0000
0000
,  // measure 77
3003
0000
0000
0000
;
