#VERSION:0.83;
#TITLE:THE LYCANTHROPE;
#SUBTITLE:;
#ARTIST:L.E.D.;
#TITLETRANSLIT:;
#SUBTITLETRANSLIT:;
#ARTISTTRANSLIT:;
#GENRE:;
#ORIGIN:;
#TAGS:;
#CREDIT:;
#BANNER:THE LYCANTHROPE-bn.png;
#BACKGROUND:THE LYCANTHROPE-bg.png;
#PREVIEWVID:;
#JACKET:THE LYCANTHROPE-jacket.png;
#CDIMAGE:;
#DISCIMAGE:;
#LYRICSPATH:;
#CDTITLE:;
#MUSIC:THE LYCANTHROPE.ogg;
#OFFSET:0.000000;
#SAMPLESTART:75.871002;
#SAMPLELENGTH:20.000000;
#SELECTABLE:YES;
#DISPLAYBPM:155.000000;
#BPMS:0.000000=155.000000;
#STOPS:;
#DELAYS:;
#WARPS:;
#TIMESIGNATURES:0.000000=4=4;
#TICKCOUNTS:0.000000=4;
#COMBOS:0.000000=1;
#SPEEDS:0.000000=1.000000=0.000000=0;
#SCROLLS:0.000000=1.000000;
#FAKES:;
#LABELS:0.000000=Song Start;
#BGCHANGES:;
#KEYSOUNDS:;
#ATTACKS:
;

//---------------dance-single - ----------------
#NOTEDATA:;
#CHARTNAME:;
#CHARTHASH:0:
#STEPSTYPE:dance-single;
#BANNER:;
#DESCRIPTION:;
#CHARTSTYLE:;
#DIFFICULTY:Hard;
#METER:15;
#METERF:0.000000;
#RADARVALUES:0.771980,0.817727,0.362163,0.171551,0.771980,567.000000,529.000000,38.000000,18.000000,0.000000,0.000000,0.000000,0.000000,0.000000,0.771980,0.817727,0.362163,0.171551,0.771980,567.000000,529.000000,38.000000,18.000000,0.000000,0.000000,0.000000,0.000000,0.000000;
#CREDIT:;
#DISPLAYBPM:155.000000;
#NOTES:
// measure 0
0000
0000
0000
0000
,  // measure 1
0000
0000
0000
0000
,  // measure 2
0000
0000
0000
0000
,  // measure 3
1000
1000
0000
0000
0000
0000
0000
0000
,  // measure 4
0000
0000
0000
0000
1000
1000
1000
1000
,  // measure 5
0010
1000
0100
0001
0100
1000
0001
0010
,  // measure 6
0100
1000
0010
0001
1000
0010
0001
0100
,  // measure 7
1000
0000
1000
0000
0001
0000
0001
0000
0011
0000
0000
0011
0000
0000
0011
0000
,  // measure 8
1100
0000
0000
1100
0000
0000
1100
0000
1000
0010
1000
0010
0100
0001
0100
0001
,  // measure 9
0010
1000
0100
0010
0001
0100
0001
1000
,  // measure 10
0100
0000
0010
0001
0000
0001
1000
0000
0010
0000
0010
0000
0100
0000
0001
0000
,  // measure 11
0100
0000
0010
1000
0000
1000
0001
0000
0020
0000
0000
0230
0000
0000
1300
0000
,  // measure 12
1010
0000
0000
1010
0000
0000
1010
0000
0001
0000
1000
0100
0000
1000
0100
0000
,  // measure 13
0010
0000
0001
0000
0100
0000
0001
0000
1000
0000
0100
0010
0000
0010
0001
0000
,  // measure 14
0100
0000
0010
1000
0000
1000
0010
0000
0100
0000
0001
0000
1000
0000
0001
0000
,  // measure 15
0010
0000
0100
1000
0000
1000
0010
0000
0200
0000
0000
0302
0000
0000
0013
0000
,  // measure 16
1001
0000
0000
1001
0000
0000
1001
0000
0110
0000
0000
0110
0000
0000
0110
0000
,  // measure 17
1000
0000
0000
0010
0100
0000
0001
0000
0001
0000
0000
1000
0100
0000
0010
0000
,  // measure 18
0010
0000
0001
1000
0000
0010
0100
0000
0001
0000
0001
0000
1000
0100
0000
1000
,  // measure 19
0010
0000
1000
0100
0000
0100
0010
0000
0001
0000
1000
0001
0000
0001
1000
0000
,  // measure 20
0101
0000
0000
0101
0000
0000
0101
0000
0001
0010
0001
0000
1000
0010
1000
0000
,  // measure 21
0001
0000
0000
0010
0100
0000
1000
0000
1000
0000
0000
0010
0001
0000
0100
0000
,  // measure 22
0100
0000
0010
1000
0000
1000
0010
0000
0100
0000
0001
0000
0010
0001
0000
0100
,  // measure 23
0001
0000
0000
1000
0001
0000
0100
0000
0010
0000
1000
0100
0000
1000
0010
0000
,  // measure 24
0110
0000
0000
0110
0000
0000
0110
0000
1000
0100
1000
0000
0001
0100
0001
0000
,  // measure 25
0010
0000
0001
1000
0000
1000
0100
0000
0002
0000
0000
2003
0000
0000
3010
0100
,  // measure 26
0010
0000
2000
0000
0000
3001
0000
0000
0011
0000
0000
0110
0000
0000
1000
0001
,  // measure 27
0100
0000
0010
1000
0000
1000
0001
0000
0020
0000
0000
0032
0000
0000
0103
0000
,  // measure 28
1000
0000
2100
0000
0000
0001
0000
0000
0010
0000
0000
0001
0000
0000
3100
0010
,  // measure 29
0001
0000
1000
0010
0000
1000
0001
0000
0020
0000
0000
0230
0000
0000
1300
0000
,  // measure 30
0001
0000
0101
0000
0000
1100
0000
0000
0101
0000
0000
1100
0000
0000
1000
0100
,  // measure 31
0010
0000
0001
1000
0000
0100
0010
0000
0002
0000
0000
0203
0000
0000
0310
0000
,  // measure 32
1000
0000
1000
0000
0001
0000
0001
0000
0100
0010
0100
0010
0100
0010
0000
0000
,  // measure 33
1000
0000
0100
0010
0000
0010
0001
0000
1001
0000
0000
1001
0000
0000
1000
0001
,  // measure 34
0000
0000
0010
0000
0010
0001
0000
0001
1000
0000
1000
0100
0000
0000
1000
0001
,  // measure 35
0100
0000
0010
1000
0000
1000
0001
0000
0101
0000
0000
0101
0000
0000
0100
0010
,  // measure 36
0000
0000
1000
0100
0000
0010
0001
0000
0100
0001
0100
0000
0010
1000
0010
0000
,  // measure 37
0100
0000
0001
0010
0000
0010
0100
0000
1100
0000
0000
1100
0000
0000
1000
0001
,  // measure 38
0000
0000
0100
0000
0100
0001
0000
0001
0010
0000
0010
0100
0000
0000
1000
0001
,  // measure 39
0100
0100
0010
0010
1000
1000
0001
0001
,  // measure 40
0010
0001
0010
0000
0001
0100
0001
0000
1000
0010
1000
0000
0100
1000
0100
0000
,  // measure 41
0210
1000
0010
1000
,  // measure 42
0001
0010
0001
1300
,  // measure 43
1020
0100
0001
0100
,  // measure 44
1000
0001
1000
0130
,  // measure 45
0010
1000
0100
0001
1000
0010
0001
0100
,  // measure 46
0010
0100
1000
0001
0010
1000
0100
0001
,  // measure 47
0010
0100
1000
0100
0001
1000
0001
0010
,  // measure 48
1000
0100
0010
0001
0010
1000
0100
0001
,  // measure 49
1000
0000
0010
0100
0001
0100
0000
0010
0000
0010
0000
0010
0000
0000
1000
0001
,  // measure 50
1000
0000
0001
0010
0100
0000
1000
0000
0001
0000
0100
0010
0000
0010
1000
0000
,  // measure 51
0100
0000
0010
0001
0100
0000
1000
0010
0000
1000
0001
0000
0001
0000
0100
0000
,  // measure 52
0010
0000
1000
0000
0010
0000
0100
0000
0001
0010
0001
0010
0100
1000
0001
1000
,  // measure 53
0010
0000
0100
0000
0001
0000
0010
0000
0100
1000
0000
1000
0000
0000
0001
1000
,  // measure 54
0000
0010
0000
1001
0000
0000
0100
0001
0010
0001
1000
0000
0100
1000
0010
0000
,  // measure 55
0100
0000
0001
0000
0010
0000
0001
0000
1000
0000
0100
0000
1000
0001
0010
0100
,  // measure 56
0010
0000
0001
0000
0100
0000
0010
0000
1000
0000
0100
0000
1000
0001
1000
0001
,  // measure 57
0010
0000
0001
0100
0010
1000
0000
0100
0000
0100
0000
0100
0000
0000
1000
0001
,  // measure 58
0010
0000
0001
1000
0000
1000
0001
0000
0100
0000
0010
1000
0000
0001
0000
0011
,  // measure 59
0000
1000
0000
1000
0000
0001
0100
0010
0000
1000
0000
0010
0000
0000
0100
0001
,  // measure 60
0000
0000
0010
0001
0000
0001
1000
0000
0010
0100
0010
0100
0001
1000
0100
1000
,  // measure 61
0001
0001
0100
0100
0010
0010
1000
1000
,  // measure 62
0100
0100
0010
0010
0001
0001
1000
1000
,  // measure 63
0001
0010
0001
0000
1000
0010
1000
0000
0001
0100
0001
0000
1000
0100
1000
0000
,  // measure 64
0010
0100
0001
0000
0010
0100
1000
0000
0001
1000
0100
0000
1000
0010
0100
0002
,  // measure 65
0020
0000
0000
0000
,  // measure 66
0033
0000
0000
0000
;
