#TITLE:Shoot the Moon;
#SUBTITLE:;
#ARTIST:BEMANI Sound Team "TAG";
#TITLETRANSLIT:;
#SUBTITLETRANSLIT:;
#ARTISTTRANSLIT:;
#GENRE:;
#CREDIT:;
#BANNER:Shoot the Moon-bn.png;
#BACKGROUND:Shoot the Moon-bg.png;
#LYRICSPATH:;
#CDTITLE:;
#MUSIC:Shoot the Moon.ogg;
#OFFSET:-0.050000;
#SAMPLESTART:13.963000;
#SAMPLELENGTH:20.000000;
#SELECTABLE:YES;
#DISPLAYBPM:138.000000;
#BPMS:0.000000=138.000000
;
#STOPS:
;
#BGCHANGES:;
#KEYSOUNDS:;
#ATTACKS:;

//---------------dance-single - ----------------
#NOTES:
     dance-single:
     :
     Hard:
     15:
     0.744589,0.771429,0.155844,0.190476,0.818182,602.000000,584.000000,18.000000,22.000000,0.000000,0.000000,0.744589,0.771429,0.155844,0.190476,0.818182,602.000000,584.000000,18.000000,22.000000,0.000000,0.000000:
// measure 0
0000
0000
0000
0000
,  // measure 1
0000
0000
0000
0000
,  // measure 2
0000
0000
0000
0000
,  // measure 3
0000
0000
0000
0000
,  // measure 4
0000
0010
0100
0000
0001
0000
0001
0000
0001
0000
1000
0100
0000
0010
0000
0001
,  // measure 5
0000
0100
0001
0000
1000
0000
1000
0000
1000
0000
0010
1000
0000
0001
0000
0100
,  // measure 6
0000
0001
0010
0000
0100
0000
0100
0000
0100
0000
1000
0010
0000
0100
0000
0001
,  // measure 7
0000
1000
0001
0000
0010
0000
0010
0000
0100
1000
0100
0010
0001
0100
0010
1000
,  // measure 8
0100
0000
0000
1000
0001
0000
0100
0000
0100
0000
0010
1000
0000
1000
0001
0000
,  // measure 9
0010
0000
0000
0001
1000
0010
0100
0000
0001
0000
0000
1000
0100
0010
0001
0000
,  // measure 10
0100
0000
0010
1000
0000
0010
0100
0000
0001
0000
0000
0000
0011
0000
0000
0000
,  // measure 11
1100
0000
0000
1000
0001
1000
0010
0000
0100
0000
0001
1000
0001
0000
0100
0000
,  // measure 12
0010
0000
0100
0001
0000
0001
1000
0010
1000
0000
0001
0100
0001
0100
0010
1000
,  // measure 13
0001
0000
0010
0100
0000
0100
1000
0000
0001
0000
1000
0010
1000
0001
0100
0000
,  // measure 14
0010
0000
0100
0001
0000
1000
0100
0000
0010
0000
0000
0000
1001
0000
0000
0000
,  // measure 15
0110
0000
1000
0010
1000
0000
0001
0010
0001
0000
1000
0010
0100
0001
1000
0001
,  // measure 16
0010
0000
0001
1000
0000
1000
0001
0100
0010
0000
0010
0000
1000
0000
0001
0000
,  // measure 17
0010
0000
0100
1000
0000
1000
0010
0100
0001
0000
0001
0000
1000
0000
0001
0000
,  // measure 18
0100
0000
0001
0010
0000
0010
0100
1000
0001
0000
0001
0000
0100
0000
0010
0000
,  // measure 19
1000
0000
0001
0100
0001
0000
1000
0100
1000
0000
0001
0100
0001
0000
0000
0000
,  // measure 20
1010
0000
0100
0001
0000
0100
0010
1000
0001
0000
0001
0000
1000
0000
0100
0000
,  // measure 21
0010
0000
0001
1000
0000
0001
1000
0100
0010
0000
0010
0000
0001
0000
0100
0000
,  // measure 22
0010
0000
1000
0001
0000
0100
0010
0100
0001
0000
0001
0000
1000
0000
0100
0000
,  // measure 23
1000
0001
1000
0001
0100
0000
0010
1000
0010
0100
0010
0100
0001
0100
0001
1000
,  // measure 24
0200
0000
0000
0010
0000
0000
0010
0000
0310
0000
0000
0000
0000
0000
0110
0000
,  // measure 25
0000
0001
1000
0000
0020
0000
2030
0000
,  // measure 26
3002
0000
0100
0100
0103
0000
0010
0102
,  // measure 27
0000
0000
1000
0000
1003
0000
0000
0000
0020
0000
0000
0000
1030
0100
0010
0001
,  // measure 28
0200
0000
0000
0010
0000
0000
0010
0000
0310
0000
0000
0000
1000
0000
2010
0000
,  // measure 29
0000
0000
0001
0000
0001
0000
0001
0000
3002
0000
0000
2003
0000
0000
3200
0000
,  // measure 30
0320
0000
0000
0001
0000
0000
0001
0000
0031
0000
0000
0000
1000
0000
0101
0000
,  // measure 31
0000
0010
0010
0000
2000
0000
3200
0000
,  // measure 32
0310
0000
0001
0100
0001
0000
0100
0001
0100
0000
0001
0100
0001
0000
0100
0001
,  // measure 33
0100
0000
0010
1000
0010
0000
0000
0000
2000
0000
0000
0000
3002
0000
0000
0000
,  // measure 34
0013
0000
0001
1000
0001
0000
1000
0001
1000
0000
0001
1000
0001
0000
1100
0000
,  // measure 35
0000
0000
1000
0010
0000
0100
0001
0000
0020
0000
0000
0000
0130
1000
0001
0100
,  // measure 36
0010
0000
1000
0000
0010
0100
0000
0001
0100
0000
0001
1000
0010
0000
0100
0002
,  // measure 37
1000
0000
1000
0000
0100
0000
1000
0000
1003
0000
0010
0100
0000
0010
0100
0000
,  // measure 38
0001
0000
0010
0000
0001
0100
0010
1000
0001
0000
1000
0100
1000
0000
0010
0000
,  // measure 39
0100
0000
0001
0000
0010
0000
1000
0000
0100
0000
1000
0001
0100
0000
0010
0000
,  // measure 40
1000
0000
0100
0000
0001
0000
0010
0001
0100
0000
0010
0000
1000
0000
0001
0100
,  // measure 41
0010
0000
1000
0000
0100
0000
0010
0000
0001
0000
0100
0010
0000
0010
1000
0001
,  // measure 42
0100
0000
0010
0000
0100
0000
0001
0010
1000
0000
0100
0000
0010
0000
0001
0000
,  // measure 43
0100
0000
0010
0000
1000
0000
0001
0010
0001
0000
0100
0010
1000
0000
1000
0000
,  // measure 44
1000
0000
0001
0100
0001
0000
0010
0100
1000
0000
0001
0100
0010
0000
0100
0001
,  // measure 45
1000
0000
0010
0000
1000
0000
0001
0010
1000
0000
0100
0000
0010
0000
0001
0000
,  // measure 46
0100
0000
0010
0000
0100
0000
0001
1000
0100
0000
0010
0000
0001
0000
0100
0000
,  // measure 47
0100
0010
1000
0001
0010
0000
0100
1000
0000
0001
0100
0000
1001
0000
0010
0100
,  // measure 48
0001
0000
0010
0100
1000
0000
0001
0000
0001
0000
0100
0000
0010
1000
0010
1000
,  // measure 49
0100
0000
0010
0001
0000
0001
0010
0100
1000
0000
0010
0100
0010
1000
0100
0010
,  // measure 50
0001
0000
0100
0010
0000
0010
1000
0001
0100
0000
0010
0000
0110
0000
0000
0000
,  // measure 51
1010
0000
0001
1000
0000
0001
0100
0010
1000
0000
0100
0010
0001
0000
1000
0010
,  // measure 52
0100
0000
0001
1000
0000
0001
0010
0100
1000
0000
0010
0100
0010
0100
0001
1000
,  // measure 53
0100
0000
0010
0001
0000
1000
0001
0100
0010
0000
1000
0001
0010
0100
1000
0000
,  // measure 54
0010
0000
1000
0001
0000
0001
0010
0100
1000
0000
0010
0000
0101
0000
0000
0000
,  // measure 55
1100
0000
0010
0001
0100
0000
0010
1000
0100
0010
0100
1000
0010
0100
0001
1000
,  // measure 56
0010
0000
0100
0001
0000
0010
0100
1000
0000
0000
0001
0000
0001
0000
1000
0000
,  // measure 57
0010
0000
0100
0001
0000
0010
0000
0100
1000
0000
0100
0000
0100
0000
0010
0000
,  // measure 58
0001
0000
0100
0010
0000
0100
0000
0001
1000
0100
0010
0000
0001
0000
0001
0000
,  // measure 59
1000
0000
0010
0100
0001
0000
0010
0100
1000
0000
0001
0100
0000
0001
1000
0000
,  // measure 60
0011
0000
0001
0100
1000
0000
0000
0000
0010
0000
0100
0001
0000
0100
0001
0000
,  // measure 61
1000
0100
0010
0001
0000
0100
0010
0000
1000
0000
0001
0100
0000
0010
1000
0000
,  // measure 62
0100
0000
1000
0001
0000
0000
0100
0000
0110
0000
0010
0000
1010
0000
0010
0000
,  // measure 63
1000
0001
0010
0100
0000
1000
0001
1000
0000
0010
0100
0001
1000
0010
0100
0002
,  // measure 64
2000
0003
0002
3000
,  // measure 65
0200
0000
0000
0000
,  // measure 66
0303
0000
0000
0000
;
