#TITLE:STEP INTO THE NEW WORLD;
#ARTIST:L.E.D.-G vs. GUHROOVY fw. NO+CHIN;
#BANNER:STEP INTO THE NEW WORLD-bn.png;
#BACKGROUND:STEP INTO THE NEW WORLD-bg.png;
#JACKET:STEP INTO THE NEW WORLD-jacket.png;
#MUSIC:STEP INTO THE NEW WORLD.ogg;
#SAMPLESTART:70.6;
#SAMPLELENGTH:20;
#DISPLAYBPM:169:179;
#BPMS:0=169.962,68=169,72=171,84=169.5,120=170,152=169.962,164=171,184=170,200=171,228=172,240=173,248=172,252=175,256=173,264=178,276=177,280=177.25,284=176.875,292=178,316=179,336=177.778;
#BGCHANGES:;

//---------------dance-single - ----------------
#NOTES:
     dance-single:
     :
     Hard:
     15:
     :
0000
0000
0000
0000
,
0000
0000
0000
0000
,
1001
0000
0000
0100
0000
0010
1000
0000
0000
0100
0000
0010
,
0001
0000
0000
0100
0000
0001
1000
0000
0000
0010
0000
0100
,
0001
0000
0000
1000
0000
0100
0010
0000
0000
0001
0000
1000
,
0001
0000
0100
0001
0000
0100
0000
0000
0010
1000
0000
0010
,
1000
0000
0000
0001
0000
1000
0100
0000
0000
0010
0000
0001
,
0100
0000
0010
0100
0000
0010
0000
0000
1000
0001
0000
1000
,
0001
0000
0010
0001
0000
0010
0100
0000
1000
0100
0000
1000
,
0010
0000
0000
0000
0100
0000
0001
0000
0000
0000
1000
0000
0100
0000
0000
0000
0000
0000
0110
0000
0000
0001
0000
0000
,
1000
0000
0010
0100
0010
0000
1000
0000
0001
0000
0010
0000
0100
0000
1000
0001
,
1000
0000
0010
0100
0010
0000
1000
0000
0000
0000
0001
0000
0100
0000
0001
0000
,
0010
0000
0100
1000
0100
0000
0010
0000
0001
0000
1000
0010
1000
0000
0001
0000
,
0100
0000
1000
0000
0100
0000
0001
0000
0100
0000
0010
1000
0010
0000
1000
0001
,
1000
0000
0100
0000
0010
0000
0001
0000
0100
0000
0010
0000
0100
0000
0001
1000
,
0001
0000
0010
0100
0010
0000
0001
0000
1000
0000
0100
0000
0010
0000
0001
0100
,
0001
0000
1000
0100
1000
0000
0001
0000
0000
0000
0010
0000
0100
0000
1000
0000
,
0002
0200
0000
0000
0000
0303
0010
1000
,
0100
0010
0001
1000
0000
1010
0001
0100
,
0010
0100
0001
1000
0000
0101
0010
1000
,
0100
0010
0011
0000
1000
1100
0000
0001
,
0100
0000
0010
0000
0100
0000
1000
0000
0100
0000
0001
0000
0010
0100
0000
1000
,
0001
0000
0010
0000
0001
0000
2000
0000
0000
0000
3010
0100
0010
0000
1000
0000
,
0100
0000
0001
0000
0100
0000
0020
0000
0000
0000
0031
1000
0001
0000
0100
0000
,
0010
0000
1000
0000
0100
0000
0001
0000
0100
0000
1000
0010
1000
0000
0001
0010
,
0001
0000
0100
0000
0010
0000
1000
0000
0000
0000
0001
0000
0010
0000
0001
0100
,
0010
0000
0000
0000
0110
0000
1000
0000
0100
0000
0010
0001
1000
0000
0010
0000
,
0100
0100
0100
0100
0000
0001
0010
1000
,
0100
0000
0000
0000
0011
0000
0001
0000
0100
0000
0010
0000
1000
0000
0100
0010
,
0001
0000
1000
0000
0010
0000
1100
0000
0000
0000
0001
0000
0010
0001
0000
1000
,
0100
0000
0000
0000
1010
0000
0001
1000
0100
0000
0010
0001
0100
0000
0010
0000
,
1000
0000
1000
0000
1000
0000
0100
0000
0001
0000
0001
0000
0001
0000
0010
0001
,
0100
0000
0000
0000
0101
0000
0010
0000
1000
0000
0100
0000
1000
0000
0001
0010
,
0100
0000
1000
0000
0001
0000
0100
0000
0000
0000
1001
0000
0010
0000
1000
0001
,
0100
0000
0010
0000
1000
0000
0010
0000
0001
0000
0010
0000
1000
0000
0100
0010
,
0001
0000
0100
0000
0010
0000
1000
0001
0100
0000
0010
0000
1000
0000
0100
0010
,
0001
0000
0010
0000
0001
0000
0100
0000
1000
0000
0100
0000
0001
0010
0001
1000
,
0010
0000
0100
0000
0001
0000
1000
0100
1000
0000
0010
0000
0100
0001
0000
0001
,
1000
0000
0000
0000
0010
0000
0100
0000
0001
0000
1000
0000
0100
0000
0010
0001
,
1000
0000
0000
0000
0001
0000
0100
0010
1000
0010
0100
0000
0001
0000
0010
0100
,
1000
0000
0001
0000
0100
0000
0010
0000
1000
0010
1000
0010
0100
0000
0001
1000
,
0002
0000
0000
0000
0000
0000
0000
0000
0000
0000
0000
0000
0003
0000
0010
0001
,
1000
0000
0010
0000
0100
0000
1000
0000
0100
0000
0001
0000
0010
0100
1000
0001
,
0100
0000
0010
0000
1000
0000
0001
0000
0100
0010
0100
0000
0001
0000
1000
0100
,
1000
0000
0001
0000
0010
0000
0100
0010
0001
0000
1000
0000
0010
0000
0000
0000
,
0100
0000
0001
0000
0100
0000
0010
0000
1000
0000
0100
0000
0010
0000
0001
1000
,
0001
0000
0100
0000
0010
0000
0100
0000
1000
0000
0100
0000
0001
0010
0000
0001
,
1000
0000
0010
0000
0100
0000
0000
0001
1000
0001
0100
0000
0010
0000
1000
0100
,
0010
0000
0001
0000
0100
0000
0010
0000
1000
0100
1000
0100
1000
0000
0001
0100
,
0020
1000
0001
0130
,
0001
0001
0001
0001
1000
0010
0100
0100
,
0000
0110
0000
0010
1000
1000
1000
0001
,
0010
0010
0010
0010
0000
0011
0000
1100
,
0000
0101
0000
1000
0010
0010
0010
0000
,
1000
1000
1000
0100
1000
0001
0100
0100
,
0000
1010
0000
0001
1000
1000
1000
0100
,
0010
0010
0010
0001
1000
0010
1000
0001
,
0000
1001
0000
0100
0010
0010
0010
0000
,
1000
1000
1000
1000
1000
0010
0001
0001
,
0000
1100
0000
0010
0100
0100
0100
1000
,
0001
0001
0001
0100
0010
0010
0000
1010
,
0000
1100
0000
0001
1000
1000
1000
0000
,
0001
0001
0001
0010
0100
1000
0010
0010
,
0000
0101
0000
1000
0001
0001
0001
0000
,
0010
0001
0010
0100
1000
1001
0000
0110
,
0001
0000
1000
0000
0100
0000
1000
0000
0010
0000
0100
0000
0001
0000
1000
0001
,
0200
0000
0000
0000
,
0000
0000
0000
0000
,
0000
0000
0000
0000
,
0310
0000
0000
0000
0000
0000
0000
0000
1000
0001
0100
0010
1000
0001
0100
0010
,
1000
0000
0000
0000
0110
0000
0001
0000
0100
0000
0010
0000
1000
0000
0100
0010
,
0001
0000
1000
0100
1000
0000
0010
0000
0100
0000
0001
0000
0010
0000
0001
1000
,
0001
0000
0000
0000
1010
0000
0001
0000
0010
0100
0010
0000
0001
0000
1000
0100
,
1000
0000
0001
1100
0000
0001
0001
1000
,
0001
0000
0010
0000
0100
0000
0010
0000
0001
1000
0010
0000
0100
0000
0010
1000
,
0001
0000
0100
0000
0010
0000
1000
0000
0100
0010
0001
0000
1000
0001
1000
0010
,
0100
0000
0000
0000
1001
0000
0010
0000
1000
0000
0100
0000
0010
0000
0001
1000
,
0001
0000
0010
0000
0010
0000
0010
0000
0010
0001
1000
0001
0200
0000
0320
0000
,
1030
0000
0100
0000
0001
0000
0000
0000
0010
0001
0010
0100
1000
0000
0000
0000
,
1100
0000
0001
0000
0000
0000
0101
0000
1000
0000
0000
0000
0010
0000
0100
0001
,
1000
0000
0010
0000
0100
0000
0000
0000
0001
0010
0100
1000
0001
0000
0000
0000
,
0101
0000
0010
0000
0000
0000
1010
0000
0100
0000
0001
0000
1000
0000
0001
0100
,
0010
0000
0000
0000
1000
0000
0100
0010
0001
0000
0100
0000
0010
0000
1000
0001
,
0100
0000
0110
0000
0000
0000
1001
0000
1000
0000
0010
0000
0100
0001
0100
0001
,
1000
0000
0000
0000
0010
0000
0100
0000
0001
0010
0100
0010
0001
0000
1000
0000
,
0010
1000
0001
1000
0020
0000
0230
0000
0301
0010
0001
0010
0100
1000
0100
1000
,
0020
0000
0000
0000
,
0000
0000
0000
0030
,
0000
0000
0000
0000
,
0000
0000
0000
0000
0000
0001
0000
0001
0000
0000
0000
0000
;

//---------------dance-single - ----------------
#NOTES:
     dance-single:
     :
     Challenge:
     17:
     :
0000
0000
0000
0000
,
0000
0000
0000
0000
,
1001
0000
0000
0010
0000
0100
0001
0000
0100
0001
0000
0100
,
0010
0000
1000
0010
0000
0100
0000
0000
0001
0010
0000
0100
,
1000
0000
0001
0100
0000
0001
0100
0000
0010
1000
0000
0010
,
0100
0000
0001
1000
0000
0001
0000
0000
0100
0010
0000
0100
,
0010
0000
0000
1000
0000
0001
1000
0000
0001
1000
0000
0100
,
0010
0000
0001
0100
0000
0001
0000
0000
1000
0100
0000
1000
,
0001
0000
0010
0001
0000
0010
0001
0000
0100
0010
0000
0000
,
1000
0000
0000
0000
0100
0000
1000
0000
0000
0000
0001
0000
0000
0000
0000
0000
0000
0000
0110
0000
0000
0001
0000
0000
,
1000
0000
0001
0100
0001
0000
0010
0000
0100
0000
1000
0010
1000
0000
0001
0000
,
0100
0000
0010
1000
0010
0000
0100
0000
0000
0000
0001
1000
0001
0000
0100
0000
,
0010
0000
1000
0100
1000
0000
0001
0000
0010
0000
0001
0100
0001
0000
1000
0000
,
0100
0000
0010
0001
0010
0000
0100
0000
0000
0000
1000
0010
1000
0000
0001
0100
,
0001
0000
0010
0001
0010
0000
0100
0000
1000
0000
0001
0100
0001
0000
1000
0000
,
0010
0000
1000
0001
1000
0000
0100
0010
0100
0000
1000
0010
1000
0000
0001
0000
,
0100
0000
0001
0010
0001
0000
1000
0000
0000
0000
0010
0100
0010
0000
1000
0000
,
0002
0200
0000
0000
0000
0303
0010
1000
,
0100
0000
0010
0000
0001
0000
1000
0000
0000
0000
0010
1000
0001
0000
0100
0000
,
0001
0000
0010
0000
0100
0000
1000
0000
0000
0000
0011
0000
0001
1000
0100
0000
,
0010
0000
0100
0000
1000
0000
0001
0000
0100
0000
1000
0000
0010
0100
0001
1000
,
0100
0000
0100
0000
0100
0000
0100
0000
0000
0000
1000
0000
0010
0100
0000
0100
,
0001
0000
0010
0000
1100
0000
0001
0000
0000
0000
0101
0000
0010
1000
0001
1000
,
0100
0000
0010
0000
0001
0000
0100
0000
0000
0000
1010
0000
1000
0000
0100
0010
,
0001
0000
0100
0000
1000
0000
0001
0000
0100
0000
0010
1000
0001
0000
0100
0010
,
1000
0000
0001
0000
1000
0000
0100
0000
0010
0001
0100
0000
0010
1000
0001
0100
,
0010
0000
1000
0000
1000
0000
0100
1000
0001
0000
0100
0001
0010
0000
0001
1000
,
0010
0000
0100
0000
0110
0000
1000
0000
0001
0000
1010
0000
0100
0010
1000
0001
,
0010
0000
0000
0000
0011
0000
0100
0000
1000
0000
0010
1000
0010
0100
0001
1000
,
0100
0000
0010
0001
0000
0001
1000
0000
0010
1000
0100
0000
1000
0010
0000
0100
,
0001
0000
0010
0000
1001
0000
0100
0000
0010
0000
1000
0100
0010
0001
0010
0100
,
1000
0000
0010
0000
0100
0000
0001
0000
0010
0000
1000
0000
0100
0010
0001
1000
,
0010
0000
0000
1000
0001
0000
0010
0000
0001
0000
0100
0010
1000
0100
0010
0001
,
0100
1000
0100
0010
0100
0101
0001
1100
,
1001
0000
0010
0000
0100
0001
0010
0001
0100
0000
0010
1000
0100
1000
0000
0001
,
0100
0000
0010
0000
1000
0000
0100
0010
0001
0000
1000
0000
1000
0010
0100
0001
,
0010
0000
0001
0100
0010
1000
0000
0100
1000
0000
0010
0100
0001
1000
0000
0001
,
0100
0000
0010
1000
0010
0000
0100
0001
0100
0000
0010
0000
1000
0001
0000
0001
,
0100
0000
0010
1000
0100
0000
0010
0000
0001
0100
0010
1000
0001
0000
1000
0001
,
0010
0000
0100
0000
1000
0000
0010
0100
0001
0000
1000
0000
0110
0000
0001
0100
,
0010
0000
1000
0100
1000
0001
0000
0010
0001
0100
0010
0100
0001
0000
1000
0100
,
0010
0000
0002
0000
0000
0000
1000
0000
2003
0000
0000
0000
3010
0000
0100
0001
,
1000
0000
0010
0000
1000
0100
0000
0001
0010
0000
0100
0000
1000
0001
0010
0001
,
0100
0000
0010
0000
1010
0000
0001
1000
0001
0000
0100
0000
0101
0000
0010
1000
,
0001
0000
0100
0000
0010
0000
1000
0001
1000
0000
0100
0000
0010
0000
0001
0100
,
0010
0000
1000
0000
0100
0010
0001
1000
0010
0000
0100
0000
0001
0010
0001
1000
,
0100
0000
0010
0001
0010
0100
1000
0000
0001
0100
0010
0100
0001
0000
1000
0001
,
0100
0000
0010
0000
1000
0000
0100
0010
0001
0100
0001
0000
1000
0000
0010
0100
,
0001
0000
0010
0100
1000
0000
0001
0000
1000
0010
0100
0001
1000
0000
0000
0000
,
0002
2003
3020
0230
,
0301
0001
0001
0001
1000
0010
0100
0100
,
0010
1100
0000
0010
1000
1000
1000
0001
,
0010
0010
0010
0001
0100
0100
0010
1000
,
0000
0011
0100
0001
1000
1000
1000
0001
,
0100
0100
0100
0100
0010
1000
0001
0001
,
0000
1100
0010
0100
0100
0001
0001
1000
,
0010
1000
0100
0001
0000
0100
1001
0010
,
1000
0000
1000
0000
0000
0000
0001
0000
0010
0000
0100
0000
0100
0000
1000
0001
,
1000
1000
1000
1000
1000
0010
0100
0100
,
0000
0101
0010
1000
1000
0001
0001
0100
,
0001
0001
0001
0010
1000
0100
1000
0001
,
0000
0000
0010
0100
0010
0000
0001
0000
1000
0000
1000
0000
1000
0000
0000
0000
,
0010
0010
0010
0010
0010
0100
0001
0001
,
0000
0000
0010
0001
0010
0000
0100
0000
1000
0000
0001
0100
0001
0000
1000
0000
,
0010
0000
0100
0001
0100
0000
0010
0000
1000
0000
0001
0100
0001
0000
1000
0000
,
0010
0000
0100
0000
1000
0000
0100
0000
0001
0000
1000
0010
1000
0000
0001
0010
,
0002
0000
0000
0000
,
0000
0000
0000
0000
,
0000
0000
0000
0000
,
1003
0000
0000
0000
0000
0000
0000
0000
1000
0001
0010
0100
0010
0001
1000
0100
,
0010
0000
0110
0000
0001
0000
0100
0000
1000
0000
0010
1000
0001
0000
0100
0010
,
1000
0000
0001
1000
0100
0000
0010
0000
0001
0000
0100
0000
0010
0000
1000
0100
,
1000
0000
0001
0000
0010
0000
1000
0000
0100
0010
0001
1000
0001
0000
0100
0010
,
1000
0000
0001
0010
0100
0000
1001
0000
0000
0000
0010
1000
0100
0000
0010
0001
,
0100
0000
0010
0000
0010
0000
1000
0001
0010
0000
0100
0010
0001
0000
1000
0001
,
0100
0000
0010
0000
1000
0000
0001
0000
0010
0001
1000
0000
0001
0010
0100
1000
,
0001
0000
0100
0000
0010
0000
1000
0000
0100
0010
0001
0000
1000
0001
0100
0010
,
1000
0000
0001
0000
0001
0000
0001
0000
0001
0100
0010
0100
0002
0000
2003
0000
,
3010
0000
1000
0000
0100
0000
1000
0000
0010
0100
0001
1000
0100
0000
0010
0001
,
1000
0000
0010
0000
0000
0000
0101
0000
0000
0000
0001
0000
0001
0000
0010
0100
,
1000
0000
0001
0000
0100
0000
0010
0000
0100
0000
1000
0000
0100
0000
0001
0010
,
0100
0000
1000
0000
0000
0000
0011
0000
0000
0000
0100
0000
0010
0000
1000
0001
,
1000
0000
0010
0000
0100
0001
0010
0001
1000
0000
0010
0100
0001
0000
1000
0001
,
0100
0000
0010
0000
1000
0000
1100
0000
0000
0000
0001
0000
0001
0010
0001
1000
,
0100
0000
0010
0000
0001
0000
0100
0000
0010
1000
0001
1000
0010
0000
0100
0000
,
0001
0010
0001
0010
0002
0000
2003
0000
3010
0100
0001
0000
1000
0001
0010
0100
,
2000
0000
0000
0000
,
0000
0000
0000
3000
,
0000
0000
0000
0000
,
0000
0000
0000
0000
0000
0001
0000
0001
0000
0000
0000
0000
;
