#TITLE:Raw Crawler;
#SUBTITLE:;
#ARTIST:Masayoshi Iimori;
#TITLETRANSLIT:;
#SUBTITLETRANSLIT:;
#ARTISTTRANSLIT:;
#GENRE:;
#CREDIT:;
#BANNER:Raw Crawler-bn.png;
#BACKGROUND:Raw Crawler-bg.png;
#LYRICSPATH:;
#CDTITLE:;
#MUSIC:Raw Crawler.ogg;
#OFFSET:1.062500;
#SAMPLESTART:30.938000;
#SAMPLELENGTH:20.000000;
#SELECTABLE:YES;
#DISPLAYBPM:150.000000;
#BPMS:0.000000=150.000000
;
#STOPS:31.750000=1.601000
;
#BGCHANGES:;
#KEYSOUNDS:;
#ATTACKS:;

//---------------dance-single - ----------------
#NOTES:
     dance-single:
     :
     Hard:
     15:
     0.662935,0.795887,0.348834,0.338263,0.776947,439.000000,406.000000,33.000000,32.000000,0.000000,0.000000,0.662935,0.795887,0.348834,0.338263,0.776947,439.000000,406.000000,33.000000,32.000000,0.000000,0.000000:
// measure 0
0000
0000
0000
0000
,  // measure 1
0000
0000
0000
0000
,  // measure 2
0000
0000
0000
0000
,  // measure 3
0000
0000
0000
0000
,  // measure 4
0000
0000
0000
0000
,  // measure 5
0000
0000
0000
0000
,  // measure 6
0001
0010
0001
0100
0001
0010
0001
0100
,  // measure 7
0001
1000
0001
1000
0001
1000
0001
1000
0010
0100
0010
0100
0010
0100
0010
0100
,  // measure 8
0001
0001
0001
0001
0001
0001
1001
0000
,  // measure 9
0110
0001
1000
0000
1100
0000
0101
0000
,  // measure 10
1100
0000
0101
0000
1100
0001
0100
0100
,  // measure 11
0010
1000
0001
1000
0010
1000
0001
1000
,  // measure 12
0010
0000
0100
0000
1001
0000
0000
0000
0001
0100
0010
0100
0002
0000
0000
0003
,  // measure 13
1000
0010
0100
0001
0010
0100
1000
0000
,  // measure 14
1010
0000
0000
0000
0011
0000
0000
0000
1010
0000
0001
0000
0200
0000
0000
0300
,  // measure 15
0010
0000
1000
0000
0001
0000
1000
0000
0010
0000
1000
0000
0200
0000
0000
0300
,  // measure 16
0010
0010
0100
0100
0010
0010
0001
0000
,  // measure 17
1001
0100
0010
0100
0001
1000
0010
0100
,  // measure 18
0001
0000
0000
0020
0000
0000
0000
0000
0000
0000
0000
0000
0100
0000
0000
0030
0000
0000
0100
0000
0000
0000
0000
0000
1000
0000
0000
0000
0000
0000
0001
0000
0000
0000
0000
0000
1000
0000
0000
0000
0100
0000
0000
0000
0010
0000
0000
0000
,  // measure 19
0001
0000
0000
0000
0101
0000
0000
0000
1000
0010
0100
0001
1000
0000
0001
0010
,  // measure 20
0100
0010
0100
1000
0001
0000
1000
0001
0100
0000
0000
0000
0010
0000
1000
0000
,  // measure 21
0001
1000
0110
0000
0001
0000
0001
0000
,  // measure 22
1010
0001
0100
0000
0010
0000
0110
0000
,  // measure 23
1001
0000
0000
0000
1100
0000
0000
0000
0001
0010
0100
1000
0100
0010
0001
1000
,  // measure 24
0010
0000
0000
1010
0000
0000
0101
0000
0000
1100
0000
0000
0101
0000
0000
0000
,  // measure 25
1001
0000
1000
0000
,  // measure 26
1000
0000
1000
0000
,  // measure 27
1001
0000
1000
0000
,  // measure 28
1000
0020
0200
0330
,  // measure 29
0110
0001
0010
0001
,  // measure 30
1000
0010
1000
0001
,  // measure 31
0110
0001
0010
0100
,  // measure 32
0010
0001
1000
0001
,  // measure 33
1001
0000
0000
0000
1000
0010
1000
0010
1000
0000
0000
0000
0001
0010
0001
0010
,  // measure 34
0001
0000
0000
0000
1000
0100
1000
0100
1000
0000
0000
0000
0001
0100
0001
0100
,  // measure 35
0001
0000
0000
0000
0100
0010
0100
0010
0100
0000
0000
0000
0001
1000
0001
1000
,  // measure 36
0001
0000
0000
0000
1000
0010
1000
0010
1000
0000
0000
0000
0010
0100
0010
0100
,  // measure 37
0010
1000
0001
1000
0100
0010
0001
0100
,  // measure 38
0001
0010
0001
0010
0001
0010
0001
0010
0100
1000
0100
1000
0100
1000
0100
1000
,  // measure 39
0001
0001
0010
0010
1000
1000
0100
0100
,  // measure 40
0010
0000
0001
0000
0100
0000
0001
0010
0001
0100
0010
1000
0001
0000
0000
0000
,  // measure 41
0110
0000
0000
0000
0001
0000
0020
0030
0002
0003
2000
3000
0200
0300
1000
0001
,  // measure 42
1000
0000
0010
0100
0001
0000
0020
0030
0001
0000
0100
0000
1000
0000
0000
0000
,  // measure 43
0010
0000
1000
0001
1000
0000
0200
0300
0020
0030
0002
0003
2000
3000
0001
0100
,  // measure 44
0001
0000
0010
0001
1000
0000
0010
0100
0001
0000
0000
0011
0000
0001
0010
0100
,  // measure 45
1000
0000
0000
0000
1100
0000
0002
0003
2000
3000
0200
0300
0020
0030
0001
1000
,  // measure 46
0001
0000
0100
0010
1000
0000
0002
0003
2000
3000
0020
0030
0200
0300
0000
0000
,  // measure 47
0010
0000
0100
0001
1000
0000
0002
0003
0020
0030
0200
0300
2000
3000
0001
1000
,  // measure 48
0002
0003
0020
0030
0001
0100
0010
0000
1010
0000
2200
3000
0000
0000
0000
0300
,  // measure 49
0010
0000
0000
0001
0100
0010
1000
0100
0010
0001
1000
0001
,  // measure 50
1000
0010
1000
0010
0100
0001
0010
0100
1000
0001
0000
0000
,  // measure 51
0011
0000
0000
0001
1000
0001
1000
0010
0100
0010
1000
0100
,  // measure 52
1000
0001
0100
0001
0010
0100
1000
0000
0000
0010
0100
0010
,  // measure 53
0100
0000
0100
0001
1000
0001
0010
0000
0010
0100
0000
0100
,  // measure 54
1000
0001
0100
0010
1000
0100
0010
0001
1000
0001
0000
0000
,  // measure 55
1000
0010
1000
0010
1000
0010
0100
0001
0100
0001
0100
0001
,  // measure 56
1000
0100
0010
0001
0100
0010
1000
0001
1000
0100
0010
0001
,  // measure 57
0200
0000
0000
0000
0000
0000
0000
0000
0000
0000
0000
0300
;
