#VERSION:0.83;
#TITLE:Rave lithosphere;
#SUBTITLE:;
#ARTIST:Sampling Masters MEGA;
#TITLETRANSLIT:;
#SUBTITLETRANSLIT:;
#ARTISTTRANSLIT:;
#GENRE:;
#ORIGIN:;
#CREDIT:;
#BANNER:Rave lithosphere-bn.png;
#BACKGROUND:Rave lithosphere-bg.png;
#PREVIEWVID:;
#JACKET:Rave lithosphere-jacket.png;
#CDIMAGE:;
#DISCIMAGE:;
#LYRICSPATH:;
#CDTITLE:;
#MUSIC:Rave lithosphere.ogg;
#OFFSET:0.000000;
#SAMPLESTART:5.647059;
#SAMPLELENGTH:20.000000;
#SELECTABLE:YES;
#DISPLAYBPM:170.000000;
#BPMS:0.000=170.000;
#STOPS:144.000=0.706,
233.000=0.176,
234.500=0.176,
236.000=0.176,
236.500=0.353,
237.000=0.353,
237.500=0.176,
246.000=1.059,
287.500=0.353,
288.500=0.353,
289.500=0.353,
290.500=0.353;
#DELAYS:;
#WARPS:;
#TIMESIGNATURES:0.000=4=4;
#TICKCOUNTS:0.000=4;
#COMBOS:0.000=1;
#SPEEDS:0.000=1.000=0.000=0;
#SCROLLS:0.000=1.000;
#FAKES:;
#LABELS:0.000=Song Start;
#BGCHANGES:;
#KEYSOUNDS:;
#ATTACKS:
;

//---------------dance-single - ----------------
#NOTEDATA:;
#CHARTNAME:;
#STEPSTYPE:dance-single;
#DESCRIPTION:;
#CHARTSTYLE:;
#DIFFICULTY:Hard;
#METER:13;
#RADARVALUES:0.741766,0.814681,0.786197,0.207349,0.436296,601.000000,510.000000,91.000000,24.000000,0.000000,0.000000,0.000000,0.000000,0.000000,0.741766,0.814681,0.786197,0.207349,0.436296,601.000000,510.000000,91.000000,24.000000,0.000000,0.000000,0.000000,0.000000,0.000000;
#CREDIT:;
#DISPLAYBPM:170.000000;
#NOTES:
0000
0000
0000
0000
,
0000
0000
0000
0000
,
0000
0000
0000
0000
,
0000
0000
0000
0000
,
1000
0100
1000
0100
0000
0000
0001
0000
0000
0000
0100
0001
0000
0000
0010
0001
,
0000
0000
1000
0001
1000
0000
0000
0000
0101
0000
0000
1001
0000
0000
1100
0000
,
1000
0001
1000
0001
0000
0000
0100
0000
0000
0000
0010
1000
0000
0000
1000
0000
,
0001
0000
0100
0010
0000
0000
0010
1000
0000
0000
1000
0001
0000
0000
0100
0000
,
0001
0010
0001
0010
0000
0000
0100
0000
0000
0000
1000
0001
0000
0000
0100
0001
,
0000
0000
0010
0000
0100
0000
0000
0000
0011
0000
0000
0110
0000
0000
1010
0000
,
0100
1000
0100
1000
0000
0000
0001
0000
0000
0000
0100
0001
0000
0000
0010
0000
,
0001
0000
1000
0100
0000
0000
1000
0001
0000
0000
0100
0010
0000
0000
1000
0000
,
1010
0000
0000
0000
0101
0000
0000
0000
0011
0000
0000
0101
0000
0000
1001
0000
,
1000
0100
1000
0000
0001
0000
0000
0000
0110
0000
0000
0101
0000
0000
1001
0000
,
0010
0000
0000
0000
0100
0000
0000
0000
0101
0000
0000
1100
0000
0000
0011
0000
,
0000
0000
0100
0000
0001
1000
0000
1000
0010
0000
0000
0110
0000
0000
1000
0000
,
1010
0000
0000
0000
1100
0000
0000
0000
1001
0000
0000
0110
0000
0000
0101
0000
,
0001
0010
0001
0000
1000
0000
0000
0000
1100
0000
0000
0110
0000
0000
0011
0000
,
0100
0000
0000
0000
0010
0000
0000
0000
1010
0000
0000
0101
0000
0000
0110
0000
,
1002
0100
0010
1003
,
1001
0000
0000
0000
1000
0100
1000
0100
1000
0000
0010
0000
0110
0000
0000
0000
,
1001
0000
0000
0000
0001
0010
0001
0010
0001
0000
0100
0000
0110
0000
0000
0000
,
1000
0100
0001
0100
1000
0100
0001
0100
,
1000
0010
0001
0010
1000
0010
0001
0010
,
1100
0000
0000
0000
1000
0001
1000
0001
1000
0000
0010
0000
0110
0000
0000
0000
,
0101
0000
0000
0000
0001
1000
0001
1000
0001
0000
0120
0000
0130
0000
0000
0000
,
1000
0010
0001
0010
1000
0010
0001
0010
,
1000
0100
0001
0100
1000
0100
0001
0100
,
1010
0000
0000
0000
1000
0001
1000
0001
1000
0000
0010
0000
0101
0000
0000
0000
,
0011
0000
0000
0000
0100
1000
0100
1000
0100
0000
0010
0000
0011
0000
0000
0000
,
0001
0100
1000
0100
0001
0100
1000
0100
,
0001
0010
1000
0010
0001
0010
1000
0010
,
1001
0000
0000
0000
0100
0010
0100
0010
0100
0000
0001
0000
0101
0000
0000
0000
,
0110
0000
0000
0000
1000
0100
1000
0100
1000
0000
0010
0000
1001
0000
0000
0000
,
0001
0010
1000
0010
0001
0010
1000
0010
,
0001
0100
1000
0100
0001
0100
1000
0100
,
1001
0100
1001
0000
1010
0001
0101
0000
,
1010
0001
0101
0000
0011
1000
1100
0000
,
0011
0000
1000
0000
1100
0000
0000
0000
0001
0000
1000
0100
1000
0000
0010
0000
,
0100
0000
0001
1000
0001
0000
0010
0000
0100
0000
0100
0000
1000
0000
1000
0000
,
0010
0000
1000
0001
1000
0000
0000
0000
1010
0000
0001
0000
0101
0000
0000
0000
,
1010
0001
0101
0000
0011
1000
1100
0000
,
0011
0000
1000
0000
1100
0000
0000
0000
0010
0000
1000
0100
1000
0000
0001
0000
,
0100
0000
0010
0100
0010
0000
1000
0000
0001
0000
0001
0000
1000
0000
1000
0000
,
0010
0000
0100
0001
0100
0000
0000
0000
0010
0000
0000
0000
0100
0000
0000
0000
,
0001
0000
0000
0001
0000
0000
0001
0000
0000
0000
1000
0000
0100
0000
0000
0000
,
0010
0000
0000
0010
0000
0000
0010
0000
0001
0000
0000
0000
0100
0000
0000
0000
,
1000
0000
0000
1000
0000
0000
1000
0000
0000
0000
0010
0000
1000
0000
0000
0000
,
0100
0000
0000
0100
0000
0000
0100
0000
1001
0000
0000
0000
0100
0000
0010
0000
,
2000
0000
0000
3002
0000
0000
0203
0000
0000
0000
0301
0010
0001
0000
0100
0000
,
0020
0000
0000
2030
0000
0000
3100
0000
1000
0002
0000
0000
0103
0000
0100
0000
,
0002
0000
0000
0023
0000
0000
0230
0000
0000
1300
0000
1000
0010
0000
0100
0001
,
0000
0001
1000
0000
0010
0000
0100
0000
0110
0000
0000
0000
0100
0000
0001
0000
,
2000
0000
0000
3200
0000
0000
0320
0000
0000
0000
0031
1000
0001
0000
0010
0000
,
0200
0000
0000
2300
0000
0000
3002
0000
0000
2003
0000
0000
3010
0000
0010
0000
,
2000
0000
0000
3200
0000
0000
0302
0000
0000
0000
0000
0000
0000
0000
0000
0000
,
1003
0001
0000
0200
0000
0000
0310
0000
1000
0000
1000
0000
1000
0000
0000
0000
,
0001
0001
0001
0000
1000
0100
0010
0001
,
0100
0010
1001
0010
0010
1100
0010
0010
,
0101
1100
1010
1001
0010
0100
0001
1000
,
0010
0100
0001
1000
0001
0001
0010
0010
,
0100
0000
0100
0000
1000
0000
1000
0000
1001
0000
0000
0000
1000
0010
1000
0010
,
0000
0000
0100
0000
0000
0000
0001
1000
0000
0000
0010
0100
0000
0000
0010
0000
,
1000
0000
0000
0000
1100
0000
0000
0011
0000
0000
1001
0000
0100
0010
0100
0010
,
0000
0000
1000
0000
0000
0000
0001
0100
0000
0000
0010
0000
1000
0000
0100
1000
,
0000
0000
0010
1000
0000
0000
0001
1000
0000
0000
0010
0000
0100
0001
0100
0001
,
0000
0000
0010
0000
0000
0000
0001
1000
0000
0000
0010
1000
0000
0000
0100
0000
,
1000
0000
0000
0000
1010
0000
0000
1001
0000
0000
0101
0000
0001
0010
0001
0010
,
0000
0000
0100
0000
0000
0000
1000
0010
0000
0000
0100
0000
0001
0000
1000
0100
,
0000
0000
1000
0010
0000
0000
1000
0001
0000
0000
0100
0000
0110
0000
0210
0000
,
0000
0010
0000
1000
0000
0301
0110
0210
,
0000
0010
0000
1000
0000
0301
1001
1001
,
0110
0110
1010
1010
0101
0101
0010
0010
,
0100
0100
0001
0001
1000
1000
0001
0001
,
0010
0000
0010
0000
0100
0000
0100
0000
1000
0000
1000
0000
0010
1000
0010
1000
,
0010
0000
0100
0000
0001
0000
0000
0001
0000
0000
0000
0000
0000
0000
0000
0000
;

//---------------dance-single - ----------------
#NOTEDATA:;
#CHARTNAME:;
#STEPSTYPE:dance-single;
#DESCRIPTION:;
#CHARTSTYLE:;
#DIFFICULTY:Medium;
#METER:11;
#RADARVALUES:0.564038,0.651745,0.501093,0.172791,0.177110,457.000000,399.000000,58.000000,20.000000,0.000000,0.000000,0.000000,0.000000,0.000000,0.564038,0.651745,0.501093,0.172791,0.177110,457.000000,399.000000,58.000000,20.000000,0.000000,0.000000,0.000000,0.000000,0.000000;
#CREDIT:;
#DISPLAYBPM:170.000000;
#NOTES:
0000
0000
0000
0000
,
0000
0000
0000
0000
,
0000
0000
0000
0000
,
0000
0000
0000
0000
,
1000
0100
0000
1000
0000
0000
0001
0000
0000
0000
0100
0000
0000
0000
0010
0000
,
0000
0000
1000
0000
0001
0000
0000
0000
0010
0000
0000
0010
0000
0000
0010
0000
,
0001
0100
0000
0001
0000
0000
0010
0000
0000
0000
0100
0000
0000
0000
1000
0000
,
0000
0110
0000
1001
0000
0110
0000
1000
,
0001
1000
0000
0001
0000
0000
0010
0000
0000
0000
0100
0000
0000
0000
1000
0000
,
0000
0000
0010
0000
0100
0000
0000
0000
0001
0000
0000
0001
0000
0000
0001
0000
,
0010
0100
0000
0010
0000
0000
0001
0000
0000
0000
0100
0000
0000
0000
1000
0000
,
0000
1100
0000
0101
0000
1100
0000
0001
,
0100
0000
0000
0000
0101
0000
0000
0000
0010
0000
0000
1000
0000
0000
0001
0000
,
0000
0000
0010
0000
0011
0000
0000
0000
0001
0000
0000
0100
0000
0000
1000
0000
,
0001
0000
0000
0000
1001
0000
0000
0000
1000
0000
0000
0010
0000
0000
0100
0000
,
0000
0000
0010
0000
0110
0000
0000
0000
0100
0000
0000
0001
0000
0000
1000
0000
,
0100
0000
0000
0000
1100
0000
0000
0000
0001
0000
0000
1000
0000
0000
0010
0000
,
0000
0000
1000
0000
1001
0000
0000
0000
0010
0000
0000
0100
0000
0000
0001
0000
,
0100
0000
0000
0000
0110
0000
0000
0000
0010
0000
0000
1000
0000
0000
0001
0000
,
0200
0000
0000
0300
,
1001
0000
1000
0100
0010
0001
0100
0000
,
0110
0000
0100
0001
0010
0100
1000
0000
,
0010
1000
0100
1000
0000
0001
0100
0001
,
0000
0010
0100
1000
0000
0010
0100
0001
,
0011
0000
0100
1000
0100
0010
0001
0000
,
0101
0000
1000
0001
0010
0100
0010
0000
,
0001
0100
0010
1000
0000
0100
1000
0001
,
0000
0001
0010
0001
0000
1000
0010
1000
,
1100
0000
0010
1000
0001
0010
0100
0000
,
0110
0000
0001
1000
0001
0010
0100
0000
,
1000
0001
0010
0001
0000
0100
0001
1000
,
0000
0100
0010
0001
0000
1000
0001
0010
,
1001
0000
0100
0001
0010
1000
0010
0000
,
0011
0000
1000
0001
0100
0010
0001
0000
,
1000
0100
0010
0001
0000
1000
0001
0100
,
0000
0001
0010
0100
0000
1000
0001
0100
,
1001
0100
0100
0000
0001
0100
1100
0000
,
0001
0100
1100
0000
1000
0100
0101
0000
,
1000
0100
0101
0000
1000
0100
0001
0100
,
1000
0100
0001
0100
1000
0100
0010
0001
,
0200
0010
0310
0000
0001
0100
1100
0000
,
0001
0100
1100
0000
1000
0100
0101
0000
,
1000
0100
0101
0000
0001
0010
1000
0010
,
0001
0010
1000
0010
0001
0010
0100
1000
,
0020
0100
0130
0000
0002
0000
0100
0000
,
2000
0003
3020
1000
,
0200
0030
0302
0010
,
0200
0003
0320
1000
,
0002
0033
0110
1001
,
0010
0000
0000
0001
0000
0000
0100
0000
0000
0000
0001
0000
1000
0000
0000
0000
,
0010
0000
0000
0100
0000
0000
0010
0000
0000
1000
0000
0000
0100
0000
0000
0000
,
1000
0000
0000
0001
0000
0000
0100
0000
0000
0010
0000
0100
0010
0000
1000
0001
,
0000
0010
0100
0000
0011
0000
0001
0100
,
2000
0000
0000
3020
0000
0000
0230
0000
0000
0000
0301
1000
0001
0000
0000
0000
,
0020
0000
0000
0230
0000
0000
2300
0000
0000
3002
0000
0000
0103
0000
0010
0000
,
2000
0000
0000
0100
0000
0000
0002
0000
3000
0000
0000
0000
0000
0000
0000
0000
,
0010
0000
0000
0010
0000
0000
0013
0000
0001
0000
0100
0000
1000
0000
0000
0000
,
1000
0100
0001
0000
0100
0010
0100
0010
,
0100
0010
0100
0001
0101
0000
1000
1100
,
0000
0011
0101
1001
0001
0010
0100
0000
,
1000
0010
0100
0000
0001
1000
0100
0000
,
1000
0000
0001
0000
0010
0000
0000
0000
1001
0000
0000
0000
1000
0001
0000
1000
,
0000
0010
0000
0100
0000
0001
0000
0010
,
1000
0000
0000
0000
0100
0000
0000
0100
0000
0000
0100
0000
1000
0010
0000
1000
,
0000
0100
0000
0010
0000
0001
0000
0011
,
0000
0000
0101
0000
0000
0000
1001
0000
0000
0000
0100
0000
0010
0001
0000
0010
,
0000
1000
0000
0001
0000
0100
0000
0010
,
1000
0000
0000
0000
0001
0000
0000
0001
0000
0000
0001
0000
0100
0001
0000
0100
,
0000
0001
0000
0010
0000
1000
0000
1100
,
0000
1010
0000
0110
0000
1001
0000
1100
,
0000
0101
0000
1100
0000
0101
0000
1010
,
0000
0011
0000
1010
0000
0011
1000
1000
,
0100
0100
0010
0010
0001
0001
0011
0000
,
0101
0000
1010
0000
1100
0000
1000
0100
,
0010
0001
0100
0010
1000
0001
0010
0100
,
0001
0000
1000
0000
0001
0000
0000
0001
0000
0000
0000
0000
0000
0000
0000
0000
;

//---------------dance-single - ----------------
#NOTEDATA:;
#CHARTNAME:;
#STEPSTYPE:dance-single;
#DESCRIPTION:;
#CHARTSTYLE:;
#DIFFICULTY:Easy;
#METER:7;
#RADARVALUES:0.385076,0.455087,0.380139,0.051837,0.000000,312.000000,268.000000,44.000000,6.000000,0.000000,0.000000,0.000000,0.000000,0.000000,0.385076,0.455087,0.380139,0.051837,0.000000,312.000000,268.000000,44.000000,6.000000,0.000000,0.000000,0.000000,0.000000,0.000000;
#CREDIT:;
#DISPLAYBPM:170.000000;
#NOTES:
0000
0000
0000
0000
,
0000
0000
0000
0000
,
0000
0000
0000
0000
,
0000
0000
0000
0000
,
1000
0100
0001
0100
,
1000
0001
0110
1001
,
0001
0010
1000
0010
,
0001
0001
1000
1000
,
0010
1000
0100
0010
,
0001
1000
1001
0110
,
1000
0001
0010
0100
,
1000
1000
0001
0001
,
1001
1001
0100
0001
,
1000
0100
0010
0010
,
0110
0110
0100
1000
,
0001
0100
1000
1000
,
1100
1100
0001
1000
,
0010
0100
0001
0001
,
0011
0011
0010
0100
,
2000
0000
0000
3000
,
1001
0100
0010
1000
,
0110
0001
0100
1000
,
0010
0100
0001
1000
,
0001
0010
0100
1000
,
1010
0100
1000
0001
,
0011
0100
0010
0001
,
1000
0001
0010
0100
,
0010
0100
1000
0001
,
0101
1000
0100
0010
,
1100
0010
1000
0001
,
0010
1000
0100
0001
,
1000
0001
0010
0100
,
0110
0100
0010
0001
,
1001
0100
1000
0010
,
0001
0010
0100
1000
,
0010
0100
0001
1000
,
1001
1001
0001
0011
,
1000
1010
0001
0101
,
1000
1100
0010
0100
,
0001
1000
0100
0100
,
1000
0010
0001
0011
,
1000
1010
0001
0101
,
1000
1100
0001
0100
,
1000
0010
0100
0100
,
0001
0010
0200
0000
,
1300
0000
2000
0000
,
3001
0000
0002
0000
,
0013
0000
0020
0000
,
0130
0000
1000
0000
,
0001
0010
0001
0000
,
0100
0010
1000
0000
,
0100
1000
0001
0000
,
0010
0001
0100
0000
,
1000
0001
1000
0000
,
0010
0100
0001
0000
,
1000
0100
0002
0003
,
1001
1001
1000
1000
,
0001
0001
1000
0100
,
0010
0000
1001
0000
0000
0110
0000
0000
,
1001
0010
0010
0010
1000
0000
0100
0000
,
0010
0001
0100
0010
,
1000
0001
1001
0010
,
0100
1000
0010
0100
,
0001
1001
0110
1000
,
0100
0010
1000
0001
,
0001
1000
1000
0010
,
1000
0001
0010
0100
,
1000
0110
1001
0001
,
1000
0001
0100
1000
,
1000
0001
0001
0100
,
0100
0100
0100
0010
,
0010
0010
0010
1001
,
0110
1001
0110
0010
,
1000
0100
0001
1000
,
0010
0100
0001
0010
,
0100
0001
0000
0000
;

//---------------dance-single - ----------------
#NOTEDATA:;
#CHARTNAME:;
#STEPSTYPE:dance-single;
#DESCRIPTION:;
#CHARTSTYLE:;
#DIFFICULTY:Beginner;
#METER:4;
#RADARVALUES:0.186367,0.258322,0.060477,0.000000,0.000000,151.000000,144.000000,7.000000,0.000000,0.000000,0.000000,0.000000,0.000000,0.000000,0.186367,0.258322,0.060477,0.000000,0.000000,151.000000,144.000000,7.000000,0.000000,0.000000,0.000000,0.000000,0.000000,0.000000;
#CREDIT:;
#DISPLAYBPM:170.000000;
#NOTES:
// measure 0
0000
0000
0000
0000
,  // measure 1
0000
0000
0000
0000
,  // measure 2
0000
0000
0000
0000
,  // measure 3
0000
0000
0000
0000
,  // measure 4
1000
1000
0000
0000
,  // measure 5
0010
0000
0100
0000
,  // measure 6
0001
0001
0000
0000
,  // measure 7
0100
0000
0010
0000
,  // measure 8
0100
0100
0000
0000
,  // measure 9
0001
0000
1000
0000
,  // measure 10
0010
0010
0000
0000
,  // measure 11
1000
0000
0001
0000
,  // measure 12
0010
0010
0010
0000
,  // measure 13
0001
0001
0001
0000
,  // measure 14
0100
0100
0100
0000
,  // measure 15
1000
1000
1000
0000
,  // measure 16
0001
0001
0001
0000
,  // measure 17
1000
1000
1000
0000
,  // measure 18
0010
0010
0010
0000
,  // measure 19
1001
0000
0000
0000
,  // measure 20
1001
0000
0000
0100
,  // measure 21
0100
0000
0000
0000
,  // measure 22
1000
0000
0001
0000
,  // measure 23
1000
0000
0001
0000
,  // measure 24
1001
0000
0000
0010
,  // measure 25
0010
0000
0000
0000
,  // measure 26
0100
0000
0010
0000
,  // measure 27
0100
0000
0010
0000
,  // measure 28
1001
0000
0000
1000
,  // measure 29
1000
0000
0000
0000
,  // measure 30
0001
0000
0010
0000
,  // measure 31
0100
0000
1000
0000
,  // measure 32
1001
0000
0000
0001
,  // measure 33
0001
0000
0000
0000
,  // measure 34
1000
0000
0001
0000
,  // measure 35
0100
0000
0010
0000
,  // measure 36
1001
0000
0010
0000
,  // measure 37
0100
0000
0001
0000
,  // measure 38
1000
0000
0001
0000
,  // measure 39
1000
0000
0100
0100
,  // measure 40
0100
0000
1000
0000
,  // measure 41
0010
0000
0100
0000
,  // measure 42
0001
0000
0010
0000
,  // measure 43
0100
0000
1000
1000
,  // measure 44
1000
0000
0001
0000
,  // measure 45
0000
0000
0010
0000
,  // measure 46
0000
0000
1000
0000
,  // measure 47
0000
0000
0100
0000
,  // measure 48
0000
0000
0001
0000
,  // measure 49
0000
0000
0100
0000
,  // measure 50
0000
0000
0010
0000
,  // measure 51
0000
0000
1000
0000
,  // measure 52
0000
0000
0010
0000
,  // measure 53
0010
0000
0100
0000
,  // measure 54
0100
0000
0001
0000
,  // measure 55
1000
0000
0001
0000
,  // measure 56
0000
0000
0000
1000
,  // measure 57
0000
0001
0000
1000
,  // measure 58
0000
0000
0001
0000
0000
0100
0000
0000
,  // measure 59
0100
0000
1000
1000
,  // measure 60
1000
0000
0001
0001
,  // measure 61
0001
0000
1001
1000
,  // measure 62
1000
0000
0000
0010
,  // measure 63
0000
0001
0000
0100
,  // measure 64
0100
0000
0000
0001
,  // measure 65
0000
1000
0000
0010
,  // measure 66
0010
0000
0000
0100
,  // measure 67
0000
0001
0000
0001
,  // measure 68
0001
0000
0000
0100
,  // measure 69
0000
0010
0000
1000
,  // measure 70
0000
0100
0000
0010
,  // measure 71
0000
0001
0000
0100
,  // measure 72
0010
1000
0001
1000
,  // measure 73
1000
1000
0000
0001
,  // measure 74
0001
0001
0000
0001
;
