#VERSION:0.83;
#TITLE:On the FM;
#SUBTITLE:;
#ARTIST:C-Show;
#TITLETRANSLIT:;
#SUBTITLETRANSLIT:;
#ARTISTTRANSLIT:;
#GENRE:;
#ORIGIN:;
#CREDIT:;
#BANNER:On the FM-bn.png;
#BACKGROUND:On the FM-bg.png;
#PREVIEWVID:;
#JACKET:On the FM-jacket.png;
#CDIMAGE:;
#DISCIMAGE:;
#LYRICSPATH:;
#CDTITLE:;
#MUSIC:On the FM.mp3;
#OFFSET:0.875000;
#SAMPLESTART:49.825001;
#SAMPLELENGTH:20.000000;
#SELECTABLE:YES;
#DISPLAYBPM:200.000000;
#BPMS:0.000=200.000;
#STOPS:;
#DELAYS:;
#WARPS:;
#TIMESIGNATURES:0.000=4=4;
#TICKCOUNTS:0.000=4;
#COMBOS:0.000=1;
#SPEEDS:0.000=1.000=0.000=0;
#SCROLLS:0.000=1.000;
#FAKES:;
#LABELS:0.000=Song Start;
#BGCHANGES:;
#KEYSOUNDS:;
#ATTACKS:
;

//---------------dance-single - ----------------
#NOTEDATA:;
#CHARTNAME:;
#STEPSTYPE:dance-single;
#DESCRIPTION:;
#CHARTSTYLE:;
#DIFFICULTY:Hard;
#METER:16;
#RADARVALUES:0.935077,1.047534,0.773564,0.039670,0.743811,660.000000,582.000000,78.000000,4.000000,0.000000,0.000000,0.000000,0.000000,0.000000,0.935077,1.047534,0.773564,0.039670,0.743811,660.000000,582.000000,78.000000,4.000000,0.000000,0.000000,0.000000,0.000000,0.000000;
#CREDIT:;
#DISPLAYBPM:200.000000;
#NOTES:
0000
0000
0000
0000
,
0000
0000
0000
0000
,
0000
0000
0000
0000
,
1001
0000
0001
0100
0010
1000
0100
0000
,
1000
0100
0010
0001
0010
0100
1000
0000
,
0010
0100
0001
1000
0000
1010
0000
0101
,
0220
0000
0000
0330
,
1000
0000
0100
0000
1000
0000
0001
0000
0100
0000
0001
0000
0010
0000
0000
0011
0000
0000
0000
0000
0000
1100
0000
0000
,
0000
0000
0001
0100
0001
0000
0010
0000
0100
0000
1000
0000
0010
0000
1000
0000
,
0100
0000
0000
0000
1010
0000
0000
0000
0001
0000
1000
0010
1000
0000
0001
0000
,
0100
0000
0010
0100
0010
0000
1000
0000
0100
0000
0010
0000
0001
0000
1000
0000
,
1001
0000
0000
0011
0000
0000
0101
0000
,
0000
1100
0000
0000
0110
0000
1001
0000
,
0220
0000
0000
0000
,
0000
0000
0000
0330
,
1100
0101
1010
0011
,
1000
0100
1000
0100
0010
0100
0010
0100
0010
0001
0010
0001
1000
0000
0000
0000
,
0010
1000
0010
1000
0010
1000
0010
0000
1000
0000
0100
0000
0010
0000
0001
0000
,
0100
0000
0010
0000
1000
0000
0001
0010
0100
0000
0010
0000
0001
0000
1000
0000
,
0010
0100
0010
0100
0010
0100
0010
0000
1000
0000
0100
0000
0010
0000
0001
0000
,
0010
0000
0100
0000
1000
0000
0010
0100
0001
0000
1000
0000
0001
0000
0010
0000
,
0100
0001
0100
0001
0100
0001
0100
0000
0010
0000
1000
0000
0100
0000
0010
0000
,
0001
0000
0100
0000
1000
0000
0010
0100
1000
0000
0010
0000
0001
0000
0100
0000
,
0001
1000
0001
1000
0001
1000
0001
0000
1000
0000
0100
0000
0010
0000
0001
0100
,
0001
0000
1000
0100
1000
0000
0001
0010
0100
0000
1000
0000
1100
0000
0000
0000
,
0010
1000
0010
0100
0010
1000
0010
0000
0100
0000
0001
0000
0010
0000
0001
0000
,
0100
0000
0010
0000
1000
0000
0001
1000
0100
0000
1000
0000
0010
0000
0100
0000
,
0001
1000
0001
0010
0001
1000
0001
0000
0010
0000
0100
0000
0010
0000
0100
0000
,
1000
0000
0001
0000
0010
0000
0100
0010
1000
0000
0001
0000
1000
0000
0100
0000
,
0010
0001
0100
0001
0010
0001
0100
0000
1000
0000
0001
0000
1000
0000
0100
0000
,
0010
0000
1000
0000
0100
0000
1000
0001
0100
0000
0001
0000
0010
0000
0100
0000
,
1000
0100
1000
0001
1000
0100
1000
0000
0010
0000
0100
0000
0001
0000
0010
0100
,
0010
0000
0001
1000
0001
0000
1000
0100
0010
0000
0001
0000
0011
0000
0000
0000
,
1001
1010
0101
0110
,
1000
0100
1000
0010
0100
0001
0010
0000
,
1100
0000
0101
0000
0010
0100
0001
1000
,
0100
0010
0001
0100
1000
0001
0010
0000
,
1010
0000
0011
0000
0100
0010
1000
0100
,
0001
1000
0010
0001
0100
0010
1000
0000
,
0110
0000
1001
0000
0010
1000
0100
0001
,
0010
0100
0010
0001
0100
1000
0001
0000
,
1000
0000
1000
0000
0010
0100
0010
0100
,
0001
0010
0100
1000
0001
0010
0100
0000
,
1010
0000
0000
0101
0000
0000
1100
0000
,
0000
0011
0000
0000
0110
0000
1001
0000
,
0101
0000
0000
0110
0000
0000
1010
0000
,
0000
1100
0000
0000
1001
0000
0011
0000
,
0110
1001
1010
0011
,
1000
0100
0010
0001
0010
0100
1000
0100
0010
0001
0010
0100
,
1000
0000
0000
1100
0000
0000
0101
0000
,
0010
0000
0000
0010
0000
0000
0010
0000
0000
1000
0100
1000
,
0001
0000
0001
0100
0000
0100
0010
0000
0010
1000
0000
1000
,
0010
0000
0010
0100
0001
0100
0001
0010
0100
1000
0000
1000
,
0001
0100
0001
1000
0100
1000
0010
0000
0010
0100
0000
0001
,
1000
0000
1000
0100
0010
0001
0100
0000
0100
0001
0010
0100
,
1000
0000
1000
0100
0000
0100
0010
0000
0010
0001
0000
0001
,
0100
0000
0100
0010
0000
0010
1000
0000
1000
0001
0000
0001
,
0010
0001
0100
0010
1000
0100
1000
0010
1000
0001
0100
0001
,
0100
0000
0100
0010
0000
0010
1000
0000
1000
0001
0100
0010
,
1000
0000
1000
0100
0000
0100
0010
0000
0010
0001
0000
0001
,
0100
0000
0100
0010
1000
0100
1000
0001
0010
0001
0000
0001
,
1000
0100
1000
0010
0100
0001
0010
0000
0001
0100
0000
1000
,
0100
0000
0100
0010
0000
0010
0001
0000
0001
0100
0010
1000
,
0001
0000
0001
0010
0000
0010
0100
0000
0100
1000
0000
1000
,
0010
0000
0010
0100
0000
0100
0001
0000
0001
1000
0000
1000
,
0010
0100
0010
1000
0001
1000
0001
1000
0001
0100
0010
0100
,
0001
0000
0000
0000
0001
0000
0100
0000
0000
0000
0100
0000
0010
0000
0000
0000
0010
0000
1000
0000
0000
1000
0000
0000
,
1100
0000
0000
1010
0000
0000
1001
0000
,
0000
0101
0000
0000
0011
0000
0110
0000
,
1001
0000
0000
1010
0000
0000
1100
0000
,
0000
0110
0000
0000
0011
0000
0101
0000
,
0110
1010
0101
1001
,
0001
0010
0100
1000
0100
0010
0001
0010
0100
1000
0100
0010
,
0001
0000
0000
0011
0000
0000
1100
0000
,
1000
0000
1000
0000
0001
0010
0100
1000
,
1001
0000
0011
0000
0100
0010
1000
0001
,
0010
0100
0010
0001
0100
1000
0001
0000
,
1100
0000
0101
0000
0010
1000
0100
0001
,
0010
0100
0010
0001
0100
1000
0001
0000
,
1010
0000
0110
0000
0010
0001
0100
0010
,
0001
1000
0100
1000
0010
1000
0001
0000
,
0011
0000
0101
0000
1000
0100
0001
0100
,
0010
0001
0010
0100
1000
0001
0100
0000
,
1100
0000
0000
1010
0000
0000
0110
0000
,
0010
0100
1001
0000
;

//---------------dance-single - ----------------
#NOTEDATA:;
#CHARTNAME:;
#STEPSTYPE:dance-single;
#DESCRIPTION:;
#CHARTSTYLE:;
#DIFFICULTY:Challenge;
#METER:18;
#RADARVALUES:1.236852,1.257041,1.071089,0.039670,1.284315,873.000000,765.000000,108.000000,4.000000,0.000000,0.000000,0.000000,0.000000,0.000000,1.236852,1.257041,1.071089,0.039670,1.284315,873.000000,765.000000,108.000000,4.000000,0.000000,0.000000,0.000000,0.000000,0.000000;
#CREDIT:;
#DISPLAYBPM:200.000000;
#NOTES:
0000
0000
0000
0000
,
0000
0000
0000
0000
,
0000
0000
0000
0000
,
1001
0100
0010
1000
0100
0010
0001
0100
,
0001
0010
0100
1000
0100
0010
0001
0000
,
1000
0100
1000
0001
0100
0101
0000
1100
,
0220
0000
0000
0330
,
1000
0000
0000
0000
0100
0000
0000
0000
0001
0000
0000
0000
1000
0000
0000
0000
0010
0000
0000
0000
0001
0000
0000
0000
0100
0000
0000
0000
0000
0000
0001
0000
0000
0010
0000
0000
0001
0000
0000
0000
0000
0000
1000
0000
0000
0010
0000
0000
,
1000
0000
0100
0010
0100
0000
1000
0001
1000
0000
0001
0010
0100
0000
1000
0000
,
1010
0000
0000
0000
0011
0000
0000
0000
0100
0000
0001
0010
0001
0000
0100
0010
,
0100
0000
0010
1000
0010
0000
1000
0100
1000
0000
0010
0001
0100
0000
1000
0000
,
1100
1100
0000
0011
0011
0000
0101
0101
,
0000
1010
1010
0000
0110
0110
1001
1001
,
0220
0000
0000
0000
,
0000
0000
0000
0330
,
1100
1000
1010
0010
0101
0001
0011
0001
,
1000
0100
0001
0100
1000
0010
0001
0010
1000
0100
0010
0001
1001
0000
0000
0000
,
0001
0010
0001
0010
0100
1000
0100
1000
0010
0000
0100
0001
0100
0000
0001
0010
,
0001
0000
0100
0010
1000
0000
0100
0010
0001
0000
0100
0000
0010
0000
1000
0000
,
0100
0010
0100
0010
1000
0001
1000
0001
0010
0000
0001
0100
0001
0000
1000
0010
,
1000
0000
0100
0010
0001
0000
0100
0010
1000
0000
0001
1000
0100
0000
0010
0000
,
1000
0010
1000
0010
0100
0001
0100
0001
0010
0000
0100
1000
0010
0000
0100
0001
,
0010
0000
0001
0100
1000
0000
0001
0010
1000
0000
0100
0000
0010
0000
0001
0000
,
0100
0001
0100
0001
0010
1000
0010
1000
0100
0000
0010
0001
1000
0000
0100
0010
,
0001
0000
0100
1000
0001
0000
0100
0010
1000
0000
0110
0000
1010
0000
0011
0000
,
0001
0100
0010
1000
0100
0010
1000
0001
0100
0000
0001
0010
0001
0000
1000
0010
,
1000
0000
0100
0010
1000
0000
0010
0001
1000
0000
0100
0010
1000
0000
0100
0000
,
1000
0010
0001
0100
0010
0100
0001
1000
0010
0000
0100
1000
0010
0000
0001
0100
,
1000
0000
0010
0100
0010
0000
1000
0100
0001
0000
0010
0100
0010
0000
1000
0000
,
0100
0010
0001
1000
0010
1000
0100
0001
1000
0000
0010
0001
0100
0000
0010
1000
,
0100
0000
1000
0010
0001
0000
0100
0010
0100
0000
0001
0010
1000
0000
0100
0000
,
0010
0001
0100
1000
0001
0100
0010
1000
0010
0000
0100
1000
0010
0000
1000
0001
,
1000
0000
0010
0001
0100
0000
1000
0100
0010
0000
1001
0000
0101
0000
1100
0000
,
1000
0100
1000
0000
1000
0100
1000
0000
1000
0100
1000
0000
1000
0100
1000
0000
,
1000
0100
1000
0100
0010
0100
0010
0100
0010
0001
0010
0001
1000
0001
1000
0001
,
0011
0000
0000
0000
1010
0000
0000
0000
0100
0000
0001
0010
0001
0000
1000
0100
,
1000
0000
0001
0100
0001
0000
1000
0010
1000
0000
0100
0010
1000
0000
0001
0000
,
1100
0000
0000
0000
0101
0000
0000
0000
1000
0000
0010
0100
0010
0000
0100
0010
,
0100
0000
0001
1000
0001
0000
1000
0001
1000
0000
0001
0100
0010
0000
1000
0000
,
0110
0000
0000
0000
1001
0000
0000
0000
1000
0000
0001
0010
0001
0000
0100
0010
,
0100
0000
0010
1000
0010
0000
1000
0001
1000
0000
0010
1000
0001
0000
0100
0000
,
0001
0000
0000
0000
1000
0000
0000
0000
0001
0000
0010
0100
1000
0000
0100
0010
,
0001
0000
0100
0001
1000
0000
0001
1000
0100
0000
0010
0100
0001
0000
1000
0000
,
1010
1010
0000
1001
1001
0000
0011
0011
,
0000
0101
0101
0000
0110
0110
1100
1100
,
0011
0011
0000
0101
0101
0000
1001
1001
,
0000
1010
1010
0000
1100
1100
0110
0110
,
1001
1000
1100
0100
0101
0001
1010
0010
,
0001
0001
0001
0010
0010
0010
0100
0100
0100
1000
1000
1000
,
0010
0100
0000
0001
1000
0000
0011
0000
,
1000
0000
0000
0001
0000
0000
0110
0000
0000
0100
0001
1000
,
0001
0000
0001
0010
0000
0010
0100
0000
0100
1000
0000
1000
,
0010
0000
0010
0100
0010
1000
0100
0010
0001
1000
0000
1000
,
0001
0010
0001
0010
0001
0000
1000
0100
1000
0100
1000
0000
0010
0000
0000
0000
0100
0000
0001
0000
0000
0000
1000
0000
,
0001
0100
0001
0010
1000
0010
0100
0000
0010
1000
0001
0100
,
0001
0000
0001
0100
0000
0100
0010
0000
0010
1000
0000
1000
,
0100
0000
0100
1000
0001
1000
0001
0010
0001
0100
0010
1000
,
0001
1000
0001
1000
0001
0000
0100
0010
0100
0010
0100
0000
0010
0000
0000
0000
1000
0000
0010
0000
0000
0000
0100
0000
,
0001
0010
0100
1000
0100
0010
0001
0000
0100
0010
1000
0001
,
1000
0000
1000
0100
0000
0100
0010
0000
0010
0001
0000
0001
,
0100
0000
0010
1000
0100
0001
1000
0010
0001
1000
0000
0100
,
1000
0010
1000
0010
1000
0000
0001
0100
0001
0100
0001
0000
0010
0000
0000
0000
0001
0000
0010
0000
0000
0000
0100
0000
,
1000
0100
0010
0001
0010
0100
1000
0000
0001
0100
0010
1000
,
0010
0000
0010
0100
0000
0100
0001
0000
0001
1000
0000
1000
,
0010
0000
1000
0001
0100
0001
0010
0100
1000
0100
0010
0001
,
0100
0001
0100
0001
0100
0000
0010
1000
0010
1000
0010
0000
1000
0000
0000
0000
1000
0000
0001
0000
0000
0000
0001
0000
,
0100
0000
0010
0000
1000
0000
0010
0000
0100
0000
0010
0000
1000
0000
0010
0000
0100
0000
0001
0000
0000
0001
0000
0000
,
0011
0011
0000
1001
1001
0000
1100
1100
,
0000
0101
0101
0000
0110
0110
1010
1010
,
0110
0110
0000
1001
1001
0000
1100
1100
,
0000
0101
0101
0000
0011
0011
1010
1010
,
1001
1000
1100
0100
0101
0001
0011
0010
,
1000
1000
1000
0100
0100
0100
0010
0010
0010
0001
0001
0001
,
0100
0010
0000
1000
0001
0000
1010
0000
,
0110
0000
0001
0000
1000
0010
1000
0001
,
0110
0000
0000
0000
0101
0000
0000
0000
0001
0000
1000
0100
1000
0000
0001
0100
,
0001
0000
1000
0010
1000
0000
0001
0010
0001
0000
1000
0100
0010
0000
0001
0000
,
0011
0000
0000
0000
1010
0000
0000
0000
0100
0000
0001
1000
0001
0000
1000
0001
,
1000
0000
0010
0100
0010
0000
0100
0010
0100
0000
0001
0010
0100
0000
1000
0000
,
1100
0000
0000
0000
1001
0000
0000
0000
0010
0000
0100
0001
0100
0000
0001
0010
,
0001
0000
1000
0100
1000
0000
0010
1000
0010
0000
0100
0010
1000
0000
0001
0000
,
0010
0000
0000
0000
0100
0000
0000
0000
0001
0000
1000
0100
1000
0000
0001
0010
,
0001
0000
1000
0010
1000
0000
0001
0100
0001
0000
0010
0100
1000
0000
0001
0000
,
0101
0000
0000
0110
0000
0000
1010
0000
,
1100
0011
1001
0000
;

//---------------dance-single - ----------------
#NOTEDATA:;
#CHARTNAME:;
#STEPSTYPE:dance-single;
#DESCRIPTION:;
#CHARTSTYLE:;
#DIFFICULTY:Medium;
#METER:12;
#RADARVALUES:0.716893,0.712323,0.892574,0.158680,0.297525,506.000000,416.000000,90.000000,16.000000,0.000000,0.000000,0.000000,0.000000,0.000000,0.716893,0.712323,0.892574,0.158680,0.297525,506.000000,416.000000,90.000000,16.000000,0.000000,0.000000,0.000000,0.000000,0.000000;
#CREDIT:;
#DISPLAYBPM:200.000000;
#NOTES:
0000
0000
0000
0000
,
0000
0000
0000
0000
,
0000
0000
0000
0000
,
1001
0000
1000
0100
0010
0000
0001
0000
,
0100
0010
1000
0001
1000
0000
0001
0000
,
0001
0010
0100
1000
0000
0010
0000
0100
,
0220
0000
0000
0330
,
1000
0000
0001
0000
0100
0010
0000
0100
,
0000
0011
0000
1010
0000
1000
0000
0001
,
1000
0000
0100
0000
1000
0010
0000
0100
,
0000
0101
0000
1100
0000
0010
0000
0100
,
0101
0000
0000
1010
0000
0000
1100
0000
,
0000
0011
0000
0000
0110
0000
1001
0000
,
0220
0000
0000
0000
,
0000
0000
0000
0330
,
2000
3200
0320
0032
,
0103
0010
1000
0001
0010
1000
0100
0000
,
1000
0001
0100
0010
1000
0100
0010
0001
,
0000
0100
0010
1000
0000
0100
0010
0001
,
0010
0001
0100
0001
1000
0100
1000
0010
,
0000
1000
0001
0100
0000
0001
1000
0010
,
1000
0100
1000
0001
0010
0001
0100
0010
,
0000
0010
0100
1000
0000
1000
0001
0100
,
0001
0010
0100
1000
0010
0100
0001
1000
,
0000
1000
1100
0000
0001
0100
0101
0000
,
0010
1000
0100
0010
0001
0100
0001
1000
,
0000
1000
0100
0010
0000
0100
0010
0001
,
1000
0001
1000
0010
0100
0001
0100
0010
,
0000
0010
1000
0001
0000
0001
1000
0100
,
0010
0100
1000
0010
1000
0001
0100
0001
,
0000
0010
0001
0100
0000
0010
1000
0001
,
0100
0010
0100
0010
1000
0001
1000
0001
,
0000
0001
0011
0000
1000
0010
1010
0000
,
1000
1000
1000
1000
,
1000
0100
1000
0001
0100
0001
1001
0000
,
0010
0000
1001
0000
1000
0001
0000
0100
,
0000
0011
0000
1100
0000
1000
0001
0000
,
1000
0000
0110
0000
0010
0100
0000
0001
,
0000
0101
0000
1010
0000
0010
0100
0000
,
0001
0000
0011
0000
0010
0100
0000
1000
,
0000
1001
0000
1010
0000
0001
0010
0000
,
0100
0000
0101
0000
0010
1000
0000
0001
,
0000
1000
0100
0000
0110
0000
1100
0000
,
0101
0000
0000
0110
0000
0000
1010
0000
,
0000
1100
0000
0000
1001
0000
0011
0000
,
1001
0000
0000
1010
0000
0000
1100
0000
,
0000
0110
0000
0000
0011
0000
0101
0000
,
0110
1010
0101
1100
,
1000
0000
1000
0001
0000
0001
0100
0000
0100
0010
0000
0010
,
0100
0000
0000
0010
0000
0000
1000
0000
,
0001
0011
1001
0100
,
0010
0000
0010
0100
0000
0100
0001
0000
1000
0000
0000
1100
,
0000
0000
1000
0001
0000
0100
0010
0000
0100
0001
0000
0000
,
1000
0000
1000
0010
0000
0010
0100
0000
0001
0000
0000
0101
,
0000
0000
0001
0100
0000
0010
1000
0000
0000
0011
0000
0000
,
0100
0000
0100
0001
0000
0001
1000
0000
0010
0000
0000
1010
,
0000
0000
1000
0100
0000
1000
0001
0000
0100
0001
0000
0000
,
0001
0000
0001
0010
0000
0010
0100
0000
1000
0000
0000
1001
,
0000
0000
1000
0100
0000
0001
0010
0000
0000
0110
0000
0000
,
0001
0000
0001
0100
0000
0100
0010
0000
0010
0000
0000
1010
,
0000
0000
1000
0100
0000
0010
0001
0000
0100
0001
0000
0000
,
0010
0000
0100
0010
0000
0100
0001
0000
1000
0000
0000
1100
,
0000
0000
1000
0001
0000
0010
0100
0000
0000
0011
0000
0000
,
0010
0000
0010
0100
0000
0100
1000
0000
1000
0000
0000
0101
,
0000
0000
0001
0010
0000
0100
1000
0000
0100
1000
0000
0000
,
0010
0000
0100
0001
0000
0100
0010
0000
1000
0000
0000
0110
,
0000
0000
0000
0000
1000
0000
0100
0000
0000
0000
0010
0000
0001
0000
0000
0000
0000
0000
0100
0000
0000
0010
0000
0000
,
0210
0000
0000
0320
0000
0000
2030
0000
,
0000
3002
0000
0000
0100
0000
0103
0000
,
0110
0000
0000
1001
0000
0000
1100
0000
,
0000
0011
0000
0000
1010
0000
0101
0000
,
1100
1010
1001
0101
,
0001
0000
0001
0010
0000
0010
0100
0000
0100
1000
0000
1000
,
0001
0000
0000
0011
0000
0000
0110
0000
,
0200
0320
2030
3002
,
0013
0000
0101
0000
0001
1000
0000
0100
,
0000
1100
0000
1010
0000
0010
0100
0000
,
0001
0000
0011
0000
1000
0100
0000
0010
,
0000
0110
0000
1001
0000
0001
1000
0000
,
0100
0000
0110
0000
0010
1000
0000
0001
,
0000
1010
0000
0101
0000
0010
1000
0000
,
0100
0000
1001
0000
1000
0010
0000
0001
,
0000
0100
0001
0000
0011
0000
1100
0000
,
1100
0000
0000
1010
0000
0000
0110
0000
,
0101
0011
1001
0000
;

//---------------dance-single - ----------------
#NOTEDATA:;
#CHARTNAME:;
#STEPSTYPE:dance-single;
#DESCRIPTION:;
#CHARTSTYLE:;
#DIFFICULTY:Easy;
#METER:8;
#RADARVALUES:0.498708,0.586619,0.654554,0.059505,0.000000,352.000000,286.000000,66.000000,6.000000,0.000000,0.000000,0.000000,0.000000,0.000000,0.498708,0.586619,0.654554,0.059505,0.000000,352.000000,286.000000,66.000000,6.000000,0.000000,0.000000,0.000000,0.000000,0.000000;
#CREDIT:;
#DISPLAYBPM:200.000000;
#NOTES:
0000
0000
0000
0000
,
0000
0000
0000
0000
,
0000
0000
0000
0000
,
1001
0100
0010
0100
,
0001
1000
0001
1000
0000
0000
0000
0000
,
0100
0010
0000
1000
0000
0001
0000
0000
,
0220
0000
0000
0330
,
0011
1100
1000
0001
,
1000
0100
0010
0001
,
0101
1010
0010
0100
,
0001
0010
0100
1000
,
0011
0000
0000
0110
0000
0000
1100
0000
,
0000
1010
0000
0000
1001
0000
0101
0000
,
0220
0000
0000
0000
,
0000
0000
0000
0330
,
1000
0001
0100
0010
,
0100
0100
0100
1001
,
0001
1000
0010
0100
,
0010
1000
0100
0001
,
0010
0001
0100
1000
,
0001
0100
1000
0010
,
0100
1000
0001
0010
,
1000
0001
0100
0010
,
0100
0001
1000
0010
,
1000
0001
0011
1010
,
0100
0010
0100
1000
,
0001
0010
1000
0001
,
1000
0100
0001
1000
,
0100
0010
0001
0010
,
1000
0001
0100
0001
,
0010
1000
0010
0100
,
0001
0010
0100
1000
,
0010
0100
0101
1100
,
1000
1000
1000
1000
,
1000
0000
1000
0000
1000
0001
0100
0000
,
0010
1100
0000
0001
,
1000
0100
1010
1001
,
0100
0101
0000
0010
,
1000
0001
0011
0110
,
1000
1001
0000
0010
,
0100
0001
0101
0011
,
1000
1010
0000
0001
,
0100
0010
1100
0110
,
0010
0000
0000
0100
0000
0000
0001
0000
,
0000
1000
0000
0000
1010
0000
0011
0000
,
1000
0000
0000
0100
0000
0000
0010
0000
,
0000
0001
0000
0000
0101
0000
1100
0000
,
0010
0010
0100
0100
,
1000
0001
1000
0001
,
1000
0000
0000
0010
0000
0000
0100
0000
,
0010
1000
0110
1001
,
0001
0100
1000
0000
,
0010
1000
0001
0100
,
0010
0100
1000
0000
,
1000
0010
0001
0100
,
0010
0100
0001
0000
,
1000
0100
0010
0001
,
0010
1000
0001
0000
,
0100
0010
0001
1000
,
0010
1000
1010
0000
,
0100
0001
0101
0110
,
0010
0100
1001
0000
,
0001
1000
1100
0011
,
0010
0001
0101
0000
,
0100
1000
1100
1001
,
0010
1000
0011
0000
,
0001
0100
1010
0110
,
0001
0000
0000
0010
0000
0000
0100
0000
,
0000
1000
0000
0000
1010
0000
0101
0000
,
0010
0000
0000
1000
0000
0000
0100
0000
,
0000
0001
0000
0000
0011
0000
1100
0000
,
0010
0010
0100
0100
,
1000
0001
1000
0001
,
0100
0000
0000
0010
0000
0000
1001
0000
,
0220
0000
0000
0330
,
0010
0110
0000
0100
,
0001
1000
1010
0101
,
1000
1001
0000
0010
,
0100
0001
0011
1100
,
0001
0101
0000
0010
,
0100
1000
1100
1010
,
1000
0011
0000
0001
,
0010
0100
0001
1000
,
0001
0000
0000
0100
0000
0000
0010
0000
,
1000
0110
1001
0000
;

//---------------dance-single - ----------------
#NOTEDATA:;
#CHARTNAME:;
#STEPSTYPE:dance-single;
#DESCRIPTION:;
#CHARTSTYLE:;
#DIFFICULTY:Beginner;
#METER:4;
#RADARVALUES:0.266355,0.333228,0.059505,0.059505,0.000000,188.000000,182.000000,6.000000,6.000000,0.000000,0.000000,0.000000,0.000000,0.000000,0.266355,0.333228,0.059505,0.059505,0.000000,188.000000,182.000000,6.000000,6.000000,0.000000,0.000000,0.000000,0.000000,0.000000;
#CREDIT:;
#DISPLAYBPM:200.000000;
#NOTES:
// measure 0
0000
0000
0000
0000
,  // measure 1
0000
0000
0000
0000
,  // measure 2
0000
0000
0000
0000
,  // measure 3
1001
0000
0010
0000
,  // measure 4
1000
1000
1000
0000
,  // measure 5
0001
0000
0100
0000
,  // measure 6
0220
0000
0330
0000
,  // measure 7
0010
0000
1000
0000
,  // measure 8
0001
0001
0001
0000
,  // measure 9
0100
0000
0010
0000
,  // measure 10
1000
1000
1000
0000
,  // measure 11
0001
0000
0000
0100
,  // measure 12
0000
0000
0010
0000
,  // measure 13
0220
0000
0000
0330
,  // measure 14
0000
0000
0000
0000
,  // measure 15
1000
0000
0001
0000
,  // measure 16
0100
0100
0100
0000
,  // measure 17
1001
0000
0100
0000
,  // measure 18
0010
0000
1000
0000
,  // measure 19
0001
0000
0001
0000
,  // measure 20
0010
0000
1000
0000
,  // measure 21
0100
0000
0100
0000
,  // measure 22
0001
0000
0010
0000
,  // measure 23
1000
0000
0001
0000
,  // measure 24
0100
0000
0010
0000
,  // measure 25
0010
0000
1000
0000
,  // measure 26
0100
0000
0100
0000
,  // measure 27
1000
0000
0010
0000
,  // measure 28
0001
0000
0001
0000
,  // measure 29
0100
0000
0001
0000
,  // measure 30
0010
0000
0010
0000
,  // measure 31
0001
0000
0100
0000
,  // measure 32
1000
0000
1000
0000
,  // measure 33
0010
0000
0000
0000
,  // measure 34
0010
0010
0010
0000
,  // measure 35
1000
0000
0100
0000
,  // measure 36
0001
0001
0001
0000
,  // measure 37
0010
0000
0001
0000
,  // measure 38
1000
1000
1000
0000
,  // measure 39
0100
0000
0001
0000
,  // measure 40
0010
0010
0010
0000
,  // measure 41
1000
0000
0010
0000
,  // measure 42
0100
0100
0100
0000
,  // measure 43
0001
0000
0000
1000
,  // measure 44
0000
0000
0010
0010
,  // measure 45
0010
0000
0000
0100
,  // measure 46
0000
0000
1000
1000
,  // measure 47
1000
0000
0001
0000
,  // measure 48
0100
0100
0100
0100
,  // measure 49
0100
0000
0010
0000
,  // measure 50
1000
1000
1000
0000
,  // measure 51
0001
0000
0001
0000
,  // measure 52
1000
0000
1000
0000
,  // measure 53
0010
0000
0010
0000
,  // measure 54
0100
0000
0100
0000
,  // measure 55
1000
0000
1000
0000
,  // measure 56
0001
0000
0001
0000
,  // measure 57
0100
0000
0100
0000
,  // measure 58
0010
0000
0010
0000
,  // measure 59
0010
0010
0010
0000
,  // measure 60
0100
0100
0100
0000
,  // measure 61
0001
0001
0001
0000
,  // measure 62
1000
1000
1000
0000
,  // measure 63
0100
0100
0100
0000
,  // measure 64
0010
0010
0010
0000
,  // measure 65
1000
1000
1000
0000
,  // measure 66
0001
0001
0001
0000
,  // measure 67
0100
0000
0000
0010
,  // measure 68
0000
0000
1000
1000
,  // measure 69
1000
0000
0000
0100
,  // measure 70
0000
0000
0001
0001
,  // measure 71
0001
0000
1000
0000
,  // measure 72
0010
0010
0010
0010
,  // measure 73
0010
0000
0100
0000
,  // measure 74
0220
0000
0330
0000
,  // measure 75
0001
0000
1000
0000
,  // measure 76
0100
0100
0100
0000
,  // measure 77
1000
0000
0001
0000
,  // measure 78
0010
0010
0010
0000
,  // measure 79
0010
0000
0100
0000
,  // measure 80
1000
1000
1000
0000
,  // measure 81
0100
0000
0010
0000
,  // measure 82
0001
0001
0001
0000
,  // measure 83
1000
0000
0001
0000
,  // measure 84
1001
0000
0000
0000
;
