#VERSION:0.83;
#TITLE:NEWALONE;
#SUBTITLE:;
#ARTIST:Masayoshi Iimori;
#TITLETRANSLIT:;
#SUBTITLETRANSLIT:;
#ARTISTTRANSLIT:;
#GENRE:;
#ORIGIN:;
#CREDIT:;
#BANNER:NEWALONE-bn.png;
#BACKGROUND:NEWALONE-bg.png;
#PREVIEWVID:;
#JACKET:NEWALONE-jacket.png;
#CDIMAGE:;
#DISCIMAGE:;
#LYRICSPATH:;
#CDTITLE:;
#MUSIC:NEWALONE.ogg;
#OFFSET:0.050000;
#SAMPLESTART:2.132000;
#SAMPLELENGTH:20.000000;
#SELECTABLE:YES;
#DISPLAYBPM:110.000000;
#BPMS:0.000=110.000;
#STOPS:;
#DELAYS:;
#WARPS:;
#TIMESIGNATURES:0.000=4=4;
#TICKCOUNTS:0.000=4;
#COMBOS:0.000=1;
#SPEEDS:0.000=1.000=0.000=0;
#SCROLLS:0.000=1.000;
#FAKES:;
#LABELS:0.000=Song Start;
#BGCHANGES:;
#KEYSOUNDS:;
#ATTACKS:
;

//---------------dance-single - ----------------
#NOTEDATA:;
#CHARTNAME:;
#STEPSTYPE:dance-single;
#DESCRIPTION:;
#CHARTSTYLE:;
#DIFFICULTY:Hard;
#METER:11;
#RADARVALUES:0.469618,0.636866,0.308992,0.231744,0.334741,383.000000,347.000000,36.000000,27.000000,0.000000,0.000000,0.000000,0.000000,0.000000,0.469618,0.636866,0.308992,0.231744,0.334741,383.000000,347.000000,36.000000,27.000000,0.000000,0.000000,0.000000,0.000000,0.000000;
#CREDIT:;
#DISPLAYBPM:110.000000;
#NOTES:
// measure 0
0000
0000
0000
0000
,  // measure 1
0000
0000
0000
0000
,  // measure 2
0000
0000
0000
0000
,  // measure 3
0000
0000
0000
0000
,  // measure 4
0000
0000
0000
0000
,  // measure 5
0000
0000
0000
0000
,  // measure 6
0000
0000
0000
0000
,  // measure 7
0000
0000
0000
0000
,  // measure 8
0000
0000
0000
0000
,  // measure 9
1001
0000
0000
0000
0100
0000
0010
0000
1000
0100
1000
0100
1000
0000
0000
0000
,  // measure 10
0011
0000
0000
0000
1000
0000
0001
0000
0100
0010
0100
0010
0100
0000
0000
0000
,  // measure 11
1010
0000
0000
0000
0001
0000
0100
0000
0001
0010
0001
0010
0001
0000
0000
0000
,  // measure 12
0110
0000
0000
0000
1000
0000
0100
0000
0010
0001
0010
0001
0010
0000
0000
0000
,  // measure 13
1000
0100
0001
0010
0100
0010
1000
0001
,  // measure 14
0010
0100
1000
0010
0100
0001
1000
0001
,  // measure 15
1000
1000
0001
0001
0100
0100
0010
0010
,  // measure 16
1000
0100
0010
0001
0101
0000
1100
0000
,  // measure 17
0001
1000
0000
0000
0020
0000
1030
0100
0000
1000
0001
1000
0002
0000
0000
0000
,  // measure 18
0103
0010
0100
0010
0100
0000
0001
1000
0000
1000
0100
1000
0100
0000
0010
0000
,  // measure 19
0001
0100
0000
0000
0020
0000
0130
0010
0000
1000
0001
1000
0001
0000
0000
0000
,  // measure 20
1000
0000
0000
0000
0100
0000
0000
0000
0010
0000
0000
0000
0001
0000
0000
0000
0000
0000
0100
0000
0000
0010
0000
0000
0000
0000
0000
0100
0000
0000
0010
0000
0000
0000
0000
0000
1000
0000
0000
0001
0000
0000
1000
0000
0000
0001
0000
0000
,  // measure 21
1000
0100
0000
0000
2000
0000
3001
0100
0000
0001
0010
0001
0010
0000
0000
0000
,  // measure 22
0101
0000
0101
0000
2000
0000
3100
1000
0000
0001
0100
0000
0020
0000
0000
0000
,  // measure 23
0130
0000
0000
0000
0002
0000
0103
0001
0000
1000
0010
1000
0010
0000
0000
0000
,  // measure 24
1010
0101
0011
1100
,  // measure 25
0010
0100
0010
0100
0001
1000
0100
0000
1100
0000
1100
0000
1001
0000
1001
0000
,  // measure 26
0020
0000
0000
0000
0130
0001
1000
0000
0011
0000
0011
0000
0110
0000
0110
0000
,  // measure 27
2000
0000
0000
0000
3100
0010
0001
0000
0101
0000
0101
0000
1100
0000
1100
0000
,  // measure 28
0020
0000
0000
0000
0130
0000
0100
0000
0001
0000
0001
0000
1000
0010
1000
0000
,  // measure 29
1001
0100
1000
0001
,  // measure 30
0010
0100
1000
0010
,  // measure 31
1000
0001
0100
1000
,  // measure 32
0010
1000
0001
1002
,  // measure 33
0103
0010
1000
0010
0001
0100
1000
0001
,  // measure 34
0010
0100
0001
0010
1000
0100
0001
1000
,  // measure 35
0001
1000
0010
0100
0001
0010
0100
1000
,  // measure 36
0001
0010
0100
1000
1010
0000
0011
0000
,  // measure 37
1000
0100
0001
0100
2000
0000
0000
0000
3002
0000
0000
0000
0203
0000
0000
0000
,  // measure 38
0310
0000
0000
0100
0000
0000
0001
0000
0000
0010
0000
0000
0100
0000
0000
1000
0000
0000
0010
0000
1000
0000
0001
0000
,  // measure 39
0100
1000
0100
0001
0200
0000
0000
0000
0310
0100
0010
0000
1010
0000
0000
0000
,  // measure 40
0001
0000
0000
0000
1000
0000
0000
0000
0010
0000
0000
0000
0100
0000
0000
0000
0000
0000
0001
0000
0000
0010
0000
0000
0000
0000
0000
0100
0000
0000
1000
0000
0000
0000
0000
0000
0010
0000
0000
0100
0000
0000
0001
0000
0000
1000
0000
0000
,  // measure 41
0010
0100
0010
0100
0002
0000
0000
0000
2003
0000
0000
0000
3200
0000
0000
0000
,  // measure 42
1300
0001
0100
0001
0010
0100
1000
0110
,  // measure 43
0001
0000
0000
0000
0201
0000
0000
0000
0310
1000
0000
1000
0200
0000
0000
0000
,  // measure 44
1300
0000
1000
0000
0001
0000
0001
0000
1000
0001
1000
0001
0020
0000
0000
0000
,  // measure 45
0031
0100
1000
0100
0001
0000
1100
0000
0010
0000
0000
0000
1001
0000
0000
0000
,  // measure 46
0010
1000
0100
0010
0001
0100
1000
0011
,  // measure 47
1000
0010
1000
0010
2000
0000
3002
0000
0103
0010
0100
0001
1000
0000
0000
0000
,  // measure 48
0010
0000
0000
0000
1000
0000
0000
0000
0100
0000
0000
0000
0001
0000
0000
0000
0000
0000
0100
0000
0000
1000
0000
0000
0000
0000
0000
0001
0000
0000
0100
0000
0000
0000
0000
0000
0001
0000
0000
0010
0000
0000
1000
0000
0000
0010
0000
0000
,  // measure 49
0001
0100
0010
0100
0002
0000
0000
0000
2003
0000
0000
0000
3200
0000
0000
0000
,  // measure 50
1300
0000
0001
0000
0100
0000
0010
0000
1000
0000
0100
0000
0001
0000
0010
0100
,  // measure 51
1000
0000
0000
0120
0000
0000
0130
0010
0100
0010
0000
0000
,  // measure 52
1000
0100
0010
0001
,  // measure 53
1001
0000
0000
0000
;
