#TITLE:MENDES;
#SUBTITLE:;
#ARTIST:Humanoid;
#TITLETRANSLIT:;
#SUBTITLETRANSLIT:;
#ARTISTTRANSLIT:;
#GENRE:;
#CREDIT:;
#BANNER:MENDES-bn.png;
#BACKGROUND:MENDES-bg.png;
#LYRICSPATH:;
#CDTITLE:;
#MUSIC:MENDES.ogg;
#OFFSET:0.000000;
#SAMPLESTART:11.429000;
#SAMPLELENGTH:20.000000;
#SELECTABLE:YES;
#DISPLAYBPM:168.000000;
#BPMS:0.000000=168.000000
;
#STOPS:
;
#BGCHANGES:;
#KEYSOUNDS:;
#ATTACKS:;

//---------------dance-single - ----------------
#NOTES:
     dance-single:
     :
     Hard:
     12:
     0.616996,0.658819,0.377471,0.316022,0.118508,492.000000,449.000000,43.000000,36.000000,0.000000,0.000000,0.616996,0.658819,0.377471,0.316022,0.118508,492.000000,449.000000,43.000000,36.000000,0.000000,0.000000:
// measure 0
0000
0000
0000
0000
,  // measure 1
0000
0000
0000
0000
,  // measure 2
0000
0000
0000
0000
,  // measure 3
0000
0000
0000
0000
,  // measure 4
0010
0010
0010
0010
,  // measure 5
0010
0000
0010
0000
0010
1000
0001
1000
,  // measure 6
0100
0100
0100
0100
,  // measure 7
0100
1000
0010
0100
0001
0010
0001
1000
,  // measure 8
1100
0000
0101
0000
1001
0010
1000
0001
,  // measure 9
0010
0100
1000
0000
1010
0001
1000
0001
,  // measure 10
0010
0100
1000
0000
0011
0100
0001
0010
,  // measure 11
0001
0100
1000
0000
0110
0010
1000
0100
,  // measure 12
0010
0001
0100
0000
1001
0001
1000
0010
,  // measure 13
1000
0100
0001
0000
0011
0100
0001
0010
,  // measure 14
0100
1000
0001
0000
2100
0010
3010
0000
,  // measure 15
0201
0010
0310
0000
0001
0100
1000
0010
,  // measure 16
1000
0001
0100
0000
0110
0001
1000
0001
,  // measure 17
1000
0100
0010
0000
1100
0001
1000
0100
,  // measure 18
0001
0010
0100
0000
0011
0100
0010
0100
,  // measure 19
0001
0010
1000
0000
1010
0001
1000
0001
,  // measure 20
0010
1000
0100
0000
0110
0100
1000
0010
,  // measure 21
0100
0001
0010
0000
0101
1000
0001
1000
,  // measure 22
0010
1000
0100
0000
0012
0100
0103
0000
,  // measure 23
1020
0100
0130
0000
0001
1000
0100
1000
,  // measure 24
0010
0100
0001
0010
0100
0100
0110
0000
,  // measure 25
1001
0000
0010
1010
0000
0101
0000
0001
,  // measure 26
1000
1000
0000
0010
0010
0100
0001
0010
,  // measure 27
0100
1000
0001
0001
0011
0000
1100
0000
,  // measure 28
0010
1001
0000
1100
0000
0010
0010
1000
,  // measure 29
0000
0001
0001
0100
0001
0010
0100
1000
,  // measure 30
0010
0100
0010
1000
0010
0001
0100
0001
,  // measure 31
0100
0010
0100
1000
0001
0100
0001
1000
,  // measure 32
0001
0010
2020
0000
0000
0000
0000
0000
,  // measure 33
0000
0000
0000
0000
,  // measure 34
0030
0002
3000
0200
,  // measure 35
0003
0000
0000
0310
0000
0010
1000
0000
1000
0100
0000
0100
,  // measure 36
0001
0000
0001
0020
0000
0000
0030
0000
0000
2200
0000
0000
,  // measure 37
0300
0000
0000
3001
0000
0001
0100
0000
0100
0010
0000
0010
,  // measure 38
1000
0000
1000
0020
0000
0000
0100
0000
0000
0001
0000
0000
,  // measure 39
1030
0000
0000
0001
0000
0001
1000
0000
1000
0010
0000
0010
,  // measure 40
0100
0000
0100
0002
0000
0000
0003
0000
0000
1001
0000
0000
,  // measure 41
0110
0000
0000
0100
0000
0100
0001
0000
0001
0010
0000
0010
,  // measure 42
1000
0000
1000
0002
0000
0000
0000
0000
0000
0013
0000
0000
,  // measure 43
0000
0000
0001
1000
0000
0100
0000
1000
,  // measure 44
0001
0010
0100
0001
0000
0100
1000
0001
,  // measure 45
0000
0000
0010
0000
0100
0000
0001
0000
0000
0000
1000
0000
0010
0000
0000
0100
,  // measure 46
0000
0001
0012
0000
1003
0000
2100
0000
,  // measure 47
3001
0000
1010
0001
0100
0010
1000
0001
,  // measure 48
0100
0000
0001
0010
0010
0100
1000
1000
,  // measure 49
0001
0100
0010
1000
0100
0010
0001
0100
,  // measure 50
0110
0002
1000
0023
,  // measure 51
0130
0000
1100
0001
1000
0010
1000
0100
,  // measure 52
0001
0000
0010
0100
0100
1000
0001
0001
,  // measure 53
1000
0010
0100
0010
1000
0001
0010
0100
,  // measure 54
1000
0000
1002
0010
0013
0000
0102
1000
,  // measure 55
1003
0000
0000
0000
2010
0000
0001
0000
3001
0000
0000
0000
1000
0000
0000
0100
,  // measure 56
0000
0010
0002
0100
0103
0000
0021
0100
,  // measure 57
0130
0000
0000
0000
1200
0000
1000
0000
1300
0000
0000
0000
0001
0000
0000
0100
,  // measure 58
0000
0010
1000
0100
0010
0001
0100
0010
,  // measure 59
1000
0001
0020
0000
0030
0000
0101
0000
,  // measure 60
1100
0000
0010
0100
2000
0000
3001
1000
,  // measure 61
0001
0100
0020
0000
1030
0001
0010
1000
,  // measure 62
0002
0000
0103
0001
1000
0010
0200
0000
,  // measure 63
0301
0010
0100
1000
0002
0000
1003
0010
,  // measure 64
0001
0100
0020
0000
1030
0100
0010
0001
,  // measure 65
2000
0000
3001
0100
0001
0010
0200
0000
,  // measure 66
1300
0000
0001
0000
0010
0000
0001
0000
0100
0000
0000
0010
1000
0000
0001
0000
,  // measure 67
1000
0000
0100
0000
0010
0000
0000
0001
1000
0000
0010
0000
1000
0000
0100
0000
,  // measure 68
0001
0000
0000
0010
0100
0000
1000
0000
0100
0000
0010
0000
0100
0000
0000
1000
,  // measure 69
0001
0000
0010
0000
0001
0000
0100
0000
1000
0000
0000
0001
0010
0000
0100
0000
,  // measure 70
1000
0000
0001
0000
1000
0000
0000
0010
0100
0000
0001
0000
0010
0000
0100
0000
,  // measure 71
1000
0000
0001
0100
0001
0000
1000
0000
0100
0000
0010
0000
0001
0000
1000
0010
,  // measure 72
1000
0100
0010
0001
0010
1000
0010
0100
,  // measure 73
0001
0010
0001
0100
0001
1000
0100
0001
,  // measure 74
0100
1000
0100
0010
2000
0000
0000
0000
,  // measure 75
0000
0000
0000
3010
,  // measure 76
0220
0000
0000
0000
,  // measure 77
0000
0000
0000
0000
,  // measure 78
0000
0000
0000
0000
,  // measure 79
0330
0000
0000
0000
;
