#TITLE:MANDARA RENREN;
#SUBTITLE:;
#ARTIST:BEMANI Sound Team "Akhuta Works" feat. Nana Takahashi;
#TITLETRANSLIT:;
#SUBTITLETRANSLIT:;
#ARTISTTRANSLIT:;
#GENRE:;
#CREDIT:;
#BANNER:MANDARA RENREN-bn.png;
#BACKGROUND:MANDARA RENREN-bg.png;
#LYRICSPATH:;
#CDTITLE:;
#MUSIC:MANDARA RENREN.ogg;
#OFFSET:0.909000;
#SAMPLESTART:11.212000;
#SAMPLELENGTH:20.000000;
#SELECTABLE:YES;
#DISPLAYBPM:198.000000;
#BPMS:0.000000=198.000000
;
#STOPS:109.000000=0.606000,
123.000000=0.606000,
138.000000=0.303000,
233.000000=0.303000,
282.000000=1.212000
;
#BGCHANGES:;
#KEYSOUNDS:;
#ATTACKS:;

//---------------dance-single - ----------------
#NOTES:
     dance-single:
     :
     Hard:
     17:
     0.916775,0.967513,0.555197,0.228611,0.436810,786.000000,718.000000,68.000000,28.000000,0.000000,0.000000,0.916775,0.967513,0.555197,0.228611,0.436810,786.000000,718.000000,68.000000,28.000000,0.000000,0.000000:
0000
0000
0000
0000
,
0000
0000
0000
0000
,
0000
0000
0000
0000
,
0000
0000
0000
0000
,
0000
0000
0000
0000
,
0120
0000
1030
0100
0010
0000
0101
0000
,
2100
0000
3001
1000
0100
0000
0011
0000
,
1002
0000
0103
0001
1000
0000
1010
0000
,
1000
0100
0010
0001
0100
0010
1000
0001
,
0010
0000
0100
0000
1000
0000
0001
0000
0100
0001
0100
0001
1000
0010
1000
0010
,
0100
0001
1000
0100
0010
0001
1000
0100
,
1000
0001
0010
0100
0010
0100
1000
0001
,
0100
0001
0100
0010
1000
0100
0010
0001
,
0100
0001
1000
0010
1000
0100
1010
0000
,
0001
0100
0010
1000
0100
0010
0100
1000
,
0001
0100
1000
0010
0100
1000
0010
0001
,
0100
0001
0010
0100
1000
0001
0100
0010
,
1000
0001
0010
0100
0010
0001
0101
0000
,
1000
0000
0001
0000
0100
0000
0001
0000
0010
0100
1000
0000
0000
0000
1001
0000
,
0000
0110
0000
0000
0100
0000
0001
0000
1000
0100
1000
0000
0001
0100
0001
0000
,
0010
0000
0001
0000
0100
0000
0001
0000
1000
0001
0100
0000
0000
0000
0101
0000
,
0000
1100
0000
0000
1000
0000
0001
0000
0010
0100
0010
0000
0100
0010
0100
0000
,
1000
0000
0100
0000
1000
0000
0001
0000
0010
0001
0100
0000
0000
0000
0110
0000
,
0000
1010
0000
0000
1000
0000
0001
0000
0100
0001
0010
0000
0100
1000
0010
0000
,
1000
0000
0010
0000
0100
0000
0010
0000
1000
0100
0001
0000
0000
0000
0011
0000
,
0000
1100
0000
0000
0001
0000
0100
0000
1000
0001
0010
0000
0001
0100
0010
0000
,
1000
0100
0100
0100
1000
0001
0100
0120
,
0000
1000
1030
0000
0001
0100
0100
0100
,
0001
0010
0100
2100
0000
0001
3001
0000
,
0012
0000
0203
0000
0310
1000
1000
1000
,
0100
0010
0001
2001
0000
0010
3010
0000
,
1000
0001
0001
0001
0010
0100
1000
1020
,
0000
0000
0100
0000
0130
0000
0001
1000
0001
0000
0001
0000
0100
0000
0100
0000
,
0010
1000
0010
0000
0100
0000
0100
0000
0101
0000
1000
0000
0000
0000
1100
0000
,
0000
1100
0000
0000
0001
1000
0001
1000
0001
0000
0000
0000
0001
0100
0001
0100
,
0001
0000
1000
0000
1010
0000
0001
0000
0000
0000
0110
0000
0000
0110
0000
0000
,
0010
1000
0010
1000
0002
0000
0100
0000
1003
0000
0000
0000
0010
0100
0010
0100
,
0010
0100
0010
0000
1010
0000
1000
0000
0000
0000
0101
0000
0000
0101
0000
0000
,
0001
1000
0010
1000
0001
0000
0010
0000
0100
0000
1000
0000
0001
0100
0001
0100
,
0001
1000
0010
1000
0100
0000
0001
1000
,
0010
0100
0001
0010
0100
1000
0002
0100
,
0103
0010
2000
0100
3001
0000
1020
0000
,
0130
0001
0012
0000
1003
0000
1100
0000
,
0011
1100
0101
1001
,
0110
0000
1001
0000
0010
0000
2000
0001
,
3001
0010
0200
0010
1300
0000
0120
0000
,
0031
0100
2001
0000
3010
0000
0101
0000
,
1100
0101
1010
0110
,
1001
0000
0110
0000
1000
1000
1000
0100
,
0001
1000
0010
0001
1000
0100
0001
0100
,
1000
0001
0010
1000
0001
0100
1000
0010
,
0001
1000
0100
0001
1000
0010
0001
0010
,
1000
0001
0100
1000
0010
0000
0100
0001
,
0010
0100
1000
0010
0001
0010
1000
0001
,
0010
0100
1000
0010
0100
1000
0100
0001
,
0010
0000
0000
0001
0000
0000
0100
0000
0000
0010
0000
0000
0100
0000
0000
0010
0000
0000
1000
0000
0100
0000
1000
0000
,
0001
0000
0100
0000
0001
0000
1000
0000
0100
0000
0010
0000
0001
0000
0010
0000
0100
0000
1000
0000
0000
0010
0000
0000
,
0010
0000
0010
0000
1000
0001
0100
0001
1000
0000
1010
0000
0000
0000
0110
0000
,
0010
1000
0001
1000
0001
0000
0000
0000
0100
0010
0100
0010
0100
0010
0100
0000
,
0001
0000
0001
0000
1000
0000
1100
0000
0000
1010
0000
0000
0100
0001
0100
0001
,
1000
0000
0100
0010
0001
0000
0000
0000
0010
0001
0010
0001
0010
0001
0010
0000
,
0100
0000
0100
0000
1000
0000
1001
0000
0000
1010
0000
0000
1000
0100
0010
0100
,
1000
0001
0001
0001
0101
0000
0100
0010
,
1010
1000
0001
0000
0010
0001
0100
0010
,
1000
0100
0001
0000
0101
0000
1000
0100
,
0010
0000
0100
0000
1000
0000
0000
0000
0001
0100
0000
0000
1000
0100
0000
0000
,
0001
0100
0000
0000
1010
0000
0000
0000
1100
0000
0000
0000
0001
0000
1000
0000
,
0100
0000
0010
0000
0001
0000
0000
0000
1000
0010
0000
0000
0001
0010
0000
0000
,
1000
0010
0000
0000
0011
0000
0000
0000
2000
0000
0100
0000
3100
0000
0020
0000
,
0001
0031
0200
0001
0301
2000
0001
3001
,
2000
0100
3001
0000
1002
0000
0010
0000
,
0010
0000
0000
0000
0013
0000
0000
0000
0001
1000
0001
1000
0001
0000
0100
0000
,
1000
0000
0010
0000
0100
0000
0000
0000
0001
0010
0001
0010
0001
0000
0100
0000
,
0010
0000
1000
0000
0100
0000
0000
0000
1000
0010
1000
0010
1000
0000
0100
0000
,
1000
0000
0001
0000
0010
0000
0000
0000
0001
0100
0001
0100
0001
0000
0010
0000
,
0100
0000
1000
0001
0100
0000
0000
0000
0110
0000
0000
0000
1000
0010
1000
0000
,
0010
0100
0010
0000
0100
0001
0100
0000
0001
0000
0000
0000
0001
0000
0100
0000
,
1000
0010
0100
0000
0001
0010
0100
0000
1000
0100
0000
0000
0100
0001
0000
0000
,
1000
0010
0000
0000
0010
0001
0000
0000
0100
0000
0001
0000
0100
0000
0010
0000
,
1000
0000
0100
0000
0001
0000
0000
0000
0100
0010
0100
0010
0100
0000
0001
0000
,
0010
0000
0100
0000
1000
0000
0000
0000
0010
1000
0010
1000
0010
0000
1000
0000
,
0100
0000
0010
0000
0001
0000
0000
0000
0100
0001
0100
0001
0100
0000
0001
0000
,
1000
0000
0100
0000
0010
0000
0000
0000
0100
1000
0100
1000
0100
0000
0010
0000
,
0001
0000
1000
0010
0100
0000
0000
0000
1001
0000
0000
0000
0101
0000
0000
0000
,
1001
0000
0000
0000
1100
0000
0000
0000
1001
0000
1000
0010
0100
0000
0001
0000
,
0010
0000
0100
0000
1000
0000
0000
0000
0010
1000
0000
0000
1000
0100
0000
0000
,
0100
0010
0000
0000
0010
0001
0000
0000
0100
0000
0010
0000
1000
0000
0000
0000
,
0001
0010
0001
0010
0100
1000
0100
1000
0010
0000
1000
0000
0100
0000
0010
0000
,
0100
0001
0100
1000
0001
0100
1000
0010
,
1000
0001
1000
0100
1000
0100
0001
0010
,
0100
0001
1000
0010
0100
0001
1000
0100
,
0010
0001
1001
0000
0010
0001
0010
1000
,
0100
0010
1000
0001
0010
0001
0100
1000
,
0001
1000
0001
1000
0010
0100
0001
0010
,
0100
1000
0001
1000
0020
0100
0130
0010
,
2000
0000
3002
0000
0103
0001
0100
0010
,
1000
0100
1000
0000
0000
0000
0010
0000
0000
0010
0000
0000
1000
0000
0100
0000
,
0010
0001
0100
0010
2000
0000
0000
0000
,
0000
0000
0000
3000
;

//---------------dance-single - ----------------
#NOTES:
     dance-single:
     :
     Medium:
     13:
     0.686998,0.725635,0.555197,0.277599,0.036741,589.000000,521.000000,68.000000,34.000000,0.000000,0.000000,0.686998,0.725635,0.555197,0.277599,0.036741,589.000000,521.000000,68.000000,34.000000,0.000000,0.000000:
0000
0000
0000
0000
,
0000
0000
0000
0000
,
0000
0000
0000
0000
,
0000
0000
0000
0000
,
0000
0000
0000
0000
,
0020
0000
1030
0001
0100
0000
0100
0000
,
0002
0000
0103
0010
1000
0000
1000
0000
,
0200
0000
1300
0001
0010
0000
0010
0000
,
1001
0000
1000
0100
0000
0100
0001
0000
,
0001
0010
0000
0010
1000
0100
0010
0001
,
0100
0000
0100
0001
1000
0001
0100
0000
,
0010
0000
0010
1000
0001
1000
0010
0000
,
1000
0000
1000
0100
0010
0001
0100
0010
,
1000
1100
1002
0103
,
1000
0000
0001
0100
0001
1000
0001
0000
,
0010
0000
1000
0100
1000
0010
0100
0000
,
0001
0100
1000
0100
0001
0010
0100
0000
,
2000
3010
1001
0101
,
0001
0100
0001
0100
1000
1000
0000
0010
,
0000
0010
0000
0000
1000
0000
0100
0000
1000
0000
0001
0000
0010
0000
0100
0000
,
1000
0001
1000
0001
0100
0100
0000
0010
,
0000
0010
0000
0000
1000
0000
0001
0000
0010
0000
0001
0000
0100
0000
0010
0000
,
1000
0010
1000
0010
0100
0100
0000
0001
,
0000
0001
0000
0000
0001
0000
1000
0000
0100
0000
0010
0000
0100
0000
1000
0000
,
0100
0010
0100
0010
0001
0001
0000
1000
,
0000
1000
0000
0000
1000
0000
0001
0000
0010
0000
0100
0000
0010
0000
0100
0000
,
0000
1000
0100
1000
0001
0001
0000
0210
,
0000
0000
0310
0000
0000
1000
0001
0100
,
0010
0010
0000
2000
0000
0001
3001
0000
,
0102
0000
0013
0000
0000
0001
1000
0100
,
0010
0010
0000
0210
0000
0000
1300
0000
,
0000
1000
0001
0100
0001
0001
0000
0020
,
0000
0031
0010
0100
1000
0000
0101
0000
,
0001
0100
0100
0010
1000
1000
0001
0201
,
0000
0010
0310
0000
0110
0000
1000
0100
,
0100
0010
0001
0001
0100
0120
0000
1000
,
1030
0000
1100
0000
0101
0000
0010
0001
,
0001
0100
0010
0010
1000
2100
0000
0001
,
3001
0000
0000
0100
0010
0100
0110
0000
,
1000
0100
0002
0000
2003
0000
3010
1000
,
0010
1000
0100
0010
0001
0000
0010
0000
,
0010
0001
0100
0000
1001
0000
0010
0000
,
0010
1000
0100
0000
1001
0000
0011
0000
,
0011
1100
1100
1001
,
0110
1001
0000
1000
,
1000
0001
0100
0000
0110
0000
1000
0000
,
1000
0001
0010
0000
0110
0000
1100
0000
,
1100
0101
0101
1001
,
0110
1001
0010
1000
,
1000
0100
0000
0100
0001
0000
0001
0010
,
0000
0010
1000
0000
1010
0000
0011
0000
,
0001
0100
0000
0010
1000
0000
0100
0100
,
0100
2002
3000
0010
,
0013
0001
0000
0001
0100
0000
0100
1000
,
0000
1000
0010
0000
0110
0000
0100
0000
,
1000
0000
0000
1000
0000
0000
0000
0000
0000
0001
0000
0000
0001
0000
0000
0000
0000
0000
2000
0000
0000
0000
3200
0000
,
0000
0000
2300
0000
0000
0000
3002
0000
0000
0000
0203
0000
0000
0000
0302
0000
0000
0000
1003
0000
0000
0001
0000
0000
,
0001
0001
0010
0100
1000
2100
0000
0010
,
3010
0100
0110
0000
0001
1000
1000
1000
,
0001
0100
0010
0210
0000
0010
0310
0000
,
1001
0000
1100
0000
1000
0010
0010
0010
,
1000
0001
0010
0012
0000
1000
1003
0000
,
0000
0010
0100
0010
1010
0000
1000
0001
,
0200
0000
0320
0000
0230
0000
0301
0010
,
0100
1000
0001
0000
0100
0000
0001
0010
,
1000
1000
1100
0011
,
1100
0000
0000
0000
0010
0000
1000
0100
,
0001
0001
0101
1010
,
0101
0000
0000
0000
0010
0000
1000
0100
,
0000
0100
0010
0000
0010
0001
0000
0001
,
1000
0010
1002
0010
,
0010
0000
0013
0000
0001
0010
0100
1000
,
0010
0100
0001
0000
1000
0001
0100
0010
,
1000
0100
0001
0000
0010
0001
0100
0001
,
1000
0001
1000
0000
0010
1000
0100
1000
,
0100
0010
0001
0000
0010
0000
0011
0000
,
1100
0000
0101
0000
1010
0000
1000
0001
,
0100
0001
0010
0000
1100
0000
0110
0000
,
0011
0000
0100
0001
1000
0000
0100
0010
,
0002
0000
0003
0000
0001
1000
0100
0010
,
0100
0010
0001
0000
0100
0001
1000
0100
,
1000
0010
0100
0000
0001
1000
0100
0010
,
0001
0100
1000
0000
0100
1000
0001
0010
,
0100
0010
0100
0000
1000
0000
1100
0000
,
0011
0000
1010
0000
0101
0000
0010
0001
,
0100
0001
0010
0000
1001
0000
0100
0001
,
1000
0001
0100
0000
0020
0000
1000
0000
,
0001
0000
0130
0000
0010
0000
1000
0100
,
0010
0001
0100
0000
0001
0000
1000
0001
,
0010
0100
1000
0000
0010
0000
0100
0001
,
1000
0100
0010
0001
0100
0000
0110
0000
,
1001
0000
0100
0000
1000
0000
0001
1000
,
0100
0010
0001
0000
0010
0000
0001
0100
,
0001
0010
1000
0000
0001
0100
0001
0100
,
0010
1000
0001
0000
0020
0000
0031
0000
,
0101
0000
1001
0000
1000
0001
1000
0001
,
0100
0000
0100
0000
0000
0000
0010
0000
0000
0010
0000
0000
1000
0000
0100
0000
,
0010
0001
0100
0010
2000
0000
0000
0000
,
0000
0000
0000
3000
;

//---------------dance-single - ----------------
#NOTES:
     dance-single:
     :
     Easy:
     10:
     0.510875,0.604695,0.538868,0.359245,0.000000,438.000000,372.000000,66.000000,44.000000,0.000000,0.000000,0.510875,0.604695,0.538868,0.359245,0.000000,438.000000,372.000000,66.000000,44.000000,0.000000,0.000000:
// measure 0
0000
0000
0000
0000
,  // measure 1
0000
0000
0000
0000
,  // measure 2
0000
0000
0000
0000
,  // measure 3
0000
0000
0000
0000
,  // measure 4
0000
0000
0000
0000
,  // measure 5
0020
1000
0130
0000
,  // measure 6
0020
0001
0130
0000
,  // measure 7
1000
0100
0001
0100
,  // measure 8
1000
0001
1000
0001
,  // measure 9
0010
0100
0010
0100
,  // measure 10
1000
0001
0101
0101
,  // measure 11
0001
1000
1100
1100
,  // measure 12
0010
1001
0100
1001
,  // measure 13
0002
1000
0103
0000
,  // measure 14
0010
0100
1010
1010
,  // measure 15
0100
0010
0011
0011
,  // measure 16
1000
0001
0100
0010
,  // measure 17
2000
0000
0100
3100
,  // measure 18
1000
0000
0001
0000
0100
0100
0000
0010
,  // measure 19
0000
1000
0001
0000
0010
0000
0100
0000
,  // measure 20
1000
0000
0100
0000
0001
0001
0000
1000
,  // measure 21
0000
0010
0100
0000
0001
0000
1000
0000
,  // measure 22
0100
0000
1000
0000
0010
0010
0000
1000
,  // measure 23
0000
0001
0100
0000
0010
0000
1000
0000
,  // measure 24
0001
0000
0010
0000
1000
1000
0000
0100
,  // measure 25
0000
1000
0100
0000
0010
0000
0001
0000
,  // measure 26
0000
0000
0100
0000
0001
0010
0000
0002
,  // measure 27
0000
1003
0000
0010
,  // measure 28
1000
0001
0000
0000
0100
0000
0010
0000
,  // measure 29
2000
3001
0000
0001
,  // measure 30
1000
0100
0000
2000
0000
0000
3010
0000
,  // measure 31
0000
0000
1000
0000
0100
1000
0000
0002
,  // measure 32
0000
0100
0100
0000
1000
0000
0103
0000
,  // measure 33
1000
0000
1001
0000
0010
0010
0000
0100
,  // measure 34
0000
0001
1000
0001
1000
0000
0010
0000
,  // measure 35
0110
0000
0100
0100
0000
0001
0000
1000
,  // measure 36
0100
1100
0011
0010
,  // measure 37
0101
0000
1000
1000
0000
0010
0000
0100
,  // measure 38
0001
0100
0001
0000
1001
0000
0002
0000
,  // measure 39
2003
3020
0230
0310
,  // measure 40
1000
0001
1001
0020
,  // measure 41
0030
1000
0100
0000
0110
0000
1000
0000
,  // measure 42
0100
0010
0002
0000
0003
0000
0010
0000
,  // measure 43
0010
0100
0100
0110
,  // measure 44
1001
0110
0000
2000
,  // measure 45
3000
0001
0010
0000
0011
0000
0100
0000
,  // measure 46
0001
1000
0200
0000
0300
0000
1000
0000
,  // measure 47
1000
0001
0001
0110
,  // measure 48
1001
0110
0000
1000
,  // measure 49
1100
0001
0101
0010
,  // measure 50
0100
0110
0110
0001
,  // measure 51
0011
1000
1010
0010
,  // measure 52
0100
1001
0000
1000
,  // measure 53
0110
0001
0110
0100
,  // measure 54
0010
1001
1001
1000
,  // measure 55
0101
0001
1010
0020
,  // measure 56
0230
0302
2003
3010
,  // measure 57
1010
0000
0100
0100
0000
1000
0000
0001
,  // measure 58
0010
0001
1000
0000
0010
0000
0101
0000
,  // measure 59
0001
0001
0000
2000
0000
0001
3001
0000
,  // measure 60
0011
1001
0100
1100
,  // measure 61
0001
0001
0000
0010
0000
0001
0100
0001
,  // measure 62
1000
0110
2000
3002
,  // measure 63
0203
0320
2030
0000
,  // measure 64
0000
3001
1000
0100
,  // measure 65
0010
0001
0100
0100
,  // measure 66
0200
0300
0001
0010
,  // measure 67
0100
1000
0010
0010
,  // measure 68
0020
0030
0100
0101
,  // measure 69
0100
0101
0100
0101
,  // measure 70
1000
0001
2002
3000
,  // measure 71
0010
0000
0013
0000
0002
0000
0003
1000
,  // measure 72
0100
0000
0010
0000
0001
0000
1000
0100
,  // measure 73
1000
0000
0010
0000
0200
0000
0300
0001
,  // measure 74
1000
0000
0010
0000
1000
0000
0001
0100
,  // measure 75
0020
0030
1000
1100
,  // measure 76
0101
0000
1100
0000
1001
0000
0100
0010
,  // measure 77
0100
0000
0001
1000
0001
0000
0010
0000
,  // measure 78
1000
0000
0100
1000
0001
0000
0100
0010
,  // measure 79
0200
0000
0300
0000
0020
0000
0030
0100
,  // measure 80
0001
0000
1000
0000
0100
0000
1000
0010
,  // measure 81
1000
0000
0001
0000
0020
0000
0030
0001
,  // measure 82
1000
0000
0100
0000
0001
0000
0100
0010
,  // measure 83
2000
3000
0010
1010
,  // measure 84
0011
0000
1010
0000
1001
0000
0100
0001
,  // measure 85
1000
0000
0010
0000
1000
0000
0010
0100
,  // measure 86
0010
1000
0002
0000
,  // measure 87
0000
0003
0010
0001
,  // measure 88
0101
0101
1000
0100
,  // measure 89
1100
1100
1000
1001
,  // measure 90
0100
0110
2000
0100
,  // measure 91
3001
0000
0010
1000
,  // measure 92
1010
1010
0100
0001
,  // measure 93
0011
0011
0001
0100
,  // measure 94
0010
1000
0002
0000
,  // measure 95
1000
1003
0001
1000
,  // measure 96
0100
0100
0000
1000
0000
0000
0002
0000
,  // measure 97
0203
0320
2030
0000
,  // measure 98
0000
0000
0000
3000
;

//---------------dance-single - ----------------
#NOTES:
     dance-single:
     :
     Beginner:
     5:
     0.256604,0.322504,0.032659,0.057153,0.000000,220.000000,216.000000,4.000000,7.000000,0.000000,0.000000,0.256604,0.322504,0.032659,0.057153,0.000000,220.000000,216.000000,4.000000,7.000000,0.000000,0.000000:
0000
0000
0000
0000
,
0000
0000
0000
0000
,
0000
0000
0000
0000
,
0000
0000
0000
0000
,
0000
0000
0000
0000
,
1000
0000
0100
0000
,
0001
0000
0100
0000
,
1000
0000
0001
0000
,
0200
0000
0300
0000
,
0020
0000
0030
0000
,
1000
0000
1000
0000
,
0001
0000
0001
0000
,
0100
0000
0100
0000
,
0010
0010
0010
0000
,
1000
0000
1000
0000
,
0100
0000
0100
0000
,
0010
0000
0010
0000
,
0001
0000
0001
0000
,
0010
0010
0010
0000
,
0001
0001
0001
0000
,
1000
1000
1000
0000
,
0100
0100
0100
0000
,
1000
1000
1000
0000
,
0010
0010
0010
0000
,
0100
0100
0100
0000
,
0001
0001
0001
0000
,
0020
0000
0030
0000
,
0001
0001
0200
0000
,
0300
0000
1000
1000
,
1000
0000
0002
0000
,
0003
0000
0100
0100
,
2000
0000
3000
0000
,
0010
0010
0010
0000
,
1000
1000
1000
0000
,
0001
0001
0001
0100
,
0100
0100
0000
0010
,
0010
0010
0000
0100
,
0100
0100
0000
0001
,
0001
0001
0000
1000
,
0000
0001
0000
1001
,
0000
0000
0000
0010
,
0000
0100
0000
0001
,
0001
0001
0000
1000
,
0000
1000
0000
1000
,
0000
1000
0000
0001
,
0000
1000
0000
0010
,
0010
0010
0000
0100
,
0000
0100
0000
0100
,
0000
0100
0000
0010
,
0000
1000
0000
0010
,
0000
0001
0001
0001
,
0000
1000
0000
0100
,
0100
0100
0000
1000
,
0000
0010
0000
0001
,
0000
0010
0010
0010
,
0000
0100
0000
0001
,
0000
1000
0000
0100
,
0100
0100
0000
1000
,
1000
1000
0010
0010
,
0010
0000
0001
0001
,
0001
0000
1000
1000
,
1000
0000
0001
0001
,
0001
0000
0100
0000
,
0010
0000
1001
0000
,
0000
0000
0010
0000
,
0010
0000
1000
1000
,
1000
0000
0100
0000
,
0100
0000
0001
0001
,
0001
0000
0010
0000
,
0001
0000
0100
0000
,
1000
0000
1001
0000
,
0000
0000
1000
0000
,
0100
0000
1000
1000
,
1000
0000
0001
0000
,
0100
0000
0001
0001
,
0001
0000
0000
0010
,
0010
0010
0010
0000
,
0001
0000
0100
0000
,
1000
0000
1000
1000
,
1000
0000
0010
0000
,
0100
0000
0010
0010
,
0010
0000
1000
0000
,
0001
0000
1000
1000
,
1000
0000
0000
0010
,
0010
0010
0010
0000
,
1000
0000
0001
0000
,
0100
0000
1001
0000
,
0000
0000
1000
0000
,
0100
0000
1000
0000
,
0010
0000
0100
0000
,
0001
0000
0010
0010
,
0010
0000
0001
0000
,
0100
0000
1000
0000
,
0100
0000
1000
0000
,
0010
0000
0100
0000
,
0001
0000
0100
0100
,
0100
0000
0000
0000
,
0000
0000
2000
0000
,
0000
0000
0000
3000
;
