#VERSION:0.83;
#TITLE:Mächö Mönky;
#SUBTITLE:;
#ARTIST:kors k;
#TITLETRANSLIT:Macho Monky;
#SUBTITLETRANSLIT:;
#ARTISTTRANSLIT:;
#GENRE:;
#ORIGIN:;
#CREDIT:;
#BANNER:Mächö Mönky-bn.png;
#BACKGROUND:Mächö Mönky-bg.png;
#PREVIEWVID:;
#JACKET:Mächö Mönky-jacket.png;
#CDIMAGE:;
#DISCIMAGE:;
#LYRICSPATH:;
#CDTITLE:;
#MUSIC:Mächö Mönky.ogg;
#OFFSET:0.000000;
#SAMPLESTART:12.800000;
#SAMPLELENGTH:20.000000;
#SELECTABLE:YES;
#DISPLAYBPM:150.000000;
#BPMS:0.000=150.000;
#STOPS:;
#DELAYS:;
#WARPS:;
#TIMESIGNATURES:0.000=4=4;
#TICKCOUNTS:0.000=4;
#COMBOS:0.000=1;
#SPEEDS:0.000=1.000=0.000=0;
#SCROLLS:0.000=1.000;
#FAKES:;
#LABELS:0.000=Song Start;
#BGCHANGES:;
#KEYSOUNDS:;
#ATTACKS:
;

//---------------dance-single - ----------------
#NOTEDATA:;
#CHARTNAME:;
#STEPSTYPE:dance-single;
#DESCRIPTION:;
#CHARTSTYLE:;
#DIFFICULTY:Hard;
#METER:16;
#RADARVALUES:0.912997,1.019269,0.636585,0.083761,0.871117,763.000000,687.000000,76.000000,10.000000,0.000000,0.000000,0.000000,0.000000,0.000000,0.912997,1.019269,0.636585,0.083761,0.871117,763.000000,687.000000,76.000000,10.000000,0.000000,0.000000,0.000000,0.000000,0.000000;
#CREDIT:;
#DISPLAYBPM:150.000000;
#NOTES:
0000
0000
0000
0000
,
0000
0000
0000
0000
,
0000
0000
0000
0000
,
0000
0000
0000
0000
,
0010
0100
0010
0100
0001
0100
1000
0000
,
0001
0010
0001
0010
1000
0010
0100
0000
,
1000
0100
1000
0100
0010
0100
0001
0000
,
1000
0100
1000
0100
0010
0001
0010
0001
0100
0010
0100
0010
1000
0000
0000
0000
,
0001
0000
0010
0000
0100
0000
1000
0000
0010
0000
0100
0001
1000
0000
0100
0010
,
0001
0000
0100
0000
0001
0000
1000
0000
0100
0000
0010
0001
0100
0000
0000
0000
,
0001
0000
1000
0000
0100
0000
0010
0000
0100
0000
1000
0001
0100
0000
0001
0010
,
0100
0000
0010
0000
0001
0000
0100
0000
0010
0000
1000
0100
0010
0000
0000
0000
,
0001
0000
1000
0000
0100
0000
0001
0000
0100
0000
1000
0010
0100
0000
0001
1000
,
0100
0000
0010
0000
0100
0000
1000
0000
0001
0000
1000
0001
0010
0000
0000
0000
,
0001
0000
1000
0000
0100
0000
1000
0000
0001
0000
0100
0010
1000
0000
0000
0000
,
0001
1000
0001
1000
0000
0000
0010
0100
0001
0010
0100
1000
0010
0000
0000
0000
,
1000
0000
0100
0000
1000
0000
0100
0000
0010
0001
0100
0001
0010
0100
1000
0000
,
0001
0000
0100
0000
0001
0000
1000
0000
0100
0000
0010
0001
0000
1000
0010
0000
,
1000
0000
0100
0000
0010
0000
0001
0000
0100
0001
0010
0100
1000
0010
0100
0000
,
0001
0000
1000
0000
0100
0000
0010
0000
0001
0000
0100
0001
0000
1000
0010
0000
,
0100
0000
0010
0000
0100
0000
0010
0000
1000
0100
0010
0001
0100
0010
1000
0000
,
0001
0000
1000
0000
0010
0000
1000
0000
0001
0000
0100
0001
0000
0100
0010
0000
,
1000
0000
0100
0000
0010
0000
0100
0000
1000
0001
0010
0001
0100
0010
1000
0000
,
1010
1010
0101
0101
1001
0000
0000
0000
,
0210
0010
0010
0010
0010
0010
0010
0310
,
0110
0110
1001
1001
0110
0000
0000
1100
,
0102
0100
0100
0100
0100
0100
0100
0103
,
0101
0101
1001
1001
1100
0000
0000
0011
,
1020
1000
1000
1000
1000
1000
1000
1030
,
1010
1010
0110
0110
0101
0000
0000
1001
,
0120
0100
0100
0100
0100
0100
0100
0130
,
0110
0101
0110
1010
0110
0000
0000
0000
,
1000
1000
0100
0100
0010
0010
0001
0001
,
0101
0101
1001
1001
0110
0010
0100
0001
,
0010
0010
0100
0100
1000
1000
0001
0001
,
0011
0101
1001
1010
1100
1000
0001
0100
,
0001
0001
0010
0010
0100
0100
1000
1000
,
0011
1100
1001
0101
1010
0110
1010
1001
,
1000
0000
0100
0010
0001
0000
0100
0001
0010
0000
0100
1000
0001
0000
0100
0010
,
2000
0000
0100
0000
0001
0000
0100
0000
3001
0000
0100
0010
1000
0000
0000
0000
,
1000
0100
1000
0100
1000
0100
1000
0100
1000
0100
1000
0100
1000
0000
0001
0000
,
0100
0001
0100
0001
0100
0001
0100
0001
0100
0010
0100
0010
1000
0000
0100
0000
,
0010
0001
1000
0001
1000
0000
0010
0100
0000
0001
0000
0100
0010
0000
0010
0000
,
1000
0000
0001
0100
0010
0100
0000
0110
0000
0001
0100
0001
1000
0000
0000
0000
,
0010
0100
0010
0100
0010
0100
0010
0100
0010
0100
0010
0100
0001
0000
0010
0000
,
0100
1000
0100
1000
0100
1000
0100
1000
0001
1000
0001
1000
0010
0100
0001
0000
,
0010
0001
0010
0100
1000
0000
0001
0100
0000
0010
0000
1000
0100
0000
0100
0000
,
1100
1100
0101
0101
0110
0000
0000
0000
,
0001
0010
0001
0010
0001
0010
0001
0010
0100
1000
0100
1000
0001
1000
0001
0000
,
1000
0010
1000
0010
0100
0010
0100
0010
0100
0001
0010
0100
1000
0001
1000
0000
,
0001
0010
0100
1000
0010
0000
1000
0001
0000
0101
0000
0100
0010
0000
1001
0000
,
1000
0100
0010
0100
1000
0000
0001
0100
0010
0100
0001
0000
0020
0000
0000
0000
,
0031
0010
0001
0010
0001
0010
0001
0010
0001
0010
0001
0010
0001
0010
0001
0010
,
0001
0100
0010
1000
0001
0100
0010
1000
0001
0010
0100
1000
0100
0010
0001
0000
,
1000
0010
1000
0010
0100
0010
0100
0010
0100
0001
0100
0001
1000
0001
1000
0001
,
0100
0100
0100
0100
0100
0000
0000
0000
,
0110
0000
0110
0000
0000
0000
1000
0100
0001
0100
1000
0100
0001
0100
0000
0000
,
0110
0000
0110
0000
0000
0000
0001
0010
1000
0010
0001
0010
1000
0010
0000
0000
,
0110
0000
0110
0000
0000
0000
1000
0100
0001
0100
1000
0100
0001
0100
0000
0000
,
0110
0000
0110
0000
0000
0000
0001
0010
1000
0010
0001
0010
1000
0010
0000
0000
,
1001
0000
1000
0100
0000
1000
0100
0010
0001
0100
0001
0100
0001
0100
0000
0000
,
0110
0000
0010
1000
0000
1000
0100
0010
0001
1000
0001
1000
0001
1000
0000
0000
,
1010
0000
1000
0001
0000
0010
0001
0100
0010
1000
0010
1000
0010
1000
0000
0000
,
2002
0000
0000
3003
,
0010
0000
1000
0100
0000
0100
0001
0000
1000
0010
1000
0000
0001
0100
0001
0000
,
0010
0000
0100
1000
0000
1000
0001
0000
0100
0001
0100
0000
0010
1000
0010
0000
,
1000
0000
0100
0001
0000
0001
1000
0000
0010
1000
0010
0000
0100
0010
0100
0000
,
0011
0000
0001
0100
0000
0001
0100
0000
0001
0000
0101
0000
1001
0000
0000
0000
,
1000
0100
1000
0100
1000
0100
1000
0100
0010
0001
0010
0001
0010
0001
0010
0001
,
0100
0001
0100
0001
0100
0001
0100
0001
1000
0010
1000
0010
1000
0010
1000
0010
,
1000
0100
1000
0100
1000
0001
1000
0010
0100
0010
0100
0001
0010
0001
0010
0001
,
1000
0100
0010
0001
0010
0100
1000
0100
0010
0001
0010
0100
1000
0000
0110
0000
,
2002
0000
0000
3003
,
0000
0000
0010
1001
;

//---------------dance-single - ----------------
#NOTEDATA:;
#CHARTNAME:;
#STEPSTYPE:dance-single;
#DESCRIPTION:;
#CHARTSTYLE:;
#DIFFICULTY:Challenge;
#METER:18;
#RADARVALUES:1.092486,1.204591,0.770603,0.041881,1.302487,913.000000,821.000000,92.000000,5.000000,0.000000,0.000000,0.000000,0.000000,0.000000,1.092486,1.204591,0.770603,0.041881,1.302487,913.000000,821.000000,92.000000,5.000000,0.000000,0.000000,0.000000,0.000000,0.000000;
#CREDIT:;
#DISPLAYBPM:150.000000;
#NOTES:
// measure 0
0000
0000
0000
0000
,  // measure 1
0000
0000
0000
0000
,  // measure 2
0000
0000
0000
0000
,  // measure 3
0000
0000
0000
0000
,  // measure 4
0010
1000
0010
1000
0010
1000
0010
1000
0010
0100
0010
0100
0010
0100
0010
0100
,  // measure 5
0001
0100
0001
0100
0001
0100
0001
0100
0001
1000
0001
1000
0001
1000
0001
1000
,  // measure 6
0001
0010
0100
1000
0010
0100
0001
1000
0100
0010
0001
1000
0010
0100
0001
1000
,  // measure 7
0001
0010
0001
0010
0001
0010
0001
0010
0001
0010
0001
0010
0001
0010
0001
0010
0001
0010
0001
0000
0000
0000
0000
0000
,  // measure 8
1001
0000
0100
0010
1000
0000
0100
0010
0001
0000
0100
0001
1000
0000
0001
0100
,  // measure 9
0010
0000
1000
0100
1000
0000
0001
0100
0001
0000
0010
0100
1000
0000
0001
0000
,  // measure 10
0100
0000
0001
1000
0100
0000
1000
0100
0010
0000
0100
0010
0001
0000
0100
0001
,  // measure 11
1000
0000
0001
0100
0001
0000
1000
0100
1000
0000
0010
0100
0001
0000
1000
0000
,  // measure 12
0010
0000
1000
0001
0010
0000
0100
1000
0100
0000
0010
0001
0100
0000
0001
1000
,  // measure 13
0100
0000
1000
0010
0100
0000
0001
1000
0001
0000
0010
0100
1000
0000
0010
0000
,  // measure 14
1000
0000
0100
1000
0001
0000
0100
0001
1000
0000
0010
1000
0001
0000
0000
0000
,  // measure 15
1000
0100
0010
0001
0000
0000
0100
0010
1000
0100
0001
1000
0100
0010
0001
0000
,  // measure 16
0010
0000
0001
0100
0001
0000
1000
0100
1000
0100
0010
0001
0100
0010
1000
0001
,  // measure 17
0010
0000
0001
0010
0100
1000
0010
0100
0001
0000
0011
0000
1001
0000
0000
0000
,  // measure 18
0010
0000
0100
1000
0001
0000
0100
0001
0010
0100
1000
0100
1000
0001
0100
0010
,  // measure 19
1000
0000
0001
0010
0100
0001
0100
1000
0010
0000
0100
0001
0000
1000
0001
0000
,  // measure 20
0010
0000
0100
1000
0001
0000
1000
0001
0010
0100
1000
0100
0010
1000
0001
0100
,  // measure 21
0001
0000
1000
0100
0010
0100
1000
0001
0100
0000
0010
0100
0000
0001
1000
0000
,  // measure 22
0001
0000
0100
0001
0010
0000
0100
1000
0001
1000
0100
0010
0100
1000
0100
0010
,  // measure 23
0001
0001
0001
0001
0001
0011
0101
1001
,  // measure 24
2010
0010
0010
0010
0010
0010
0010
3010
,  // measure 25
1010
0011
1100
0101
1001
0000
0010
1001
,  // measure 26
0102
0100
0100
0100
0100
0100
0100
0103
,  // measure 27
0101
0011
0110
1100
1001
0000
0010
1010
,  // measure 28
0120
0100
0100
0100
0100
0100
0100
0130
,  // measure 29
0110
1001
1100
0011
0101
0000
1000
0011
,  // measure 30
1200
1000
1000
1000
1000
1000
1000
1300
,  // measure 31
1100
0011
0101
0110
1001
0110
1001
0000
,  // measure 32
1100
0001
0101
1000
1010
0100
0110
0001
,  // measure 33
0011
0101
1100
0011
0110
1000
0100
0010
,  // measure 34
0011
0001
0101
0010
0110
0001
0011
0100
,  // measure 35
1100
0101
1010
1001
0011
0100
1000
0010
,  // measure 36
0011
0100
0110
1000
1010
0001
1001
0100
,  // measure 37
0110
1010
0011
1100
0011
1010
1001
0011
,  // measure 38
1000
0100
1000
0100
0010
0001
0010
0001
1000
0100
1000
0100
0010
0001
0010
0001
,  // measure 39
0100
0000
0100
0000
0100
0000
0100
0000
0100
0000
0001
0010
1000
0000
0000
0000
,  // measure 40
0001
0000
1000
0100
0000
1000
0100
0000
0010
0001
0000
0100
0001
0000
1000
0001
0000
0010
0001
0000
0100
0001
0000
0010
,  // measure 41
0100
0000
1000
0100
0000
1000
0100
0000
0010
0001
0000
0100
0001
0000
0010
0100
0000
1000
0010
0000
1000
0001
0000
0000
,  // measure 42
0010
0000
0001
0100
0000
0001
1000
0000
0000
0010
0000
0110
0000
0000
1001
0000
0000
1000
0100
0000
0010
0001
0000
0000
,  // measure 43
0101
0000
0000
1000
0000
0100
1000
0000
0001
0100
0000
0010
0000
0000
1010
0000
0000
1000
0100
0000
0000
1001
0000
0000
,  // measure 44
0010
0000
1000
0100
0000
1000
0100
0000
0010
0100
0000
1000
0001
0000
0100
0001
0000
0010
0100
0000
0001
0100
0000
1000
,  // measure 45
0100
0000
0000
0000
1000
0000
0001
0000
0000
0000
0010
0000
0100
0000
0000
0000
1000
0000
0001
0000
0000
0000
0100
0000
0001
0000
0000
0010
0000
0000
0100
0000
0000
1000
0000
0000
0100
0000
0000
0010
0000
0000
0001
0000
0000
0000
0000
0000
,  // measure 46
0010
0000
0001
0100
0000
0010
1000
0000
0100
0010
0000
0001
0000
0000
0100
0001
0000
1000
0001
0000
0100
0010
0000
0000
,  // measure 47
0110
0000
1001
0000
0011
0000
1100
0000
0001
1000
0100
0010
0100
0000
0000
0000
,  // measure 48
0001
0000
1000
0100
0000
1000
0001
0000
0100
0001
0000
1000
0100
0000
1000
0010
0000
0100
0001
0000
0010
0100
0000
1000
,  // measure 49
0001
0000
1000
0100
0000
0010
0100
0000
0010
0100
0000
0010
0001
0000
1000
0100
0000
1000
0100
0000
1000
0001
0000
0000
,  // measure 50
0010
0000
0100
1000
0000
0100
1000
0000
0000
0001
0000
0101
0000
0000
0110
0000
0000
0010
0100
0000
0100
0001
0000
0000
,  // measure 51
1000
0000
0010
0000
0100
0000
0010
0000
0100
0000
0010
0000
1000
0000
0000
0000
0000
0000
0001
0000
0010
0000
0100
0000
0010
0000
0100
0000
0010
0000
0001
0000
0000
0000
0000
0000
0100
0000
0000
0010
0000
0000
0100
0000
0000
0010
0000
0000
,  // measure 52
0100
0000
0001
0010
0000
0001
1000
0000
0001
0100
0000
0001
0010
0000
0100
1000
0000
0001
0100
0000
0001
1000
0000
0001
,  // measure 53
0100
0000
0010
1000
0000
0100
0001
0000
1000
0001
0000
0100
0010
0000
0010
0100
0000
0100
0001
0000
0001
1000
0000
0000
,  // measure 54
0001
0100
0010
1000
0001
0010
0100
1000
0001
0100
0010
1000
0001
0010
0100
1000
,  // measure 55
0010
0000
0010
0000
0010
0000
0010
0000
1000
0100
0010
0001
0100
0000
0000
0000
,  // measure 56
0110
0000
0110
0000
0000
0000
0010
0100
0001
0010
0100
1000
0100
0010
0000
0000
,  // measure 57
0011
0000
0011
0000
0000
0000
1000
0001
1000
0010
0100
0010
0100
0001
0000
0000
,  // measure 58
1100
0000
1100
0000
0000
0000
0001
1000
0100
1000
0001
1000
0010
0100
0000
0000
,  // measure 59
1001
0000
1001
0000
0000
0000
0001
1000
0100
0010
0001
0100
0001
1000
0000
0000
,  // measure 60
1001
0000
1000
0100
0000
1000
0100
0010
0001
0100
1000
0100
0010
0001
1000
0000
,  // measure 61
0011
0000
0100
0001
0000
1000
0100
0010
0100
0010
0001
0100
0010
0100
0001
0000
,  // measure 62
1001
0000
0010
0001
0000
0100
0001
1000
0001
0010
0100
0010
0001
0100
1000
0000
,  // measure 63
0110
0000
0010
1000
0000
1000
0100
0000
0100
0001
0000
0001
0010
0100
1000
0000
,  // measure 64
1001
0000
1000
0100
0000
0100
0001
0000
0010
0001
0100
0001
0100
0010
1000
0100
,  // measure 65
0010
0000
0001
0100
0000
0100
0010
0000
1000
0100
0010
0100
1000
0001
1000
0001
,  // measure 66
0010
0000
0100
1000
0000
1000
0001
0000
1000
0001
0010
0100
1000
0010
0100
0001
,  // measure 67
1000
0001
0100
0000
0010
1000
0000
1000
0001
0000
0101
0000
1100
0000
0000
0000
,  // measure 68
0001
0010
0001
0010
0001
0010
0001
0010
0100
1000
0100
1000
0100
1000
0100
1000
,  // measure 69
0001
0010
0001
0010
0100
1000
0100
1000
0001
0100
0001
0100
0010
1000
0010
1000
,  // measure 70
0001
0100
1000
0100
0010
0001
0100
1000
0010
0001
1000
0001
0010
0100
1000
0010
,  // measure 71
0001
0100
1000
0010
0001
1000
0100
0010
0100
1000
0010
0001
0100
1000
0001
0010
,  // measure 72
0200
0000
0000
0300
,  // measure 73
0000
0000
0000
0000
0000
0000
0000
0000
0010
0100
0010
0000
1001
0000
0000
0000
;
