#TITLE:Linus;
#SUBTITLE:;
#ARTIST:LEGO STUDIO;
#TITLETRANSLIT:;
#SUBTITLETRANSLIT:;
#ARTISTTRANSLIT:;
#GENRE:;
#CREDIT:;
#BANNER:Linus-bn.png;
#BACKGROUND:Linus-bg.png;
#LYRICSPATH:;
#CDTITLE:;
#MUSIC:Linus.mp3;
#OFFSET:0.750000;
#SAMPLESTART:19.497000;
#SAMPLELENGTH:20.000000;
#SELECTABLE:YES;
#DISPLAYBPM:160.000000:176.000000;
#BPMS:0.000000=176.000000
,54.979168=160.000000
,56.000000=176.000000
,120.000000=172.000000
,152.000000=168.000000
,216.000000=170.000000
,228.000000=169.000000
,229.020828=170.000000
,230.020828=171.000000
,231.000000=172.000000
,232.000000=173.000000
,232.770828=174.000000
,233.583328=175.000000
,234.354172=176.000000
,235.187500=166.000000
,235.979172=176.000000
;
#STOPS:
;
#BGCHANGES:-28.000=Linus.avi=1.000=1=0=1===CrossFade==,
99999=-nosongbg-=1.000=0=0=0 // don't automatically add -songbackground-
;
#KEYSOUNDS:;
#ATTACKS:;

//---------------dance-single - ----------------
#NOTES:
     dance-single:
     :
     Hard:
     15:
     0.822196,1.183300,0.462971,0.771619,0.453894,634.000000,583.000000,51.000000,85.000000,0.000000,0.000000,0.822196,1.183300,0.462971,0.771619,0.453894,634.000000,583.000000,51.000000,85.000000,0.000000,0.000000:
0000
0000
0000
0000
,
0000
0000
0000
0000
,
0000
0000
0000
0000
,
0000
0000
0000
0000
,
0000
0000
0000
0000
,
1001
0000
0000
0000
1000
0100
1000
0100
2000
0000
3200
0000
0320
0000
0032
0000
,
0103
0000
0000
0000
0010
0001
0010
0001
0020
0000
0032
0000
2003
0000
3200
0000
,
1300
0000
0000
0000
0010
0100
0010
0100
0020
0000
2030
0000
3002
0000
0203
0000
,
0300
0000
0100
0001
0100
0000
0010
1000
0010
0000
1000
0001
1000
0000
0010
0000
,
0110
0000
0000
0000
1000
0001
1000
0001
2000
0000
3020
0000
0230
0000
0302
0000
,
0013
0000
0000
0000
0001
0100
0001
0100
0002
0000
0023
0000
0230
0000
2300
0000
,
3010
0000
0000
0000
0100
0001
0100
0001
0200
0000
0320
0000
2030
0000
3002
0000
,
0103
0000
0001
0010
0001
0000
1000
0100
1000
0000
0001
0100
0001
0000
1000
0010
,
1000
0100
1000
0100
0010
0001
0010
0001
0100
0000
0101
0000
1100
0000
0000
0000
,
1001
0000
0000
0010
1000
0000
0000
0000
1100
0000
0100
0000
0010
0000
0001
0000
,
1000
0000
0000
0001
0100
0000
0000
0000
0011
0000
0010
0000
0100
0000
1000
0000
,
0100
0000
0000
1000
0001
0000
0000
0000
2000
0000
3002
0000
0203
0000
0320
0000
,
1030
0000
0000
0100
1000
0000
0000
0000
0011
0000
0001
0000
0100
0000
0010
0000
,
1001
0000
0000
0010
0100
0000
0001
0000
0010
0000
0001
0000
1000
0000
0100
0000
,
0010
0000
0000
0001
1000
0000
0100
0000
1000
0000
0010
0000
0100
0000
0001
0000
,
0010
0000
0000
0010
0001
0000
0000
0001
0200
0000
0320
0000
2030
0000
3002
0000
,
0013
0000
0000
0001
0010
0000
0000
0010
0100
0000
1000
0000
0001
0000
1000
0000
,
0011
0000
0000
0001
0100
0000
0000
0000
0110
0000
0100
0000
0010
0000
1001
0000
,
1000
0000
0000
0100
0001
0000
0000
0000
0101
0000
0001
0000
1000
0000
1001
0000
,
0010
0000
0000
1000
0100
0000
0000
0000
2000
0000
3002
0000
0023
0000
0230
0000
,
1300
0000
0000
0010
1000
0000
0000
0000
0002
0000
0023
0000
0230
0000
2300
0000
,
3010
0000
0000
0010
1000
0000
0000
1000
0002
0000
0023
0000
0230
0000
2300
0000
,
3010
0000
0200
0000
0301
0000
0000
0010
0001
0000
0002
0000
2003
0000
3020
0000
,
1030
0010
0100
0101
0001
1010
0010
0000
,
1001
0000
0001
0000
0100
0000
0110
0000
0010
0000
0101
0000
0001
0100
0010
0100
,
0001
0000
1100
0000
0010
0100
0001
1000
,
0100
0000
0011
0000
0010
0001
1000
0100
,
1000
0000
0110
0000
1000
0100
0010
0001
,
0000
0000
0010
0001
0100
0000
0010
1000
0100
0000
0001
1000
0001
0000
0100
0000
,
0110
0000
0000
0010
1000
0000
0000
1000
0100
0000
0000
0100
0010
0000
0000
0010
,
0001
0000
0000
0001
1000
0000
0000
1000
0010
0000
0000
0010
0100
0000
0000
0100
,
0010
0000
0000
0010
1000
0000
0000
1000
0100
0000
0000
0100
1000
0000
0000
1000
,
0001
0000
0100
0010
1000
0000
0001
0100
0010
0000
1000
0001
0100
0000
0010
0000
,
1000
0000
1000
0000
0010
0100
0010
0200
,
0000
0301
0100
0010
1000
0200
2300
0000
,
0010
0000
0100
0000
3010
1000
0001
0100
,
0010
0010
1000
1100
0000
0001
0101
0000
,
0010
1000
0100
0010
0001
0100
1000
0001
,
0100
0010
1000
0100
0010
0001
1000
0001
,
0100
0010
1010
0100
0000
0010
1001
0100
,
0000
1000
1100
0001
0000
0010
1001
0001
,
1000
0100
1000
0010
0001
0010
0001
0100
,
0010
0001
0100
0010
1000
0100
0001
0000
,
1000
0010
0001
0100
0010
0001
0100
1000
,
0010
1000
0100
0001
1000
0010
0001
0000
,
0100
0010
1000
0100
0001
0010
0001
1000
,
0100
1000
0010
0100
1000
0001
0010
0001
,
1000
0001
0010
0100
0010
1000
0100
0001
,
1000
1000
0100
0100
0010
0010
0001
0001
,
1002
0203
0320
2030
3000
2001
3200
0320
,
0032
0000
0000
0000
0003
0000
0000
0000
1000
0010
1000
0010
1000
0010
1000
0010
,
2000
3200
0320
0032
0203
0320
2030
3002
,
1003
0100
1000
0100
0010
0001
0010
0001
0100
0010
0100
0010
1000
0001
1000
0001
,
1000
0100
0010
0001
0100
0010
1000
0001
0010
0100
0001
1000
0001
0010
0100
1000
,
0010
0000
0000
0000
1001
0000
0000
0010
1000
0000
0000
1000
0100
0000
1000
0000
,
0001
0000
0010
0000
0100
0000
0000
0100
0010
0000
0000
0010
0001
0000
1000
0000
,
0010
0000
0100
0000
0001
0000
0000
0010
0001
0000
0000
0100
0020
0000
2030
0000
,
3002
0000
0203
0000
0001
0000
0000
0301
1000
0000
0000
1000
0001
0000
1000
0000
,
0010
0000
0100
0000
0110
0000
0000
0000
1000
0010
1000
0010
1000
0000
0100
0000
,
0010
0000
0001
0000
0100
0000
0000
0000
0001
1000
0001
1000
0001
0000
1000
0000
,
0100
0010
0100
0000
1000
0000
0001
0010
,
0100
1000
0010
1001
0100
0110
0010
1010
,
0001
0000
0011
0000
0100
0000
0000
0000
0001
0010
0001
0010
0001
0000
1000
0000
,
0100
0000
1000
0000
0010
0000
0000
0000
1000
0100
1000
0100
1000
0000
0010
0000
,
0100
0001
0010
0000
0110
0000
2000
3200
,
0320
0000
0032
0000
0010
0000
0000
0013
0001
0000
0000
1000
0100
0000
0010
0000
,
0001
0000
0100
0000
0101
0000
0000
0001
0010
0000
0000
0010
0002
0000
2003
0000
,
3020
0230
0310
2000
3100
0000
0001
0200
,
0302
0023
0031
0001
1000
1100
0010
0011
,
0100
0000
1010
0010
1000
1100
0001
0110
,
0100
0000
1100
1000
0010
1001
0100
0110
,
1000
0000
1100
1000
0010
0110
0100
0101
,
0001
2002
0000
0000
0000
0000
0000
0000
,
0000
0000
0000
0000
,
3003
0000
0000
0000
;

//---------------dance-single - ----------------
#NOTES:
     dance-single:
     :
     Medium:
     12:
     0.590062,0.609579,0.236025,0.290492,0.045389,455.000000,429.000000,26.000000,32.000000,0.000000,0.000000,0.590062,0.609579,0.236025,0.290492,0.045389,455.000000,429.000000,26.000000,32.000000,0.000000,0.000000:
0000
0000
0000
0000
,
0000
0000
0000
0000
,
0000
0000
0000
0000
,
0000
0000
0000
0000
,
0000
0000
0000
0000
,
1001
0000
0010
0000
1000
0100
0010
0001
,
0100
0000
0101
0000
0001
0010
0100
1000
,
0001
0000
0011
0000
0100
0001
1000
0010
,
0000
0010
1000
0010
1000
0100
0010
0001
,
0100
0000
0110
0000
0010
0100
0001
1000
,
0100
0000
1100
0000
1000
0010
0100
0001
,
1000
0000
1010
0000
0100
1000
0001
0010
,
0000
0000
0000
0010
0001
0000
0000
0001
1000
0000
0000
1000
0100
0000
0000
0100
,
1000
0001
1000
0001
0100
0100
0100
0000
,
0010
0000
0110
0000
0001
0001
1000
0100
,
0000
0000
0010
0000
0100
0100
0001
1000
,
0000
0000
0001
0000
1000
1000
0100
0020
,
0000
0001
0032
0000
1003
0001
0000
0101
,
0000
0000
0010
0100
0001
0010
0100
1000
,
0000
0000
0000
0010
1000
0001
1000
0100
,
0000
0000
0100
0000
1000
1000
0001
0200
,
0000
0010
0320
0000
1030
0001
1000
0100
,
0010
0000
1100
0000
1000
1000
0001
0100
,
0001
0000
0000
0010
0010
0001
1000
0100
,
1000
0000
0010
0000
1000
0100
0010
0002
,
0000
0100
0203
0000
0301
0010
0100
1000
,
0010
0000
1010
0000
1000
0001
1000
0200
,
0000
2300
3001
0000
1000
0010
1000
0001
,
0010
0010
0001
0100
0000
0011
0000
0000
,
1000
1000
0001
0100
0000
1001
0000
0000
,
0010
0000
0010
0000
1000
0100
1000
0100
,
0010
0000
0010
0000
0001
0100
0001
0100
,
0010
0000
0010
0000
1000
0001
1000
0001
,
0000
0100
0001
0100
0001
0010
0100
1000
,
0001
0000
1000
0100
1000
0000
0001
0000
,
0010
0000
0001
0100
0001
0000
0010
0000
,
0100
0000
1000
0010
1000
0000
0100
0000
,
1000
0001
1000
0001
0100
0010
0100
0010
,
1000
0000
1100
0000
1000
0100
0010
0002
,
0000
2003
0000
3020
0000
1030
0200
0000
,
0000
0000
0000
0000
0000
1300
0100
0001
,
0100
2000
0000
3020
0000
0230
0001
0000
,
0301
0010
0001
1000
0000
1000
0100
0010
,
0100
1000
0010
1000
0000
0100
0010
0001
,
0100
0010
0100
0010
0000
1000
0001
1000
,
0000
0001
1000
0100
0000
1000
0001
0100
,
0000
0000
0010
0100
0001
1000
0100
0020
,
0000
0032
0000
0203
0000
0302
0000
0000
,
0003
0000
0001
0010
0100
1000
0010
0200
,
0000
0320
0000
2030
0000
3001
1000
0100
,
1000
0000
0010
0100
0010
1000
0100
0020
,
0000
0230
0000
0320
0000
1030
0001
0000
,
0200
0000
0010
0000
0000
0310
0100
0001
,
0000
0001
1000
0100
0000
0100
1000
0010
,
1000
0100
0010
0001
0000
1000
0100
0010
,
0002
0000
0000
0000
1000
1000
1000
1000
,
1003
0100
1000
0100
0010
0001
0010
0001
,
0100
0000
0000
0100
0010
0000
0000
0010
1000
0000
0000
1000
0001
0000
0000
0001
,
1000
0000
0000
1000
0010
0000
0000
0010
0100
0000
0100
0000
0001
0000
0001
0000
,
1000
0000
1010
0000
0101
0000
0001
0010
,
0100
1000
0010
0000
1001
0000
0100
0001
,
0100
0010
1000
0000
1100
0000
0001
0010
,
0001
1000
0100
0000
0110
0000
1000
0001
,
0100
0010
0100
0000
0001
1000
0001
1000
,
0100
0010
0001
0000
0100
0010
0100
0001
,
1000
0100
0010
0000
0011
0000
0001
1000
,
0001
1000
0100
0000
1100
0000
1000
0001
,
1000
0010
0100
0000
0110
0000
0001
0001
,
1000
0100
0010
0000
0010
0001
1000
0100
,
1000
0001
0100
0000
1010
0000
1000
0001
,
1000
0100
1000
0000
1100
0000
0001
1000
,
0001
0100
0001
0000
1001
0000
0010
0001
,
0100
0010
0000
1000
0100
0000
1000
0001
,
1000
0100
0010
0010
0001
2000
0000
0100
,
3100
0000
1000
1000
0010
0200
0000
0001
,
0301
0000
0100
0100
0010
2000
0000
0001
,
3001
0000
1000
0100
0010
0001
0000
0110
,
0000
2002
0000
0000
0000
0000
0000
0000
,
0000
0000
0000
0000
,
3003
0000
0000
0000
;

//---------------dance-single - ----------------
#NOTES:
     dance-single:
     :
     Easy:
     8:
     0.392942,0.537864,0.236025,0.163402,0.000000,303.000000,277.000000,26.000000,18.000000,0.000000,0.000000,0.392942,0.537864,0.236025,0.163402,0.000000,303.000000,277.000000,26.000000,18.000000,0.000000,0.000000:
0000
0000
0000
0000
,
0000
0000
0000
0000
,
0000
0000
0000
0000
,
0000
0000
0000
0000
,
0000
0000
0000
0000
,
1001
0100
1000
0001
,
1001
0100
0001
1000
,
1001
0010
0100
0001
,
1000
1000
1000
1000
,
0110
0100
0010
1000
,
0110
0100
0010
0001
,
0110
0001
1000
0100
,
2000
3200
0320
0032
,
0103
0000
0100
0000
0100
0100
0000
0000
,
0000
0000
1001
0000
1000
0001
0000
0100
,
0000
0000
0000
0000
0001
1000
0000
0010
,
0000
0000
0000
0000
1000
0010
0000
0100
,
0000
0000
0001
0000
0001
1000
0000
0100
,
0000
0000
1000
0001
1000
0001
0000
0010
,
0000
0000
0000
0001
0100
0001
0000
1000
,
0000
0000
0000
0000
0010
0100
0000
0001
,
0000
0000
0001
0000
1000
0010
0000
0100
,
0000
0000
0110
0000
0010
0100
0000
0001
,
0000
0000
0000
0001
0010
0001
0000
0100
,
0000
0000
0000
0000
0001
1000
0000
0001
,
0000
0000
0010
0000
0001
1000
0000
0100
,
0000
0000
0000
0000
0010
0100
0010
0100
,
0000
0110
0000
0000
0000
1000
0010
1000
,
0001
0001
0000
2000
0000
3200
0000
0300
,
1000
1000
0000
0002
0000
0023
0000
0030
,
1001
0001
0010
0100
,
1001
1000
0001
0010
,
0110
0010
1000
0010
,
0001
0001
0001
0001
,
1000
1000
1000
1000
,
0100
0100
0100
0100
,
0010
0010
0010
0010
,
0001
0001
0001
0001
,
0010
0000
0001
0100
,
0010
1000
0100
0020
,
0000
0000
0030
0010
,
0001
1000
0001
0100
,
0010
0100
0000
0100
,
0001
0010
0100
1000
,
0010
0000
1000
1000
0000
0000
0001
0001
,
0000
0000
0100
0100
0000
0000
0010
0010
,
0000
0001
0100
1000
,
0010
0100
0001
2000
,
0000
3100
1000
0010
,
0100
0001
1000
0001
,
0010
0001
0100
0010
,
1000
0100
0010
0001
,
0100
0000
0100
0000
,
0001
1000
0001
1000
,
0010
0000
0010
0000
0000
1000
0001
1000
,
0002
0000
1000
1003
,
0010
0100
0001
1000
,
0002
0023
0230
2300
,
3020
0000
0130
0000
0001
1000
0001
1000
,
0000
0000
0000
0000
1001
0000
1000
0100
,
0000
1000
0000
0000
0000
0000
0010
0100
,
0000
0001
0000
0000
0000
0000
1000
0001
,
0000
1001
0000
0000
0001
0000
0100
0010
,
0000
1000
0000
0000
1000
0010
1000
0010
,
0000
0100
0000
0000
0000
0001
1000
0001
,
0000
0010
0000
0000
0000
0000
0001
0100
,
0000
0110
0000
0000
0010
0000
0100
0001
,
0000
1000
0000
0000
0110
0000
0010
1000
,
0000
0100
0000
0000
0000
1000
0001
0100
,
0000
0001
0000
0000
0000
0000
0100
0010
,
0000
1001
0000
0000
0110
0000
1000
0100
,
0000
0001
0000
0000
0000
0000
0010
0100
,
0010
1000
0000
0001
0000
0000
0000
0100
,
0010
0100
0001
1000
0000
0110
0000
0110
,
0000
0000
0010
0100
0000
1001
0000
1001
,
0000
0000
0001
0100
0000
1001
0000
0110
,
0000
0000
0010
0100
0000
0001
0000
0110
,
0000
2002
0000
0000
0000
0000
0000
0000
,
0000
0000
0000
0000
,
3003
0000
0000
0000
;

//---------------dance-single - ----------------
#NOTES:
     dance-single:
     :
     Beginner:
     3:
     0.182854,0.286861,0.045389,0.018156,0.000000,141.000000,136.000000,5.000000,2.000000,0.000000,0.000000,0.182854,0.286861,0.045389,0.018156,0.000000,141.000000,136.000000,5.000000,2.000000,0.000000,0.000000:
// measure 0
0000
0000
0000
0000
,  // measure 1
0000
0000
0000
0000
,  // measure 2
0000
0000
0000
0000
,  // measure 3
0000
0000
0000
0000
,  // measure 4
0000
0000
0000
0000
,  // measure 5
1001
0000
0000
0000
,  // measure 6
0010
0000
0000
0000
,  // measure 7
0100
0000
0000
0000
,  // measure 8
0000
0001
0000
0001
,  // measure 9
0000
0000
0000
0000
,  // measure 10
1000
0000
0000
0000
,  // measure 11
0010
0000
0000
0000
,  // measure 12
0100
0000
0100
0000
,  // measure 13
0001
0001
0001
0000
,  // measure 14
0000
0000
0010
0000
,  // measure 15
0100
0000
0010
0000
,  // measure 16
0100
0000
0001
0000
,  // measure 17
1000
0000
0001
0000
,  // measure 18
1000
0000
0001
0000
,  // measure 19
0010
0000
0001
0000
,  // measure 20
0010
0000
0100
0000
,  // measure 21
1000
0000
0100
0000
,  // measure 22
1000
0000
0001
0000
,  // measure 23
1000
0000
0010
0000
,  // measure 24
0100
0000
0001
0000
,  // measure 25
0100
0000
0010
0000
,  // measure 26
1000
0000
0100
0000
,  // measure 27
0100
0000
0000
0000
,  // measure 28
1000
0000
1000
0000
,  // measure 29
0001
0000
0001
0000
,  // measure 30
1001
0000
0000
0000
,  // measure 31
0100
0000
0000
0000
,  // measure 32
0001
0000
0000
0000
,  // measure 33
0000
1000
0000
1000
,  // measure 34
0000
0000
0010
0000
,  // measure 35
0010
0000
0010
0000
,  // measure 36
0100
0000
0001
0000
,  // measure 37
0100
0000
0001
0000
,  // measure 38
1000
0000
1000
0000
,  // measure 39
0010
0000
0100
0000
,  // measure 40
0001
0000
0000
0000
,  // measure 41
1000
0000
0001
0000
,  // measure 42
1000
0000
1000
0000
,  // measure 43
0010
0000
0010
0000
,  // measure 44
0000
1000
0000
0100
,  // measure 45
0000
0010
0000
0001
,  // measure 46
0000
0100
0100
0000
,  // measure 47
0001
0001
0001
0000
,  // measure 48
0000
1000
1000
0000
,  // measure 49
0010
0010
0010
0000
,  // measure 50
0100
0000
0001
0000
,  // measure 51
1000
0000
0010
0000
,  // measure 52
0100
0000
0000
0000
,  // measure 53
0001
0000
0001
0000
,  // measure 54
1001
0000
0000
0000
,  // measure 55
1001
0000
0000
0000
,  // measure 56
0010
0000
0100
0000
,  // measure 57
0001
0001
0001
0000
,  // measure 58
1000
1000
1000
1000
,  // measure 59
0000
0000
0000
0010
,  // measure 60
0000
0010
0000
0100
,  // measure 61
0000
0100
0000
0001
,  // measure 62
0000
0001
0000
1000
,  // measure 63
0000
1000
0000
0100
,  // measure 64
0000
0100
0000
1000
,  // measure 65
0000
1000
0000
0001
,  // measure 66
0000
0001
0000
0010
,  // measure 67
0000
0010
0000
0001
,  // measure 68
0000
0100
0000
1000
,  // measure 69
0000
0010
0000
1000
,  // measure 70
0000
0001
0000
0100
,  // measure 71
0000
0010
0000
1000
,  // measure 72
0000
1000
0000
0000
,  // measure 73
0000
0010
0010
0010
,  // measure 74
0000
0100
0100
0100
,  // measure 75
0000
0001
0001
0001
,  // measure 76
0000
1000
1000
1000
,  // measure 77
0000
2002
0000
0000
,  // measure 78
0000
0000
0000
0000
,  // measure 79
3003
0000
0000
0000
;
