#TITLE:Le départ à L'Alpe-d'Huez;
#ARTIST:ELEKTEL feat. Mayu-Chan;
#TITLETRANSLIT:Le depart a L'Alpe-d'Huez;
#BANNER:Le départ à L'Alpe-d'Huez-bn.png;
#BACKGROUND:Le départ à L'Alpe-d'Huez-bg.png;
#JACKET:Le départ à L'Alpe-d'Huez-jacket.png;
#MUSIC:Le départ à L'Alpe-d'Huez.ogg;
#OFFSET:0.875;
#SAMPLESTART:0.1;
#SAMPLELENGTH:20;
#DISPLAYBPM:184;
#BPMS:0=184;
#BGCHANGES:;

//---------------dance-single - ----------------
#NOTES:
     dance-single:
     :
     Hard:
     15:
     :
0000
0000
0000
0000
,
0000
0000
0000
0000
,
0000
0000
0000
0000
,
0000
0000
0000
0000
,
0000
0000
0000
0000
,
0000
0000
0000
0000
,
0000
0000
0000
0000
,
0002
0000
0000
0000
0000
0013
0001
0000
0100
0010
0000
0010
,
1000
0000
1000
0100
0000
0100
0010
0000
0001
1000
0000
0001
,
0100
0000
0010
1000
0000
0100
1000
0000
0000
0001
0000
0001
,
0200
0000
0000
0310
0000
1000
0100
0000
0100
0010
0000
0001
,
0100
0000
0001
1000
0000
0100
0010
0001
0100
0001
0000
1000
,
0010
0000
0010
1000
0000
0001
0100
0000
0000
0010
0000
1000
,
0002
0000
0000
1003
0000
0010
1000
0000
0100
0010
0000
0010
,
0001
0000
0001
1000
0000
1000
0001
0000
0100
0010
0000
0100
,
0001
0000
0010
0100
0000
0100
1000
0000
0000
0001
0000
0000
,
0101
0000
0101
0000
0000
1000
0001
0000
0010
0100
0000
1100
,
0000
0000
0001
1000
0000
0010
0200
0000
0001
0000
0000
0310
,
1000
0000
0100
0010
0000
0000
0011
0000
0000
1000
0000
0001
,
0200
0000
0000
0310
0000
1000
0100
0000
1000
0001
0000
0001
,
1000
0000
1000
0100
0000
0100
0010
0000
0001
0010
0000
0001
,
1000
0000
1000
0010
0000
1000
0100
0000
0000
0010
0000
0001
,
0200
0000
0010
0000
0000
0301
1000
0000
0100
1000
0000
0001
,
0100
0000
0100
0010
0000
0010
1000
0100
0010
0001
0000
0001
,
1000
0000
0010
1000
0000
0001
0100
0000
0000
0010
0000
0010
,
2000
0000
0000
3001
0000
0010
0001
0000
0100
1000
0000
0100
,
0001
0000
0001
0010
0000
0010
0100
0000
1000
0001
0000
1000
,
0010
0000
0100
0001
0000
0001
0010
0000
0001
1000
0000
0000
,
1010
0000
1010
0000
0000
0100
0001
0000
0010
0001
0000
0101
,
0000
0000
1000
0100
0000
0100
0020
0000
0001
0000
0000
1030
,
0010
0000
0001
0200
0000
0000
0010
0000
0000
0310
0000
1000
,
0001
0000
0011
0000
0000
1000
0001
0000
0100
0010
0000
1010
,
0000
0000
1000
0100
0000
0100
0010
0000
0011
0000
0000
1000
,
0001
0010
0100
2000
0000
0000
3001
0000
0010
0001
0000
0100
,
0010
0000
1000
0100
0000
0010
0001
0000
1000
0001
0000
0010
,
0100
0000
0000
1000
0000
0001
1000
0000
0010
0100
0000
0001
,
0010
0000
0100
1000
0000
0001
0010
0000
0001
0100
0000
0010
,
2000
0000
0000
3010
0000
0010
0200
0000
0000
0301
0000
0001
,
0020
0000
0000
0130
0000
0100
2000
0000
0000
3001
0000
0001
,
1000
0000
1001
0000
0000
0000
0110
0000
0010
0100
0001
0100
,
0001
0000
0000
0010
0000
0000
2000
0000
0000
3001
0000
0001
,
0100
0010
0100
0001
0000
1000
0000
0000
0010
1000
0001
0200
,
0010
0000
0000
0301
0000
1000
0100
0000
1000
0001
0000
0000
,
0010
0000
0001
1000
0000
0010
2000
0000
3200
0000
0302
0000
,
0013
0000
0001
1000
0010
1000
0001
0000
1000
0100
0000
0000
,
0010
0001
0100
0001
0000
1000
0100
0000
0000
0010
0001
0100
,
2000
0000
0000
3001
0010
0100
0000
0000
1000
0001
0000
0000
,
0100
0001
1000
0020
0000
0000
0100
0000
1030
0000
0000
0001
,
0000
0000
0000
0000
0000
0010
0001
0000
0100
1000
0000
0001
,
1000
0000
0000
0010
0000
0101
0000
0000
1000
0100
0010
0001
,
0000
0000
0000
0000
0000
0010
1000
0000
0100
1000
0000
0001
,
0010
0000
0000
0110
0000
0001
1000
0000
0010
1000
0100
0001
,
0010
0100
2000
0000
0000
3001
1000
0000
1000
0010
0000
0000
,
0100
0001
0010
1000
0000
0000
1000
0000
0010
1000
0100
0010
,
0001
0000
0000
0100
0000
0010
1000
0000
0010
1000
0000
0001
,
0100
0000
0001
0010
0000
0100
1000
0000
0010
1000
0000
0002
,
0100
0000
0000
0003
0000
0000
1010
0000
0000
0000
2000
0000
0001
0000
0000
3000
0000
0000
0011
0000
0000
0000
0100
0000
,
1000
0000
0010
1000
0000
0001
0010
0000
1000
0100
0000
0100
,
0010
0000
0000
1001
0000
0100
0001
0000
1000
0100
0000
0010
,
0001
0000
0000
1100
0000
0001
1000
0000
1000
0100
0000
0001
,
0010
0000
0100
1000
0000
0001
0100
0000
0000
0101
0000
1000
,
0001
0000
1100
0000
0000
0010
1000
0000
0100
0010
0001
1000
,
0001
0000
0000
0100
0000
0100
0010
0000
0000
1000
0000
1000
,
0001
0010
0100
1000
0000
0001
1000
0000
0000
0100
0000
0100
,
0010
0000
0000
0001
0000
0100
1000
0000
0010
0100
0000
0010
,
1000
0000
0100
0010
0000
0001
0100
0000
0001
1000
0001
0010
,
0100
0000
1000
0001
0000
1000
0010
0000
0100
0001
0000
0010
,
0001
0000
0100
1000
0001
1000
0010
0000
0100
0001
0000
0010
,
1000
0000
0100
1000
0000
0001
0010
0000
0100
0010
0001
0100
,
1000
0000
0001
1000
0010
0100
0001
0000
1000
0000
0000
0001
,
1000
0100
0010
0001
0000
0100
0001
0000
1000
0000
0000
0010
,
0200
0000
0001
0000
0000
1300
0100
0000
0100
0001
0000
0001
,
0010
0000
0010
0100
0000
0100
1000
0000
1000
0001
0000
0001
,
0010
0000
0010
0001
0000
0100
1000
0000
0010
0100
0000
0100
,
0002
0000
0000
0013
0000
1000
0001
0000
1000
0100
0000
0100
,
0010
0000
0010
0100
0000
1000
0001
0000
0010
0001
0000
0100
,
0001
0000
0010
1000
0000
0100
0001
0000
0000
0010
0000
0100
,
2000
0000
0001
0000
0000
3010
0001
0000
0010
1000
0000
1000
,
0100
0000
0100
1000
0000
0001
1000
0001
0010
0100
0000
0010
,
0001
0000
0100
1000
0000
0001
1000
0000
0010
0100
0000
0000
,
0110
0000
0110
0000
0000
0001
1000
0000
0100
1000
0000
1010
,
0000
0000
0001
0100
0000
0001
2000
0000
0010
0000
0000
3001
,
0100
0000
0010
2000
0000
0000
3001
0000
0001
0100
0000
0100
,
0010
0000
0110
0000
0000
0100
0001
0000
1000
0100
0000
1100
,
0000
0000
0010
0001
0000
0100
1000
0000
1001
0000
0000
0010
,
0100
0000
0001
1000
0100
0010
0001
0010
0100
1000
0000
0001
,
0200
0000
0010
0000
0000
1300
0100
0000
0100
0001
0000
0010
,
0001
0000
0000
1000
0000
1000
0020
0000
1000
0000
0000
0031
,
0010
1000
0100
0010
0001
1000
0001
0000
0000
0100
0000
0010
,
2000
0000
0000
0000
,
0000
0000
0000
0000
,
0000
0000
0000
3000
;
